#TITLE:Dancing at the Movies;
#SUBTITLE:;
#ARTIST:-Rocket-;
#TITLETRANSLIT:;
#SUBTITLETRANSLIT:;
#ARTISTTRANSLIT:;
#GENRE:;
#CREDIT:8Chasey 2025;
#MUSIC:Dancing at the Movies.ogg;
#BANNER:Dancing at the Movies-bn.png;
#BACKGROUND:Dancing at the Movies-bg.png;
#CDTITLE:;
#SAMPLESTART:11.99;
#SAMPLELENGTH:16;
#SELECTABLE:YES;
#OFFSET:-0.022;
#BPMS:0.000=119.98;
#STOPS:;
#DISPLAYBPM:120;
#BGCHANGES:0=Dancing at the Movies.avi=1.000=1=0=0=StretchNoLoop==CrossFade==,
148=Dancing at the Movies-bg.png=1.000=0=0=0=StretchNoLoop====,
99999.000=-nosongbg-=1.000=0=0=0=StretchNoLoop====
;
#FGCHANGES:;

//--------------- dance-single - 8Chasey ----------------
#NOTES:
     dance-single:
     8Chasey:
     Beginner:
     1:
     0,0,0,0,0:
0000
0000
0000
0000
,
0000
0000
0000
0000
,
1000
0000
0000
0000
,
0001
0000
0000
0000
,
1000
0000
0001
0000
,
1001
0000
1001
0000
,
0001
0001
0001
0000
,
0000
0000
0000
0000
,
0001
0000
1000
0000
,
0001
0000
0000
0000
,
1000
1000
1000
0000
,
0000
0000
0000
0000
,
0010
0000
0100
0000
,
1001
0000
0000
0000
,
1000
0000
1000
1000
,
0000
0001
0000
0001
,
0000
1000
1000
0000
,
0001
0001
0000
0001
,
0000
0000
0100
0100
,
0000
0010
0010
0000
,
1000
0000
0001
0000
,
1000
0000
0000
0000
,
1001
0000
0000
0000
,
0001
0000
1000
0000
,
0001
0000
0000
0000
,
1000
0000
1000
0000
,
0110
0000
0000
0000
,
0100
0000
0010
0000
,
0100
0000
0000
0000
,
0010
0010
0010
0000
,
1000
1000
1000
0000
,
0000
0000
0000
0000
,
1000
0000
0001
0000
,
1000
0000
0000
0000
,
0001
0001
0001
0000
,
0000
0000
0000
0000
,
0100
0000
0010
0000
,
1001
0000
0000
0000
;

//--------------- dance-single - 8Chasey ----------------
#NOTES:
     dance-single:
     8Chasey:
     Easy:
     2:
     0,0,0,0,0:
0000
0000
0000
0000
,
0000
0000
0000
0000
,
0001
1000
0001
0000
,
1000
0001
1000
0000
,
0002
0000
2003
0000
,
3001
1000
1001
1001
,
0001
1000
0002
0000
,
1003
0000
0100
0000
,
1000
0000
0010
0000
1000
0000
0000
0020
,
0000
0030
1000
1000
,
1000
0001
2000
0000
,
3001
0000
0100
0000
,
0010
0100
0010
0000
,
0100
0000
0000
0020
0000
0000
0030
0000
,
1000
0000
0001
1001
,
0000
1000
0001
0000
,
0010
0000
0100
0000
,
0010
0100
0020
0000
,
0130
0000
1000
1000
,
0001
0000
0001
0001
,
1000
0000
0010
0000
,
0200
0000
0300
0000
,
1001
0000
0001
0000
,
1000
1000
0001
0000
,
0100
0010
0100
0000
,
0020
0000
0130
0000
,
0110
0000
0100
0000
,
0001
0001
1000
0000
,
0010
0100
0010
0000
,
1000
0001
2002
3003
,
0010
0100
0020
0000
,
0031
0000
0100
0000
,
0010
0000
0100
0000
0010
0000
0000
0200
,
0000
0300
0001
0001
,
0001
1000
0002
0000
,
1003
0000
0100
0000
,
0010
0100
0010
0000
,
0100
0000
0000
2002
0000
0000
3003
0000
;

//--------------- dance-single - 8Chasey ----------------
#NOTES:
     dance-single:
     8Chasey:
     Medium:
     4:
     0,0,0,0,0:
0000
0000
0000
0000
,
0000
0000
0000
0000
,
1000
0001
1000
0001
1000
0000
0001
0000
,
1000
0001
1000
0001
1000
0000
0001
0000
,
1000
0001
1000
0000
0001
1000
0001
0000
,
1000
0001
1001
1001
,
0001
0010
0001
0000
1000
0000
0001
0000
,
1000
0100
1000
0000
0200
0000
0300
0000
,
0010
0000
0100
0000
0010
0000
0000
0000
0001
0000
0000
1000
0000
0000
0002
0000
,
0000
0100
1000
1003
,
0010
1000
0010
0000
1000
0000
0001
0000
,
0100
0001
0100
0000
0020
0000
0030
0000
,
0100
0010
0100
0000
0010
0000
1000
0000
,
0100
0010
0000
0220
0000
0000
0330
0000
,
0100
0000
1000
0000
0001
0000
1000
1000
,
0000
0000
0010
0000
1000
0001
1000
0000
,
0100
0000
0010
0100
0010
0000
0001
0000
,
0100
0000
0000
0000
0010
0000
0000
0010
0000
0000
0020
0000
0000
0000
0130
0000
,
0000
0001
0100
0000
0001
0000
1000
0000
,
0010
1000
0010
0000
1000
0000
0001
0000
,
0100
0010
0100
0000
0010
0000
0010
0000
,
2002
0000
3003
0000
,
1000
0001
0000
1000
0000
0100
0000
0010
,
0100
0010
0000
0001
0000
1000
0000
0010
,
1000
1000
0001
0001
,
1001
0000
1000
0001
0000
0001
1000
0000
,
0010
1000
0000
0100
0010
0001
0000
0100
,
0001
0000
0000
0000
1000
0000
0000
0000
0100
0000
0000
0100
0000
0000
0200
0000
,
0000
0000
0310
0000
0001
0010
0001
0000
,
1000
0001
2002
3003
,
1000
0100
1000
0000
0010
0000
0100
0000
,
0001
0100
0001
0000
0020
0000
0030
0000
,
0100
0000
0010
0000
0100
0000
0000
0000
1000
0000
0000
0001
0000
0000
2000
0000
,
0000
0100
0001
3001
,
0010
0001
0010
0000
0001
0000
1000
0000
,
0010
1000
0010
0000
0200
0000
0300
0000
,
0010
1000
0010
0000
0100
0000
0010
0000
,
1000
0001
0000
2002
0000
0000
3003
0000
;

//--------------- dance-single - 8Chasey ----------------
#NOTES:
     dance-single:
     8Chasey:
     Hard:
     7:
     0,0,0,0,0:
0000
0000
0000
0000
,
0000
0000
0000
0000
,
1000
0001
1000
0001
1000
0001
1000
0001
,
0100
0010
0100
0010
0100
0010
0100
0010
,
1000
0001
1000
0001
0100
0010
0100
0010
,
1000
0001
1000
0001
1001
0000
1001
0000
,
0001
0000
0010
0000
0001
0000
1000
0000
0100
0000
0000
0010
0000
0000
0000
0000
,
0100
0000
0100
0000
1000
0000
0100
0000
2000
0000
0000
3002
0000
0000
0003
0000
,
0100
0000
0001
0000
0100
0000
0010
0000
1000
0000
0000
0001
0000
0000
1001
0000
,
0000
0000
0001
0000
1000
0000
0000
0100
0000
0000
0100
0000
0010
0000
0000
0000
,
0100
0000
1000
0000
0010
0000
1000
0000
0001
0000
0000
0002
0000
0000
0000
0000
,
0103
0000
0001
0000
0100
0000
0010
0000
1000
0000
0000
2000
0000
0000
0000
0000
,
3100
0000
0010
0000
0001
0000
0100
0000
0010
0000
0000
1000
0000
0000
0100
0000
,
1100
0110
0000
0022
0000
0000
0033
0000
,
0001
1000
0001
0000
0010
0100
0010
0010
,
0000
0100
1000
0001
1000
0000
1001
0000
,
0001
0000
0010
0000
0001
0000
0000
0000
1000
0000
0000
0001
0000
0000
1000
0000
,
0100
0000
0100
0000
0010
0000
0100
0010
0000
0000
0110
0000
0000
0000
0100
0000
,
1000
0000
0001
0000
0100
0000
0000
0100
0001
0000
1000
0000
0100
0000
0010
0000
,
0100
0000
0100
0000
1000
0000
0001
0000
1000
0000
0000
1000
0000
0000
0001
0000
,
0100
0010
0100
0001
1000
1000
0001
0010
,
0002
2000
0000
3003
,
1010
0010
0000
1000
0100
0010
0000
0010
,
0001
0100
0000
0002
1000
0000
1003
0001
,
0010
0001
1000
0100
1000
0010
0100
0200
,
0000
0010
0310
1000
0001
1000
0001
0000
,
1001
0000
1000
0000
0000
0000
0100
0000
1000
0000
0010
0000
0000
0100
0000
0100
,
0001
0000
0010
0000
0001
0000
0001
0000
1000
0000
0000
0010
0000
0000
0010
0000
,
0100
0000
0001
0000
0100
0001
0000
1000
0000
0000
0010
0000
1000
0010
0000
0000
,
0110
1001
0220
0330
,
0010
0000
1000
0000
0010
0000
0100
0000
0100
0000
0000
0001
0000
0000
1000
0000
,
0010
0000
1000
0000
0100
0000
0010
0000
0002
0000
0000
2003
0000
0000
3000
0000
,
0100
0000
0100
0000
1000
0000
0010
0000
0100
0000
0000
0001
0000
0000
1001
0000
,
0000
0000
1000
0000
0100
0000
0000
1000
0000
0000
0001
0000
0010
0000
0000
0000
,
0110
0000
0100
0000
1000
0000
0010
0000
1000
0000
0000
2000
0000
0000
0000
0000
,
3010
0000
1000
0000
0100
0000
0010
0000
0001
0000
0000
0002
0000
0000
0000
0000
,
0103
0000
0010
0000
0100
0000
0100
0000
0001
0000
0000
1000
0000
0000
0010
0000
,
1010
0101
0000
2002
0000
0000
3003
0000
;
