#TITLE:DDR II Super-Medley;
#SUBTITLE:;
#ARTIST:Arranged by 8Chasey;
#TITLETRANSLIT:;
#SUBTITLETRANSLIT:;
#ARTISTTRANSLIT:;
#GENRE:;
#CREDIT:;
#BANNER:DDR II Super-Medley.png;
#BACKGROUND:Fallback-bg.png;
#LYRICSPATH:;
#CDTITLE:;
#MUSIC:DDR II Super-Medley.ogg;
#OFFSET:-1.650000;
#SAMPLESTART:8.070001;
#SAMPLELENGTH:12.000000;
#SELECTABLE:YES;
#DISPLAYBPM:87.500000:175.000000;
#BPMS:0.000000=148.000000
,46.000000=145.000000
,48.000000=155.000000
,111.000000=140.000000
,176.000000=145.000000
,239.500000=124.999992
,306.000000=150.000000
,308.000000=130.000000
,340.000000=92.000000
,341.000000=97.000000
,376.000000=95.000000
,411.000000=100.000000
,412.000000=118.000000
,444.000000=135.000000
,475.000000=130.000000
,476.000000=87.500000
,492.000000=175.000000
;
#STOPS:
;
#BGCHANGES:;
#KEYSOUNDS:;
#ATTACKS:;

//---------------dance-single - ----------------
#NOTES:
     dance-single:
     :
     Beginner:
     3:
     0.155533,0.235892,0.024194,0.004032,0.000000,270.000000,264.000000,6.000000,1.000000,0.000000,0.000000,0.155533,0.235892,0.024194,0.004032,0.000000,270.000000,264.000000,6.000000,1.000000,0.000000,0.000000:
0000
0000
0000
0000
,
0000
0000
0000
0000
,
0000
0000
0000
0000
,
0000
0000
0000
0000
,
0001
0000
0001
0000
,
1000
0000
1000
0000
,
0001
0000
0001
0000
,
0001
0000
0000
0000
,
1000
0000
1000
0000
,
0001
0000
0001
0000
,
1000
0000
1000
0000
,
1000
0000
0000
0000
,
1000
0000
1000
0000
,
0100
0000
0100
0000
,
0001
0000
0001
0000
,
0010
0000
0010
0000
,
1000
0000
1000
0000
,
0100
0000
0100
0000
,
1000
0000
0001
0000
,
1000
0000
0001
0000
,
0100
0000
0100
0000
,
0001
0000
0001
0000
,
0010
0000
0010
0000
,
1000
0000
1000
0000
,
0010
0000
0000
0000
,
1000
0000
0000
0000
,
0100
0000
0000
0000
,
0001
0000
0000
0000
,
0010
0000
0010
0010
,
0100
0000
0100
0100
,
0010
0000
0010
0000
,
0100
0000
0100
0000
,
1000
0000
1000
1000
,
0001
0000
0001
0001
,
1000
0000
1000
0000
,
0001
0000
0001
0000
,
1001
0000
1000
1000
,
1001
0000
0001
0001
,
0010
0000
0010
0000
,
0100
0000
0100
0000
,
0010
0000
0010
0010
,
0100
0000
0100
0100
,
1000
0000
1000
0000
,
0001
0000
0001
0000
,
0010
0010
0010
0000
,
1000
0000
1000
0000
,
0001
0000
0001
0000
,
0100
0000
0100
0000
,
0001
0001
0001
0000
,
0100
0000
0100
0000
,
1000
0000
1000
0000
,
0010
0000
0010
0000
,
1000
0000
0000
0000
,
0001
0000
0000
0000
,
1001
0000
0000
0000
,
0010
0000
0100
0000
,
1000
0000
0000
0000
,
0001
0000
0000
0000
,
1001
0000
0000
0000
,
0010
0000
0100
0000
,
1001
0000
0000
0000
,
0001
0000
0100
0000
,
0001
0000
0000
0000
,
1000
0000
0100
0000
,
1000
0000
0000
0000
,
0010
0010
0010
0000
,
0100
0100
0100
0000
,
1000
0000
0001
0000
,
1000
0000
0000
0000
,
0010
0000
0001
0000
,
0010
0000
0000
0000
,
0010
0000
1000
0000
,
0010
0000
0000
0000
,
0010
0000
0010
0000
,
1000
0000
0001
0000
,
0100
0000
0100
0000
,
1000
0000
0000
0000
,
1000
0000
1000
0000
,
0100
0000
0100
0000
,
0001
0000
0001
0000
,
1000
0001
1000
0000
,
1000
0000
1000
0000
,
0100
0000
0100
0000
,
0001
0000
0001
0000
,
0001
1000
0001
0000
,
0000
0000
0000
0000
,
0010
0000
0000
0000
,
1000
1000
1000
0000
,
0001
0001
0001
0000
,
0010
0010
0010
0000
,
0100
0100
0100
0000
,
1000
1000
1000
0000
,
0001
0001
0001
0000
,
0010
0010
0010
0000
,
0100
0100
0100
0000
,
1000
0000
1000
0000
,
0001
0000
0001
0000
,
0010
0010
0010
0000
,
0100
0100
0100
0000
,
0010
0000
0010
0000
,
0100
0000
0100
0000
,
0001
0001
0001
0000
,
1000
1000
1000
0000
,
1000
0000
0001
0001
,
1000
0000
0001
0001
,
1000
0001
1000
0001
,
1000
0000
0001
0001
,
0001
0000
1000
1000
,
0001
1000
0001
1000
,
0001
0000
1000
0000
,
0010
0000
1000
0000
,
1000
1000
1000
0000
,
0010
0010
0010
0000
,
0001
0001
0001
0000
,
0100
0000
0000
0000
,
0001
0001
0001
0000
,
0010
0010
0010
0000
,
1000
1000
1000
0000
,
1001
0000
0000
0000
,
1000
0000
0100
0000
,
0001
0000
0010
0000
,
0001
0000
0100
0000
,
1000
0000
0010
0000
,
1000
0000
0000
0000
,
0100
0000
0000
0000
,
0001
0000
0000
0000
,
0010
0000
0000
0000
,
1000
0000
0100
0000
,
0001
0000
0010
0000
,
0200
0000
0000
0000
,
0310
0000
0000
0000
;

//---------------dance-single - ----------------
#NOTES:
     dance-single:
     :
     Easy:
     6:
     0.226387,0.263614,0.096776,0.177423,0.000000,393.000000,369.000000,24.000000,44.000000,0.000000,0.000000,0.226387,0.263614,0.096776,0.177423,0.000000,393.000000,369.000000,24.000000,44.000000,0.000000,0.000000:
0000
0000
0000
0000
,
0000
0000
0000
0000
,
0000
0000
0000
0000
,
0000
0000
0000
0000
,
1000
0001
1000
0001
,
0100
0100
0100
0000
,
0001
1000
0001
1000
,
0100
0100
0100
0000
,
0010
0001
0010
0001
,
1000
1000
1000
0000
,
0100
1000
0100
1000
,
0010
0010
0010
0000
,
0020
0000
1030
0100
,
0002
0000
0013
1000
,
0001
0100
1000
0100
,
0202
0303
1000
0100
,
0020
0030
0001
0100
,
0010
1000
0001
0100
,
0101
0000
1010
0000
,
2002
3003
0001
0100
,
0010
0020
1030
2000
,
3100
0200
0301
0002
,
0103
0200
1300
0100
,
2200
3300
0001
0100
,
0020
0000
1030
0100
,
0002
0000
0103
1000
,
1100
0000
0011
0000
,
2002
0000
0000
3003
,
1000
0000
0001
0100
,
1000
0100
0001
0100
,
1000
0010
0001
0100
,
0002
2000
0000
3003
,
0001
0000
1000
0010
,
0001
0010
1000
0010
,
0001
0100
1000
0010
,
1000
0100
0001
1000
,
0002
0003
1000
1000
,
0100
0100
0001
0001
,
0010
0010
1000
1000
,
0002
1000
1000
1003
,
0001
0000
0100
0100
,
0001
0001
0010
0010
,
0100
0100
1000
0002
,
0000
1000
1000
1000
,
0013
0001
0010
0000
,
1000
0100
1000
0000
,
0010
0001
0001
0000
,
0100
0000
0100
0000
,
0001
0100
0001
0000
,
1000
0100
1000
0000
,
0010
0000
0001
0000
,
1000
0000
0100
0000
,
1001
0000
0001
0000
,
1001
0000
1000
0000
,
1001
0000
0001
0000
,
0010
0000
0100
0000
,
1010
0000
1000
0000
,
1100
0000
0100
0000
,
0011
0000
0001
0000
,
1001
0000
1001
0000
,
1001
0000
0000
0000
,
2000
3100
1000
0000
,
0200
0301
0100
0000
,
0002
0013
0001
0000
,
0010
1000
0100
0001
,
0100
1000
0100
0000
,
0001
0100
0001
0000
,
0010
1000
0100
0001
,
0200
0300
1000
1000
,
0002
0013
0002
0103
,
0010
1000
0010
0100
,
0002
0003
0100
0100
,
0010
0001
0200
1300
,
0010
2000
3010
0000
,
1000
0010
0001
0100
,
2000
0000
3001
0100
,
1001
0000
0000
0000
,
0001
0100
0001
0000
,
0010
0100
0010
0000
,
1000
0100
1000
0000
,
0001
1000
1001
0000
,
0001
0100
0001
0000
,
0010
0100
1010
0000
,
1000
0100
1000
0000
,
1000
0001
1000
1001
,
0000
0000
0000
0000
,
1001
0000
0000
0000
,
1000
0100
1000
0100
,
1000
0100
1000
0000
,
0001
0100
0001
0100
,
0001
0100
0001
0000
,
1000
0100
1000
0100
,
1000
0100
1000
0000
,
0001
0100
0001
0100
,
0001
0100
0001
0000
,
1000
0000
0010
0001
,
0010
0000
1000
0100
,
1000
0000
0001
0010
,
0001
0000
1000
0010
,
0001
0100
1000
0000
,
1000
0010
0001
0000
,
0010
0001
0100
0000
,
0100
1000
0010
0000
,
0001
0000
0010
0000
,
0001
1000
0100
0010
,
0001
0000
1000
0000
,
1000
0001
1000
0000
,
1000
0000
0010
0000
,
1000
0001
0100
0010
,
1000
0000
0001
0000
,
0110
0000
1001
0000
,
0002
0000
0100
1003
,
2000
0000
0010
3100
,
0020
0000
1000
1030
,
0002
0010
0013
0000
,
2000
0000
0100
3001
,
0002
0000
0010
0103
,
0020
0000
0001
0031
,
1000
0001
1000
0001
,
2000
0000
0100
0000
,
0001
0000
0010
3000
,
0002
0000
0100
0000
,
1000
0000
0100
0003
,
2000
0000
0000
0000
,
0100
0000
0000
0000
,
0001
0000
0000
0000
,
0010
0000
0000
3000
,
0001
0000
0010
0000
,
0100
0000
1000
0000
,
0001
0100
0010
1000
,
0002
0000
0000
0003
;

//---------------dance-single - ----------------
#NOTES:
     dance-single:
     :
     Medium:
     8:
     0.351390,0.395421,0.133067,0.181455,0.044356,610.000000,577.000000,33.000000,45.000000,0.000000,0.000000,0.351390,0.395421,0.133067,0.181455,0.044356,610.000000,577.000000,33.000000,45.000000,0.000000,0.000000:
0000
0000
0000
0000
,
0000
0000
0000
0000
,
0000
0000
0000
0000
,
0000
0000
0000
0000
,
0010
1100
0010
0101
,
0010
1000
0100
0001
,
0010
0101
0010
1100
,
0010
0000
0100
0000
0001
1000
0001
0000
,
1000
0110
0001
0110
,
1000
0010
0001
0100
,
1000
0101
0001
1100
,
1001
0000
0100
0000
0010
0100
0010
0000
,
0100
0001
1000
0010
0100
0000
1000
0000
,
0100
0010
1000
0001
,
0010
0001
0100
1000
,
0202
0003
0010
1300
,
0010
0000
0100
0000
1000
0001
0100
0010
,
1000
0100
0010
0100
,
2020
0000
3030
0001
0000
0100
1000
0000
,
0220
0030
1000
0301
,
1000
0001
0100
0001
1000
0000
0100
0000
,
0010
0001
0100
1000
,
0010
1000
0100
0001
,
2200
0300
0010
3001
,
0100
0000
0010
0000
0100
1000
0010
1000
,
0100
0000
1000
0000
0100
0001
1000
0000
,
0101
0000
0010
0001
0000
1000
0100
0000
,
2020
0000
0000
3030
,
1000
0010
0001
0000
0010
0000
1000
0000
,
0100
0000
1000
0000
0010
0000
0001
0100
,
0001
0000
0020
0000
1030
1000
0100
0000
,
1000
0000
0010
0000
0100
0000
0001
0010
,
0001
0100
1000
0000
0100
0000
0001
0000
,
0010
0000
0001
0000
0010
0000
1000
0100
,
1000
0010
0001
0100
,
2000
0000
0020
3030
,
0011
1100
0010
1000
,
0100
0001
0100
0000
1000
0010
1000
0000
,
0020
0000
0002
0033
,
0010
1000
0100
1000
,
1010
0101
0010
0001
,
0100
1000
0100
0000
0001
0010
0001
0000
,
2000
0000
0000
0000
3000
0010
1000
0000
,
0100
0000
1000
0000
0001
0100
0001
0010
,
0200
0000
0000
0000
0000
1000
1300
0000
,
0001
0010
0001
0000
0100
0001
0100
0000
,
0002
0000
0000
0000
0000
0100
0103
0000
,
0010
1000
0010
0000
1000
0100
1000
0000
,
0020
0000
0000
0000
0000
0001
0031
0000
,
0010
1000
0100
0000
1000
0001
0100
0000
,
2020
0000
0000
0000
3030
0000
0100
1000
,
0001
0010
0001
0000
0010
0001
0100
0001
,
0200
0000
0000
0002
0000
0000
0000
0000
0303
0000
1000
0000
0010
0000
1000
0000
,
0200
0000
0000
2000
0000
0000
0000
0000
3300
0000
0001
0000
0010
0000
0001
0000
,
2000
0000
0000
0020
0000
0000
0000
0000
3030
0000
0100
0000
0001
0000
0100
0000
,
0002
0000
0000
0020
0033
0000
0000
0000
0002
0000
0000
0200
0303
0000
0000
0000
,
0020
0000
0000
2000
0000
0000
0000
0000
3030
0000
0001
0000
0100
0000
0001
0000
,
0020
0000
0000
0002
0000
0000
0000
0000
0033
0000
1000
0000
0100
0000
1000
0000
,
0002
0000
0000
2000
0000
0000
0000
0000
0000
0000
0000
0000
3003
0000
0000
0000
,
0200
0000
0000
2000
3300
0000
0000
0000
0002
0000
0000
0020
0033
0000
0001
0000
,
0010
0000
0000
1000
0000
0100
0010
0001
,
1000
0000
0001
0000
0000
0100
0010
1000
,
0000
0001
1000
0001
0000
0100
0000
0010
,
1000
0000
0001
0000
0000
0010
0100
1000
,
0001
0000
0000
0100
0000
0000
0001
0000
0000
0000
0000
0000
1000
0000
0000
0000
,
0100
0000
0000
0010
0000
0000
0000
0000
0001
0000
0000
0000
1000
0000
0001
0000
,
0100
0000
0000
0010
0000
0000
1000
0000
0001
0000
0000
0000
1000
0000
0000
0000
,
0100
0000
0000
0010
0000
0000
0001
0000
1000
0000
0000
0001
0000
0000
0000
0000
,
1000
0100
0001
0100
,
0002
0000
0000
0000
0003
1000
0001
1000
,
0000
0100
0010
0001
0000
1000
0000
0001
,
1000
0000
0000
0000
0100
0000
0000
0000
0010
0000
0000
0001
0000
0000
1000
0000
,
0001
0000
0000
1000
0000
0000
0001
0000
0000
0000
0100
0000
0010
0000
1000
0000
,
0001
0000
0000
0010
0000
0000
0100
0000
0000
0000
1000
0000
0001
0000
1000
0000
,
0001
0100
0010
1000
,
0001
0000
0000
1000
0000
0000
0001
0000
0000
0000
0000
0000
1000
0000
0000
0000
,
0001
0000
0000
1000
0000
0000
0001
0000
0000
0000
0000
0000
0000
0000
0000
0000
,
1000
0000
0100
0000
1000
0000
0100
1000
,
0001
0000
0100
0000
0001
0000
0100
0001
,
1000
0000
0100
0000
1000
0000
0100
1000
,
0001
0000
0010
0001
0010
0000
1001
0000
,
0001
0000
0100
0000
0001
0000
0100
0001
,
1000
0000
0100
0000
1000
0000
0100
1000
,
0001
0000
0100
0000
0001
0000
0100
0001
,
1000
0000
1000
0010
1000
0000
1001
0000
,
0000
0000
0000
0000
,
0100
0000
0000
0000
,
1000
0100
1000
0100
1000
0100
1000
0000
,
0001
0010
0001
0010
0001
0010
0001
0000
,
0100
1000
0100
1000
0100
1000
0100
0000
,
0010
0001
0010
0001
0010
0001
0010
0000
,
1000
0100
1000
0100
1000
0100
1000
0000
,
0001
0010
0001
0010
0001
0010
0001
0000
,
0100
1000
0100
1000
0100
1000
0100
0000
,
0001
0010
0100
1000
,
0100
0001
0100
0010
,
0001
0000
1000
0000
0100
0000
0010
0010
,
1000
0010
0100
0010
,
1000
0000
0100
0000
0010
0000
0100
0100
,
0001
1000
0100
0001
,
1000
0000
0100
0000
0010
0000
1000
1000
,
0100
0010
0001
1000
,
0100
0000
1000
0000
0100
0000
0001
0001
,
1000
0000
0001
0100
0010
0000
0100
0001
,
1000
0000
1000
0000
0010
0001
0100
0010
,
1000
0100
0010
0011
,
1000
0000
0000
0001
0000
0000
1000
0001
1000
0001
0000
0000
,
0001
0000
1000
0100
0010
0000
0100
1000
,
0001
0000
0001
0000
0010
1000
0100
0010
,
0001
0100
0010
1010
,
0100
0110
1000
0101
,
1001
0000
0100
0010
0001
0000
0010
0000
,
0110
0000
0001
0100
0010
0000
0100
0000
,
0101
0000
1000
0100
1000
0000
0001
0000
,
1100
0000
0001
0010
0001
0000
0100
0000
,
1001
0000
0100
0010
1000
0000
0010
0000
,
0110
0000
1000
0100
0010
0000
0100
0000
,
1100
0000
0001
0100
0001
0000
1000
0000
,
0001
1000
0001
1000
,
0200
1000
0000
0001
,
0000
0000
0010
0000
0001
0001
0001
0000
,
0000
1000
0000
0001
,
0000
0000
0010
0000
1000
1000
1300
0000
,
0020
0000
1000
1000
,
0000
0000
0001
0001
,
0000
0000
0100
0100
,
1000
1000
1000
0030
,
0100
0100
0001
0001
,
1000
1000
0010
0010
,
1000
0100
0001
1000
0010
0001
0100
1000
,
0200
0000
0000
0300
;

//---------------dance-single - ----------------
#NOTES:
     dance-single:
     :
     Hard:
     10:
     0.526508,0.659035,0.209682,0.032259,0.270167,914.000000,862.000000,52.000000,8.000000,0.000000,0.000000,0.526508,0.659035,0.209682,0.032259,0.270167,914.000000,862.000000,52.000000,8.000000,0.000000,0.000000:
// measure 0
0000
0000
0000
0000
,  // measure 1
0000
0000
0000
0000
,  // measure 2
0000
0000
0000
0000
,  // measure 3
0000
0000
0000
0000
,  // measure 4
0011
1100
0011
1100
,  // measure 5
0010
0000
0000
0010
0001
0000
0100
0000
0010
0000
1000
0000
0001
0000
1000
0000
,  // measure 6
1010
0101
1010
0101
,  // measure 7
0010
0000
0000
0010
1000
0000
0001
0000
1000
0000
0100
0000
0010
0000
0001
0000
,  // measure 8
0011
1001
1010
1001
,  // measure 9
0100
0000
0000
0100
0010
0000
1000
0000
0010
0000
0100
0000
0001
0000
1000
0000
,  // measure 10
1001
0110
1001
0110
,  // measure 11
1001
0000
0000
0000
0000
0000
0000
0000
0010
0000
0010
0100
0000
0000
0010
0000
,  // measure 12
0101
0000
1000
1100
0000
0010
1000
0100
,  // measure 13
0010
0000
0001
0000
0010
0001
0000
0000
0100
0000
0001
0000
0100
0001
0000
0000
,  // measure 14
0010
0000
1000
0000
0010
1000
0000
0000
0100
0000
1000
0000
0100
1000
0000
0000
,  // measure 15
0001
0000
0100
0000
0001
0010
0001
0000
,  // measure 16
1100
0000
0001
0101
0000
0010
0001
0100
,  // measure 17
0010
0000
1000
0000
0010
1000
0000
0000
0100
0000
1000
0000
0100
1000
0000
0000
,  // measure 18
0011
0000
0000
0101
0000
0010
1000
0100
,  // measure 19
2200
3300
0001
0010
,  // measure 20
0001
0100
0000
0000
0001
1000
0000
0000
0001
0010
0000
0000
1000
0010
0000
0000
,  // measure 21
0001
0100
0000
0000
1000
0100
0000
0000
0001
0010
0000
0000
0001
1000
0000
0000
,  // measure 22
1000
0010
0000
0000
1000
0001
0000
0000
1000
0100
0000
0000
0001
0100
0000
0000
,  // measure 23
1000
0010
0000
0000
0001
0010
0000
0000
1000
0100
0000
0000
1000
0001
0000
0000
,  // measure 24
0001
0100
0001
0100
0001
1000
0001
0010
,  // measure 25
0100
1000
0001
1000
0010
1000
0010
1000
,  // measure 26
0101
0000
0000
0011
0000
0100
1000
0010
,  // measure 27
0001
0000
0010
0000
0001
0010
0000
0000
1000
0000
0010
0000
1000
0010
0000
0000
,  // measure 28
0001
0000
1000
0001
1000
0001
1000
0000
,  // measure 29
0010
0000
1000
0010
1000
0001
0100
0000
,  // measure 30
0001
0000
1000
0100
0010
0001
0010
0000
,  // measure 31
0100
0000
1000
0001
1000
0001
0100
0001
,  // measure 32
1000
0000
0001
1000
0001
1000
0001
0000
,  // measure 33
0010
0000
0100
0010
0100
1000
0001
0000
,  // measure 34
0100
0000
0001
0100
0001
1000
0001
0000
,  // measure 35
0010
0000
0001
0010
0001
1000
0100
1000
,  // measure 36
0100
0000
0010
0001
1000
0001
0100
0001
,  // measure 37
1000
0000
0100
0010
0001
1000
0010
1000
,  // measure 38
0010
0000
1000
0001
0010
0001
1000
0001
,  // measure 39
1000
0000
0100
0010
0001
1000
0001
0000
,  // measure 40
0100
0000
0001
0100
0010
0100
0010
0000
,  // measure 41
1000
0000
0100
0010
0001
1000
0001
0000
,  // measure 42
1000
0000
0001
0000
0010
0000
0001
0000
1000
0000
0000
0100
1000
0000
0001
0000
,  // measure 43
0100
0000
0001
0100
0001
1000
0100
0010
,  // measure 44
1000
0000
0000
0010
0100
0000
0001
0000
1000
0000
0100
0000
0010
0000
0001
0000
,  // measure 45
1000
0000
0000
0100
0010
0000
0001
0000
0100
0000
0000
0010
1000
0000
0001
0000
,  // measure 46
1000
0000
0000
0001
0100
0000
0001
0000
1000
0000
0100
0000
0010
0000
0001
0000
,  // measure 47
1000
0000
0000
0100
1000
0000
0001
0000
0100
0000
0000
0010
1000
0000
0001
0000
,  // measure 48
0010
0000
0000
0001
1000
0000
0001
0000
0100
0000
0010
0000
1000
0000
0001
0000
,  // measure 49
0010
0000
0000
0100
1000
0000
0001
0000
0100
0000
0000
0010
1000
0000
0001
0000
,  // measure 50
1000
0000
0000
0100
0010
0000
0001
0000
1000
0000
0001
0000
0100
0000
0010
0000
,  // measure 51
1000
0000
0000
0001
0010
0000
0001
0000
1000
0000
0100
1000
0001
0000
1000
0001
,  // measure 52
1000
0000
0000
0100
0000
0000
0000
0000
0100
0000
0010
0000
1000
0000
0100
0000
,  // measure 53
0010
0000
0000
0001
0000
0000
0000
0000
0100
0000
0010
0000
1000
0000
0001
0000
,  // measure 54
1000
0000
0000
0100
0000
0000
0000
0000
0100
0000
0001
0000
1000
0000
0001
0000
,  // measure 55
0010
0000
0000
0001
0000
0000
0000
0000
0100
0000
0000
0010
1000
0000
0001
0000
,  // measure 56
1000
0000
0000
0100
0000
0000
0000
0000
1000
0000
0001
0000
0100
0000
0010
0000
,  // measure 57
1000
0000
0000
0001
0000
0000
0000
0000
1000
0000
0100
0000
1000
0000
0001
0000
,  // measure 58
0010
0000
0000
0100
0000
0000
0000
0000
1000
0000
0001
0000
0100
0000
0001
0000
,  // measure 59
1000
0000
0000
0100
0010
0000
0001
0000
1000
0000
0000
0001
1000
0000
0001
0000
,  // measure 60
1000
0000
0010
0000
0100
0000
0010
1000
,  // measure 61
0100
0000
0000
0001
0010
0000
1000
0000
0100
0000
0001
0000
1000
0000
0010
0000
,  // measure 62
0100
0000
0000
0001
0010
0000
1000
0000
0100
0000
0010
0000
1000
0000
0000
0000
,  // measure 63
0100
0000
0000
0001
0010
0000
1000
0000
0100
0000
0001
0000
0010
0000
1000
0000
,  // measure 64
0100
0000
0000
0001
0010
0000
1000
0000
0100
0000
0001
0000
0010
0000
0000
0000
,  // measure 65
1000
0000
0000
0001
0010
0000
1000
0000
0100
0000
0010
0000
1000
0000
0100
0000
,  // measure 66
0010
0000
0000
1000
0100
0000
0010
0000
1000
0000
0100
0000
0001
0000
0000
0000
,  // measure 67
1000
0000
0000
0001
0010
0000
0100
0000
0010
0000
1000
0000
0100
0000
0001
0000
,  // measure 68
0010
0000
0000
1000
0001
0000
0100
0000
0010
0000
1000
0000
0100
0000
0000
0000
,  // measure 69
0010
0000
0000
0001
1000
0000
0100
0000
0001
0000
0010
0000
1000
0000
0100
0000
,  // measure 70
0010
0000
0000
1000
0001
0000
0010
0000
0100
0000
0001
0000
1000
0000
0000
0000
,  // measure 71
0100
0000
0000
0001
0010
0000
0100
0000
1000
0000
0010
0000
0001
0000
0100
0000
,  // measure 72
1000
0000
0000
0010
0100
0000
0001
0000
1000
0000
0001
0000
0100
0000
0000
0000
,  // measure 73
0010
0000
0000
0001
0100
0000
0001
0000
1000
0000
0001
0000
0010
0000
1000
0000
,  // measure 74
0100
0000
0000
0001
0010
0000
1000
0000
0100
0000
0001
0000
0010
0000
0000
0000
,  // measure 75
1000
0000
0000
0001
0010
0000
1000
0000
0100
0000
0001
0000
1000
0000
0001
0000
,  // measure 76
0010
0000
0000
0100
0001
0000
2020
0000
0000
0000
0000
0000
3030
0000
0000
0000
,  // measure 77
1000
0010
0000
0000
0001
0010
0000
0000
0001
0100
0000
0100
0010
0000
1000
0000
,  // measure 78
0001
0010
0000
0000
1000
0010
0000
0000
1000
0100
0000
0100
0010
0000
0001
0000
,  // measure 79
1000
0010
0000
0000
0001
0010
0000
0000
0001
0100
0000
0100
0010
0000
1000
0000
,  // measure 80
0001
0000
0000
0010
0100
0000
0010
0000
0001
0100
0001
0000
1001
0000
0000
0000
,  // measure 81
0001
0010
0000
0000
1000
0010
0000
0000
1000
0100
0000
0100
0010
0000
0001
0000
,  // measure 82
1000
0010
0000
0000
0001
0010
0000
0000
0001
0100
0000
0100
0010
0000
1000
0000
,  // measure 83
0001
0010
0000
0000
1000
0010
0000
0000
1000
0100
0000
0100
0010
0000
0001
0000
,  // measure 84
1000
0100
1000
0100
1000
0100
1000
0100
1000
0100
1000
0000
1001
0000
0000
0000
,  // measure 85
0000
0000
0000
0000
,  // measure 86
0010
0000
0000
0000
,  // measure 87
1000
0100
1000
0100
0001
0010
0001
0010
,  // measure 88
0100
1000
0100
1000
0010
0001
0010
0001
,  // measure 89
0100
0010
0100
0010
1000
0001
1000
0001
,  // measure 90
0100
1000
0001
0100
0010
1000
0001
0010
,  // measure 91
0001
0100
0001
0100
1000
0010
1000
0010
,  // measure 92
0100
0001
0100
0001
0010
1000
0010
1000
,  // measure 93
0100
0010
0100
0010
0001
1000
0001
1000
,  // measure 94
0100
0001
1000
0100
0010
0001
1000
0010
,  // measure 95
0100
0000
0000
0000
1000
0000
0001
0000
0010
0001
0000
0000
1000
0000
0001
0000
,  // measure 96
0100
0000
0000
0000
0010
0000
1000
0000
0001
1000
0000
0000
0001
0000
0100
0000
,  // measure 97
0010
0000
0000
0000
1000
0000
0100
0000
0010
0001
0000
0000
1000
0000
0001
0000
,  // measure 98
0100
0000
0000
0000
0010
0000
1000
0000
0001
1000
0000
0000
0100
0000
0010
0100
,  // measure 99
0010
0000
0000
0000
0001
0000
1000
0000
0010
1000
0000
0000
0001
0000
1000
0001
,  // measure 100
1000
0000
0000
0000
0100
0000
0010
0000
0001
1000
0000
0000
0010
0000
1000
0010
,  // measure 101
1000
0000
0000
0000
0100
0000
0010
0000
0001
1000
0000
0000
0010
0000
1000
0010
,  // measure 102
0100
0000
0000
0000
0001
0000
1000
0000
0001
0010
0000
0000
0100
0000
1000
0000
,  // measure 103
0101
0000
1000
0001
0101
0000
1000
0000
,  // measure 104
0001
0100
0001
0010
0001
1000
0001
0000
,  // measure 105
0110
0000
0100
0010
1001
0000
0100
0000
,  // measure 106
0010
0100
1000
0100
1100
0000
0011
0000
,  // measure 107
1100
0000
0001
1000
1100
0000
0001
0000
,  // measure 108
1000
0100
1000
0010
1000
0001
1000
0000
,  // measure 109
0110
0000
0100
0010
1001
0000
0100
0000
,  // measure 110
0010
0001
0010
0100
0011
0000
1010
0000
,  // measure 111
1001
0000
0000
0100
0010
0000
0000
0001
0100
0000
0010
0000
0100
0000
0000
0000
,  // measure 112
1010
0000
0000
0100
1000
0000
0000
0001
0010
0000
0100
0000
0100
0000
0000
0000
,  // measure 113
0110
0000
0000
1000
0100
0000
0000
0001
0010
0000
0100
0000
1000
0000
0000
0000
,  // measure 114
0011
0000
0000
1000
0100
0000
0000
0010
0001
0000
0100
0000
0010
0000
0000
0000
,  // measure 115
1001
0000
0000
0100
0010
0000
0000
1000
0100
0000
0010
0000
0100
0000
0000
0000
,  // measure 116
0011
0000
0000
0100
0001
0000
0000
1000
0010
0000
0100
0000
0100
0000
0000
0000
,  // measure 117
0110
0000
0000
0001
0100
0000
0000
1000
0010
0000
0100
0000
0001
0000
0000
0000
,  // measure 118
1000
1001
0001
1001
,  // measure 119
0210
0000
1000
0000
0001
0001
0010
0000
,  // measure 120
1000
0000
0000
0000
0001
0000
0000
0000
1000
0000
1000
0000
0310
0000
1000
0100
,  // measure 121
0020
0000
0001
0000
1000
1000
0100
0000
,  // measure 122
0001
0000
1000
0000
0001
0001
0130
0000
,  // measure 123
0210
0000
0001
0001
,  // measure 124
1000
1000
0010
0010
,  // measure 125
0001
0001
1000
1000
,  // measure 126
0001
0000
0001
0000
0010
0000
0301
0100
,  // measure 127
0010
0100
1000
0001
,  // measure 128
0100
0010
1000
0001
0010
0100
1000
0001
,  // measure 129
0010
0001
0010
0001
0100
0010
0100
0010
1000
0001
0010
0100
1000
0010
0100
0001
,  // measure 130
0200
0000
0000
0300
;

//---------------dance-double - ----------------
#NOTES:
     dance-double:
     :
     Easy:
     6:
     0.231571,0.263614,0.112906,0.161294,0.000000,402.000000,374.000000,28.000000,40.000000,0.000000,0.000000,0.231571,0.263614,0.112906,0.161294,0.000000,402.000000,374.000000,28.000000,40.000000,0.000000,0.000000:
00000000
00000000
00000000
00000000
,
00000000
00000000
00000000
00000000
,
00000000
00000000
00000000
00000000
,
00000000
00000000
00000000
00000000
,
00010000
00010000
10000000
10000000
,
01000000
00100000
00010000
00000000
,
00100000
00100000
00001000
00001000
,
00010000
00001000
00010000
00000000
,
00000010
00000010
00000100
00000100
,
00000001
00001000
00000001
00000000
,
00000010
00000010
00001000
00001000
,
00000001
00000100
00001000
00000000
,
00020000
00000000
00031000
00000010
,
00000002
00000000
00000103
00001000
,
00010000
00100000
10000000
01000000
,
00220000
00330000
00001000
00000100
,
00000002
00000003
00000100
00001000
,
00010000
00100000
10000000
01000000
,
01010000
00000000
00011000
00000000
,
00002020
00003030
00001000
00010000
,
00100000
00200000
10300000
20000000
,
31000000
02000000
03010000
00020000
,
00031000
00002000
00003001
00000100
,
00000202
00000303
00001000
00010000
,
00200000
00000000
10300000
01000000
,
00020000
00000000
00031000
00000010
,
00000011
00000000
00000101
00000000
,
00000202
00000003
00002000
00003300
,
10000000
00000000
01000000
00010000
,
00001000
00000100
00000010
00000001
,
00001000
00000100
00001000
00010000
,
00200000
00020000
00000000
00330000
,
10000000
01000000
00010000
01000000
,
00100000
10000000
00010000
00001000
,
00000100
00000010
00000001
00000010
,
00000100
00001000
00010000
10000000
,
00020000
00030000
10000000
10000000
,
01000000
01000000
00010000
00010000
,
00001000
00001000
00000100
00000100
,
00000020
00000001
00000001
00000031
,
00001000
00000000
00000100
00000100
,
00010000
00010000
00100000
00100000
,
01000000
01000000
00010000
00002000
,
00000000
00010000
00010000
00010000
,
10003000
00100000
10000000
00000000
,
01000000
00010000
00001000
00000000
,
00000100
00000001
00000001
00000000
,
00000100
00000000
00000100
00000000
,
00000001
00000010
00000001
00000000
,
00001000
00000100
00001000
00000000
,
00010000
00000000
01000000
00000000
,
00100000
00000000
10000000
00000000
,
10100000
00000000
10000000
00000000
,
10100000
00000000
00100000
00000000
,
01010000
00000000
00010000
00000000
,
00001000
00000000
00000100
00000000
,
00001010
00000000
00000010
00000000
,
00001010
00000000
00001000
00000000
,
00001000
00000000
00010000
00000000
,
00110000
00000000
00110000
00000000
,
00001100
00000000
00000000
00000000
,
00000002
00000103
00001000
00000000
,
00020000
00130000
10000000
00000000
,
00200000
00310000
00001000
00000000
,
00000010
00000001
00000100
00001000
,
00010000
01000000
00010000
00000000
,
00001000
00000100
00001000
00000000
,
00010000
00100000
10000000
01000000
,
00020000
00030000
00001000
00001000
,
00000020
00000031
00000020
00001030
,
00020000
01030000
20000000
31000000
,
00020000
00030000
00001000
00000100
,
00001000
00000100
00000002
00000103
,
00001000
00020000
00130000
00000000
,
10000000
01000000
00010000
00001000
,
00000200
00000000
00000301
00000100
,
00001100
00000000
00000000
00000000
,
00001000
00000100
00001000
00000000
,
00010000
00001000
00010000
00000000
,
01000000
00010000
01000000
00000000
,
10000000
00010000
10010000
00000000
,
00010000
00100000
00010000
00000000
,
00001000
00010000
00001000
00000000
,
00000010
00001000
00000010
00000000
,
00000001
00001000
00000001
00001001
,
00000000
00000000
00000000
00000000
,
00000000
00000000
00000000
00000000
,
00000001
00001000
00000001
00001000
,
00000100
00010000
00000100
00010000
,
00001000
00100000
00001000
00100000
,
01000000
10000000
01000000
00000000
,
10000000
00010000
10000000
00010000
,
01000000
00001000
01000000
00001000
,
00010000
00000010
00010000
00000010
,
00000100
00000001
00000100
00000000
,
00010000
00001000
00001000
00000000
,
00001000
00000100
00000100
00000000
,
00000100
00000001
00000001
00000000
,
00000010
00001000
00001000
00000000
,
00010000
10000000
01000000
00000000
,
01000000
00100000
10000000
00000000
,
00010000
10000000
01000000
00000000
,
00001000
00010000
00010000
00000000
,
10000000
00000000
00100000
00000000
,
01000000
00001000
00010000
00000100
,
00001000
00000000
00000010
00000000
,
00001000
00000001
00001000
00000000
,
00000001
00000000
00000100
00000000
,
00000010
00010000
00001000
00100000
,
00010000
00000000
01000000
00000000
,
01100000
00000000
10010000
00000000
,
00011000
00000000
00000100
00001000
,
00011000
00000000
00100000
01000000
,
00011000
00000000
00001000
00000010
,
00011000
00000000
00010000
00001000
,
00011000
00000000
01000000
00010000
,
00011000
00000000
00000010
00000100
,
00011000
00000000
00010000
00100000
,
00010000
00001000
00010000
00001000
,
00020000
00000000
00000010
00000000
,
00000100
00000000
00001000
00030000
,
00002000
00000000
00010000
00000000
,
00100000
00000000
01000000
00003000
,
00020000
00000000
00000000
00000000
,
00000010
00000000
00000010
00000000
,
00000100
00000000
00000000
00000000
,
00001000
00000000
00001000
00030000
,
00001000
00000000
00000100
00000000
,
00000001
00000000
00000010
00000000
,
00001000
01000000
00100000
10000000
,
00020000
00000000
00000000
00030000
;

//---------------dance-double - ----------------
#NOTES:
     dance-double:
     :
     Medium:
     8:
     0.355998,0.395421,0.100808,0.161294,0.044356,618.000000,593.000000,25.000000,40.000000,0.000000,0.000000,0.355998,0.395421,0.100808,0.161294,0.044356,618.000000,593.000000,25.000000,40.000000,0.000000,0.000000:
00000000
00000000
00000000
00000000
,
00000000
00000000
00000000
00000000
,
00000000
00000000
00000000
00000000
,
00000000
00000000
00000000
00000000
,
00001000
00011000
00010000
00011000
,
01000000
10000000
00100000
01000000
,
00010000
01100000
10000000
01100000
,
00010000
00000000
00001000
00000000
00010000
00001000
00010000
00000000
,
00001000
00010100
00001000
00010010
,
00001000
00000100
00000010
00000001
,
00000100
00001010
00000100
00000011
,
00000010
00000000
00000010
00000000
00000100
00001000
00010000
00000000
,
00020000
00000000
00000000
00031000
00010000
00001000
00000100
00000010
,
00001000
00000100
00001000
00010000
,
00100000
01000000
10000000
00100000
,
00020000
00000000
00001000
00030100
,
00100000
00000000
00000000
00100000
01000000
00010000
00001000
00000100
,
00000010
00001000
00000010
00001000
,
00220000
00000000
00330000
10000000
00000000
00100000
00010000
00001000
,
00020000
00000000
00031000
00000100
,
00000010
00000000
00000000
00000100
00000010
00000100
00001000
00010000
,
01000000
00100000
01000000
10000000
,
00100000
00001000
00000100
00000010
,
00000202
00000300
00000013
00001000
,
00020000
00000000
00000000
01030000
00000000
10000000
00100000
00010000
,
00001000
00000010
00000001
00000100
,
00022000
00000000
00033000
01000000
00000000
00100000
00010000
00000000
,
20200000
00000000
00000000
30300000
,
00100000
00000000
01000000
00000000
00010000
00001000
00000100
00000000
,
00000001
00000000
00000100
00000000
00000010
00001000
00010000
00000000
,
00100000
00000000
01000000
00000000
10000000
00010000
00100000
00000000
,
01000000
00000000
00010000
00000000
00001000
00000000
00000100
00000001
,
00000100
00000010
00000100
00000000
00001000
00010000
01000000
00000000
,
10000000
00010000
00100000
01000000
,
00010000
00001000
00000010
00000000
00000001
00000100
00000010
00000000
,
00000100
00000000
00001000
00010000
01000000
10000000
00010000
10000000
,
01000000
00000000
00010000
00000000
00001000
00000100
00000001
00000000
,
00000100
00000001
00000100
00000000
00000010
00001000
00000010
00000000
,
00000100
00001000
00010000
01000000
,
10000000
00000000
00010000
00000000
00100000
00010000
00100000
00000000
,
01000000
00000000
00010000
00000000
00001000
00000100
00000001
00000000
,
00001000
00000100
00000010
00000000
00000001
00000100
00001000
00000000
,
00020000
00000000
00000000
00000000
00030000
00001000
00010000
00000000
,
01000000
00000000
00010000
00000000
00001000
00000100
00000001
00001000
,
00000100
00000001
00000100
00001000
00000000
00000010
00001000
00000000
,
00010000
00000000
00001000
00000000
00010000
01000000
10000000
00000000
,
00100000
10000000
01000000
00010000
00000000
01000000
10000000
00000000
,
00100000
00010000
00001000
00010000
,
00001000
00000010
00000001
00000100
00000000
00001000
00000100
00000000
,
00001000
00000000
00010000
00000000
00001000
00010000
00100000
00010000
,
00100000
00000000
10000000
00000000
01000000
00000000
00010000
01000000
,
10000000
00000000
00100000
00000000
00010000
00100000
10000000
00000000
,
02000000
00000000
00000000
20000000
00000000
00000000
00000000
00000000
33000000
00000000
00000000
00000000
01000000
00000000
00010000
00000000
,
00002000
00000000
00000000
00020000
00000000
00000000
00000000
00000000
00033000
00000000
00000000
00000000
00001000
00000000
00000100
00000000
,
00000002
00000000
00000000
00000020
00000000
00000000
00000000
00000000
00000033
00000000
00000000
00000000
00001000
00000000
00000010
00000000
,
00000002
00000000
00000000
00000200
00000303
00000000
00000000
00000000
00000020
00000000
00000000
00002000
00003030
00000000
00000001
00000000
,
00000200
00000000
00000000
00000002
00000000
00000000
00000000
00000000
00000303
00000000
00000000
00000000
00000100
00000000
00001000
00000000
,
00020000
00000000
00000000
00002000
00000000
00000000
00000000
00000000
00033000
00000000
00000000
00000000
00010000
00000000
01000000
00000000
,
20000000
00000000
00000000
00200000
00000000
00000000
00000000
00000000
30300000
00000000
00000000
00000000
00010000
00000000
00100000
00000000
,
20000000
00000000
00000000
02000000
33000000
00000000
00000000
00000000
00200000
00000000
00000000
00020000
00330000
00000000
20000000
00000000
,
00200000
30300000
00000000
00000001
00000000
00000100
00000001
00000100
,
00001000
00000000
00010000
00000000
00000000
00100000
10000000
00100000
,
00000000
10000000
00010000
10000000
00000000
01000000
00000000
00010000
,
00001000
00000000
00000100
00000000
00000000
00000001
00001000
00000100
,
00010000
00000000
00000000
00001000
00000000
00000000
00100000
00000000
00000000
00000000
00000000
00000000
00010000
00000000
00000000
00000000
,
10000000
00000000
00000000
01000000
00000000
00000000
00000000
00000000
00010000
00000000
00000000
00000000
00001000
00000000
00000100
00000000
,
00000001
00000000
00000000
00001000
00000000
00000000
00000001
00000000
00000100
00000000
00000000
00000000
00001000
00000000
00000000
00000000
,
00010000
00000000
00000000
01000000
00000000
00000000
10000000
00000000
00010000
00000000
00000000
10000000
00000000
00000000
00000000
00000000
,
01000000
00010000
00001000
00000100
,
00000002
00000000
00000000
00000000
00000003
00000100
00001000
00010000
,
00000000
01000000
10000000
00010000
00000000
10000000
00000000
01000000
,
00010000
00000000
00000000
00000000
00001000
00000000
00000000
00000000
00000010
00000000
00000000
00000001
00000000
00000000
00000100
00000000
,
00001000
00000000
00000000
00010000
00000000
00000000
01000000
00000000
00000000
00000000
10000000
00000000
00010000
00000000
10000000
00000000
,
01000000
00000000
00000000
00010000
00000000
00000000
00001000
00000000
00000000
00000000
00000100
00000000
00000001
00000000
00000100
00000000
,
00000001
00000100
00001000
00010000
,
00100000
00000000
00000000
10000000
00000000
00000000
00010000
00000000
00000000
00000000
00000000
00000000
10000000
00000000
00000000
00000000
,
01000000
00000000
00000000
00010000
00000000
00000000
00001000
00000000
00000000
00000000
00000000
00000000
00000000
00000000
00000000
00000000
,
00000001
00000000
00000010
00000000
00000001
00000000
00001000
00010000
,
00100000
00000000
00010000
00000000
00100000
00000000
00010000
10000000
,
01000000
00000000
10000000
00000000
01000000
00000000
00100000
00010000
,
00001000
00000000
00000100
00001000
00000100
00000000
00001001
00000000
,
00000001
00000000
00000010
00000000
00000001
00000000
00001000
00010000
,
00100000
00000000
00010000
00000000
00100000
00000000
00010000
10000000
,
01000000
00000000
10000000
00000000
01000000
00000000
00100000
00010000
,
00001000
00000000
00000100
00001000
00000100
00000000
00001001
00000000
,
00000000
00000000
00000000
00000000
,
00000001
00000000
00000000
00000000
,
00000001
00000100
00000001
00000100
00000010
00001000
00000010
00000000
,
00010000
00001000
00010000
00001000
01000000
00100000
01000000
00000000
,
00001000
00100000
00001000
00100000
01000000
00100000
01000000
00000000
,
10000000
00100000
10000000
01000000
00010000
01000000
10000000
00000000
,
10000000
01000000
10000000
01000000
00100000
00010000
00100000
00000000
,
00001000
00010000
00001000
00010000
00000100
00000010
00000100
00000000
,
00010000
00000010
00010000
00000010
00000100
00000010
00000100
00000000
,
00001000
00000100
00001000
00010000
,
01000000
00010000
01000000
00100000
,
00010000
00000000
00001000
00000000
00000100
00000000
00000010
00000010
,
00001000
00000010
00000100
00001000
,
00010000
00000000
01000000
00000000
00100000
00000000
01000000
01000000
,
10000000
00000000
00100000
00100000
00010000
00000000
01000000
00000000
,
00010000
00000000
00001000
00000000
00000010
00000000
00000001
00000001
,
00000100
00000000
00001000
00001000
00010000
00000000
01000000
00000000
,
10000000
00000000
00100000
00000000
00010000
00000000
00100000
00100000
,
00100000
00000000
01000000
10000000
00100000
00000000
00100000
01000000
,
00010000
00000000
01000000
00000000
00001000
00010000
00000010
00001000
,
00000001
00000010
00000100
00010010
,
00001000
00000000
00000000
00010000
00000000
00000000
00000100
00010000
00001000
01000000
00000000
00000000
,
00100000
00000000
01000000
10000000
00100000
00000000
00100000
01000000
,
00010000
00000000
01000000
00000000
00001000
00010000
00000010
00001000
,
00000001
00000010
00000100
00010010
,
00001000
00011000
00100000
00110000
,
00011000
00000000
00000100
00000010
00000001
00000000
00001000
00000000
,
00011000
00000000
01000000
00100000
01000000
00000000
00010000
00000000
,
00011000
00000000
00001000
00000100
00001000
00000000
00010000
00000000
,
00011000
00000000
00010000
01000000
00100000
00000000
00010000
00000000
,
00011000
00000000
01000000
00100000
10000000
00000000
00010000
00000000
,
00011000
00000000
00000100
00000010
00000100
00000000
00001000
00000000
,
00011000
00000000
00010000
01000000
00010000
00000000
00001000
00000000
,
00010000
00001000
00010000
00001000
,
00000200
00000001
00000000
00010000
,
00000000
00000000
00000010
00000000
00010000
00010000
00010300
00000000
,
00002000
00000010
00000000
00100000
,
00000000
00000000
00000100
00000000
00010000
00010000
00013000
00000000
,
02000000
00000000
10000000
00000000
,
00100000
00000000
00001000
00000000
,
00100000
00000000
10000000
00000000
,
00001000
00001000
00001000
03000000
,
01000000
00100000
00010000
00000100
,
00000001
00000100
00010000
01000000
,
10000000
00100000
00010000
00001000
00100000
00001000
00000010
00000001
,
00000200
00000000
00000000
00000300
;

//---------------dance-double - ----------------
#NOTES:
     dance-double:
     :
     Hard:
     10:
     0.517868,0.659035,0.181455,0.028226,0.264118,899.000000,854.000000,45.000000,7.000000,0.000000,0.000000,0.517868,0.659035,0.181455,0.028226,0.264118,899.000000,854.000000,45.000000,7.000000,0.000000,0.000000:
00000000
00000000
00000000
00000000
,
00000000
00000000
00000000
00000000
,
00000000
00000000
00000000
00000000
,
00000000
00000000
00000000
00000000
,
00101000
01001000
00101000
01001000
,
00100000
00000000
00000000
00100000
01000000
00000000
10000000
00000000
00000000
00010000
00000000
00000000
01000000
00000000
00100000
00000000
,
10100000
01010000
00101000
01010000
,
00100000
00000000
00000000
00100000
10000000
00000000
00010000
00000000
00000000
00100000
00000000
00000000
00001000
00000000
00100000
00000000
,
00101000
00011000
00010010
00011000
,
00010000
00000000
00000000
00010000
00000100
00000000
00001000
00000000
00000010
00000000
00000000
00000010
00000100
00000000
00000001
00000000
,
00000011
00001100
00010010
00001100
,
00001001
00000000
00000000
00000000
00000000
00000000
00000000
00000000
00000010
00000000
00000000
00000100
00000000
00000000
00000010
00000000
,
00000010
00000000
00001000
00100000
00000000
00010000
00001000
00000010
,
00000001
00000100
00001000
00000000
00010000
00001000
00000100
00000000
,
00001000
00000000
00010000
00000000
01000000
00010000
00000000
00000000
01000000
00000000
10000000
00000000
00100000
10000000
00000000
00000000
,
00010000
00000000
00001000
00000000
00000100
00000010
00001000
00000000
,
00100000
00000000
00010000
00000010
00000000
00001000
00010000
00100000
,
10000000
01000000
00010000
00000000
00001000
00010000
01000000
00000000
,
00011000
00000000
00000000
00001100
00000000
00000100
00000001
00000010
,
00002000
00000000
00000000
00000000
01003000
00100000
00010000
00000000
,
00001000
00010000
00000000
00000000
00001000
00000100
00000000
00000000
00001000
00000010
00000000
00000000
00000001
00000010
00000000
00000000
,
00001000
00010000
00000000
00000000
00100000
10000000
00000000
00000000
00010000
01000000
00000000
00000000
00001000
00010000
00000000
00000000
,
00010000
00001000
00000000
00000000
00010000
01000000
00000000
00000000
00010000
00100000
00000000
00000000
10000000
00100000
00000000
00000000
,
00010000
00001000
00000000
00000000
00000010
00000001
00000000
00000000
00001000
00000100
00000000
00000000
00010000
00001000
00000000
00000000
,
00001000
00000010
00000001
00000010
00001000
00010000
00100000
00010000
,
00100000
10000000
00100000
10000000
01000000
10000000
00100000
00010000
,
00110000
00000000
00000000
01010000
00000000
00001000
00000010
00001000
,
00000010
00000000
00000001
00000000
00000010
00000001
00000000
00000000
00000100
00000000
00000001
00000000
00000100
00000001
00000000
00000000
,
00000001
00000000
00001000
00000001
00000100
00000010
00000100
00000000
,
00001000
00000000
00010000
01000000
10000000
00010000
10000000
00000000
,
01000000
00000000
00010000
00001000
00000010
00000001
00001000
00000000
,
00000010
00000000
00000100
00001000
00010000
01000000
10000000
00010000
,
10000000
00000000
01000000
00100000
01000000
00010000
00001000
00000000
,
00000100
00000000
00000001
00001000
00000001
00000100
00000010
00000000
,
00000100
00000000
00001000
00010000
01000000
10000000
00010000
00000000
,
10000000
00000000
01000000
10000000
01000000
00100000
01000000
00010000
,
00001000
00000000
00000100
00000001
00000100
00000010
00000100
00001000
,
00010000
00000000
01000000
10000000
00010000
10000000
00100000
01000000
,
00100000
00000000
10000000
01000000
00010000
00001000
00000100
00000001
,
00001000
00000000
00000100
00000010
00000001
00001000
00000010
00000000
,
00000100
00000000
00001000
00010000
00100000
10000000
00010000
00000000
,
10000000
00000000
01000000
10000000
01000000
00100000
01000000
00000000
,
00010000
00000000
00001000
00000000
00000100
00000000
00000001
00000000
00001000
00000000
00000000
00000001
00001000
00000000
00000001
00000000
,
00000100
00000000
00001000
00010000
01000000
10000000
00010000
10000000
,
00000100
00000000
00000000
00001000
00000100
00000000
00001000
00000000
00010000
00000000
01000000
00000000
10000000
00000000
00010000
00000000
,
00100000
00000000
00000000
01000000
00100000
00000000
01000000
00000000
00010000
00000000
00000000
00001000
00010000
00000000
00000100
00000000
,
00001000
00000000
00000000
00000001
00000100
00000000
00000001
00000000
00000010
00000000
00000100
00000000
00001000
00000000
00010000
00000000
,
01000000
00000000
00000000
00010000
01000000
00000000
00100000
00000000
10000000
00000000
00000000
00010000
10000000
00000000
01000000
00000000
,
00010000
00000000
00000000
00001000
00000100
00000000
00000001
00000000
00000010
00000000
00000001
00000000
00001000
00000000
00000010
00000000
,
00000100
00000000
00000000
00001000
00010000
00000000
00001000
00000000
00100000
00000000
00000000
00010000
10000000
00000000
01000000
00000000
,
00010000
00000000
00000000
00001000
00010000
00000000
00001000
00000000
00000010
00000000
00000001
00000000
00000100
00000000
00000010
00000000
,
00001000
00000000
00000000
00000100
00001000
00000000
00000001
00000000
00000100
00000000
00000000
00001000
00010000
00000000
00010000
00000000
,
00100000
00000000
00000000
00010000
00000000
00000000
00000000
00000000
10000000
00000000
01000000
00000000
00100000
00000000
00010000
00000000
,
01000000
00000000
00000000
00010000
00000000
00000000
00000000
00000000
00001000
00000000
00000100
00000000
00000010
00000000
00000001
00000000
,
00000100
00000000
00000000
00001000
00000000
00000000
00000000
00000000
00010000
00000000
01000000
00000000
10000000
00000000
00010000
00000000
,
00100000
00000000
00000000
00010000
00000000
00000000
00100000
00000000
00001000
00000000
00000000
00010000
00000000
00000000
00001000
00000000
,
00000100
00000000
00000000
00000001
00000000
00000000
00001000
00000000
00000001
00000000
00000100
00000000
00000010
00000000
00001000
00000000
,
00000010
00000000
00000000
00000100
00000000
00000000
00001000
00000000
00010000
00000000
01000000
00000000
10000000
00000000
00010000
00000000
,
00100000
00000000
00000000
00010000
00000000
00000000
00100000
00000000
00010000
00000000
00001000
00000000
00000100
00000000
00000001
00000000
,
00001000
00000000
00000000
00000001
00000000
00000000
00000100
00000000
00001000
00000000
00010000
00000000
00100000
00000000
00010000
00100000
,
00001000
00000000
00000100
00000000
00000010
00000000
00001000
00010000
,
00001000
00000000
00000000
00010000
00100000
00000000
01000000
00000000
10000000
00000000
00010000
00000000
01000000
00000000
00010000
00000000
,
00001000
00000000
00000000
00010000
00001000
00000000
00000100
00000000
00000010
00000000
00001000
00000000
00010000
00000000
00000000
00000000
,
01000000
00000000
00000000
00010000
00100000
00000000
10000000
00000000
01000000
00000000
00010000
00000000
00100000
00000000
00010000
00000000
,
00001000
00000000
00000000
00000100
00000010
00000000
00001000
00000000
00000100
00000000
00000010
00000000
00001000
00000000
00000000
00000000
,
00010000
00000000
00000000
01000000
00100000
00000000
01000000
00000000
10000000
00000000
00100000
00000000
01000000
00000000
00100000
00000000
,
00010000
00000000
00000000
00001000
00000100
00000000
00000010
00000000
00000100
00000000
00000010
00000000
00001000
00000000
00000000
00000000
,
00010000
00000000
00000000
01000000
00100000
00000000
01000000
00000000
00100000
00000000
10000000
00000000
01000000
00000000
00010000
00000000
,
00001000
00000000
00000000
00000100
00000010
00000000
00000001
00000000
00000100
00000000
00000010
00000000
00000100
00000000
00000000
00000000
,
00001000
00000000
00000000
00010000
00001000
00000000
01000000
00000000
00010000
00000000
00100000
00000000
10000000
00000000
01000000
00000000
,
00100000
00000000
00000000
01000000
00010000
00000000
00001000
00000000
00000100
00000000
00000010
00000000
00000100
00000000
00000000
00000000
,
00001000
00000000
00000000
00010000
00100000
00000000
01000000
00000000
10000000
00000000
00100000
00000000
00010000
00000000
01000000
00000000
,
00010000
00000000
00000000
00001000
00000100
00000000
00000010
00000000
00000100
00000000
00000010
00000000
00001000
00000000
00000000
00000000
,
00100000
00000000
00000000
00010000
01000000
00000000
00010000
00000000
00100000
00000000
00010000
00000000
00001000
00000000
00000100
00000000
,
00000010
00000000
00000000
00000100
00001000
00000000
00010000
00000000
01000000
00000000
00010000
00000000
00100000
00000000
00000000
00000000
,
01000000
00000000
00000000
00010000
00001000
00000000
00000100
00000000
00000010
00000000
00000100
00000000
00001000
00000000
00010000
00000000
,
00100000
00000000
00000000
01000000
00010000
00000000
20200000
00000000
00000000
00000000
00000000
00000000
30300000
00000000
00000000
00000000
,
00000001
00000010
00000000
00000000
00000010
00001000
00000000
00000000
00001000
00010000
00000000
00001000
00010000
00000000
00100000
00000000
,
10000000
00100000
00000000
00000000
00100000
00010000
00000000
00000000
00010000
00001000
00000000
00010000
00001000
00000000
00000010
00000000
,
00000001
00000010
00000000
00000000
00000010
00001000
00000000
00000000
00001000
00010000
00000000
00001000
00010000
00000000
00100000
00000000
,
10000000
00000000
00000000
01000000
00010000
00000000
00001000
00000000
00000010
00000001
00000010
00000000
00001001
00000000
00000000
00000000
,
00000001
00000010
00000000
00000000
00000010
00001000
00000000
00000000
00001000
00010000
00000000
00001000
00010000
00000000
00100000
00000000
,
10000000
00100000
00000000
00000000
00100000
00010000
00000000
00000000
00010000
00001000
00000000
00010000
00001000
00000000
00000010
00000000
,
00000001
00000010
00000000
00000000
00000010
00001000
00000000
00000000
00001000
00010000
00000000
00001000
00010000
00000000
00100000
00000000
,
10000000
01000000
10000000
01000000
10000000
01000000
10000000
01000000
10000000
01000000
10000000
00000000
10010000
00000000
00000000
00000000
,
00000000
00000000
00000000
00000000
,
00000010
00000000
00000000
00000000
,
00000001
00000100
00000001
00000100
00001000
00010000
00001000
00010000
,
00100000
10000000
00100000
10000000
01000000
10000000
01000000
10000000
,
01000000
00100000
01000000
00100000
00010000
00001000
00010000
00001000
,
00000100
00000010
00000100
00000010
00000001
00001000
00000100
00000000
,
00000001
00000010
00000001
00000010
00001000
00010000
00001000
00010000
,
01000000
10000000
01000000
10000000
00100000
10000000
00100000
10000000
,
00100000
01000000
00100000
01000000
00010000
00001000
00010000
00001000
,
00000010
00000100
00000010
00000100
00000001
00001000
00000010
00000000
,
00000100
00000000
00000000
00000000
00001000
00000000
00010000
00000000
01000000
00010000
00000000
00000000
10000000
00000000
00010000
00000000
,
00100000
00000000
00000000
00000000
00010000
00000000
00100000
00000000
00010000
10000000
00000000
00000000
01000000
00000000
00010000
00000000
,
00001000
00000000
00000000
00000000
00000100
00000000
00000001
00000000
00000010
00000001
00000000
00000000
00001000
00000000
00000001
00000000
,
00000100
00000000
00000000
00000000
00001000
00000000
00010000
00000000
01000000
00100000
00000000
00000000
00010000
00000000
10000000
00010000
,
01000000
00000000
00000000
00000000
00010000
00000000
00001000
00000000
00000100
00001000
00000000
00000000
00000001
00000000
00001000
00000001
,
00000100
00000000
00000000
00000000
00001000
00000000
00010000
00000000
01000000
10000000
00000000
00000000
00100000
00000000
10000000
00100000
,
10000000
00000000
00000000
00000000
01000000
00000000
00010000
00000000
00001000
00010000
00000000
00000000
00001000
00000000
00000100
00000001
,
00001000
00000000
00000000
00000000
00000010
00000000
00000100
00000000
00001000
00010000
00000000
00000000
01000000
00000000
00100000
00000000
,
01010000
00000000
00001000
00010000
01010000
00000000
00001000
00000000
,
00010000
00100000
00010000
00001000
00000010
00001000
00010000
00000000
,
00001100
00000000
00000010
00000001
00000011
00000000
00001000
00000000
,
00000100
00010000
00001000
01000000
10100000
00000000
01010000
00000000
,
00110000
00000000
00001000
00010000
01010000
00000000
00001000
00000000
,
00010000
00100000
00010000
00001000
00000010
00001000
00010000
00000000
,
00001100
00000000
00000010
00000001
00000011
00000000
00001000
00000000
,
00000100
00010000
00001000
01000000
10100000
00000000
00110000
00000000
,
00011000
00000000
00000000
00100000
01000000
00000000
00000000
10000000
00100000
00000000
01000000
00000000
00001000
00000000
00000000
00000000
,
00011000
00000000
00000000
00000010
00001000
00000000
00000000
00000001
00000100
00000000
00000010
00000000
00000010
00000000
00000000
00000000
,
00011000
00000000
00000000
00010000
00100000
00000000
00000000
10000000
01000000
00000000
00100000
00000000
00010000
00000000
00000000
00000000
,
00011000
00000000
00000000
00010000
00100000
00000000
00000000
01000000
10000000
00000000
00100000
00000000
01000000
00000000
00000000
00000000
,
00011000
00000000
00000000
00000010
00000100
00000000
00000000
00000001
00000010
00000000
00000100
00000000
00010000
00000000
00000000
00000000
,
00011000
00000000
00000000
00100000
00010000
00000000
00000000
10000000
01000000
00000000
00100000
00000000
00100000
00000000
00000000
00000000
,
00011000
00000000
00000000
00001000
00000010
00000000
00000000
00000001
00000100
00000000
00000010
00000000
00001000
00000000
00000000
00000000
,
00000100
01000000
00001000
00010000
,
00000120
00000000
00000001
00000000
00001000
00001000
00000100
00000000
,
00000001
00000000
00001000
00000000
00000100
00000001
00000130
00000010
,
00020000
00000000
00100000
00000000
00000010
00000010
00001000
00000000
,
01000000
00000000
00001000
00000000
00000010
00001000
01030000
00000000
,
01200000
00000000
00010000
00010000
,
10000000
10000000
01000000
01000000
,
00010000
00010000
10000000
10000000
,
00010000
00000000
00010000
00000000
01000000
00000000
00310000
00100000
,
00001000
00000100
00000001
00000010
,
00000100
00010000
00001000
00100000
01000000
10000000
00100000
00010000
,
00100000
01000000
00100000
01000000
00010000
00100000
00010000
00100000
00001000
00010000
00001000
00010000
00000100
00001000
00000100
00001000
,
00000002
00000000
00000000
00000003
;
