#TITLE:Cosmic Capers;
#SUBTITLE:;
#ARTIST:8Chasey;
#TITLETRANSLIT:;
#SUBTITLETRANSLIT:;
#ARTISTTRANSLIT:;
#GENRE:;
#CREDIT:;
#MUSIC:Cosmic Capers.mp3;
#BANNER:;
#BACKGROUND:COSMIC CAPERS-bg.PNG;
#CDTITLE:;
#SAMPLESTART:20.285;
#SAMPLELENGTH:12.000;
#SELECTABLE:YES;
#OFFSET:-0.074;
#BPMS:0.000=190.000
,64.000=95.000
,80.000=190.000
,216.000=95.000
;
#STOPS:;
#BGCHANGES:;
#FGCHANGES:;

//--------------- dance-single - ----------------
#NOTES:
     dance-single:
     :
     Beginner:
     2:
     0,0,0,0,0:
0000
0000
0000
0000
,
0000
0000
0000
0000
,
0000
0000
0000
0000
,
0000
0000
0000
0000
,
0001
0001
0001
0000
,
0001
0001
0001
0000
,
1000
1000
1000
0000
,
1000
1000
1000
0000
,
1001
0000
0000
0000
,
0000
0000
0000
0001
,
0001
0000
0000
0000
,
0000
0000
0000
1000
,
1000
0000
0000
0000
,
0000
0000
0000
0110
,
0110
0000
0000
0000
,
0001
0000
1000
0000
,
0001
0000
0001
0000
,
1000
0000
1000
0000
,
0001
0000
1000
0000
,
0010
0000
0100
0000
,
1001
0000
0000
0000
,
0010
0010
0010
0010
,
0010
0000
0000
0000
,
0100
0000
0000
0000
,
0010
0000
0100
0000
,
0010
0000
0000
0000
,
1000
0000
0000
0000
,
0001
0000
0000
0000
,
1000
0000
0001
0000
,
0110
0000
0000
0000
,
0001
0001
0001
0000
,
0100
0000
0001
0000
,
1000
1000
1000
0000
,
0100
0000
1000
0000
,
0010
0000
0000
0000
,
1001
0000
0000
0000
,
0100
0000
0000
0000
,
0110
0000
0110
0000
,
0001
0000
0001
0000
,
0001
0000
0000
0000
,
1000
0000
1000
0000
,
1000
0000
0000
0000
,
0001
0000
1000
0000
,
1001
0000
0000
0000
,
0010
0000
0100
0000
,
0110
0000
0000
0000
,
0001
0000
0000
0000
,
0010
0000
0000
0000
,
1000
0000
0000
0000
,
0100
0000
0000
0000
,
0001
0000
0001
0000
,
1000
0000
1000
0000
,
0001
0000
1000
0000
,
0100
0000
0100
0000
,
1001
0000
0001
0000
,
1001
0000
1000
0000
,
1001
0000
0010
0000
,
1001
0000
0100
0000
,
1001
0000
0000
0000
;

//--------------- dance-single - ----------------
#NOTES:
     dance-single:
     :
     Easy:
     4:
     0,0,0,0,0:
0000
0000
0000
0000
,
0000
0000
0000
0000
,
0000
0000
0000
0000
,
0000
0000
0000
0000
,
0002
0000
0013
0000
,
0002
0000
0103
0000
,
2000
0000
3010
0000
,
2000
0000
3100
0000
,
0020
1000
0000
1000
,
0000
2000
0000
3030
,
0200
0001
0000
0001
,
0000
0002
0000
0303
,
2000
0001
0000
3001
,
0002
1000
0000
1003
,
0010
0100
0010
0000
,
0100
0000
0000
2002
0000
0000
3003
0000
,
0001
0010
0001
0000
0010
0000
0001
0000
,
1000
0010
1000
0000
0010
0000
1000
0000
,
0100
1000
0010
0000
,
0100
0001
0010
0000
,
0200
0000
0000
0300
,
1000
0100
0010
0001
,
1000
0100
0000
1100
,
0000
0110
0000
0000
,
0001
0100
0000
0101
,
0000
0110
0000
0000
,
0001
0010
0001
0000
,
1000
0001
1000
0000
,
0100
0010
0100
0000
,
1000
0010
1000
0000
,
0010
1000
0001
1000
,
0010
1000
0001
0000
,
0010
0001
1000
0001
,
0010
0001
1000
0000
,
0100
1000
0020
0000
,
0130
0001
0020
0000
,
0031
0000
1000
0000
,
1001
0000
0000
0110
0000
0000
1001
0000
,
1000
0000
0001
0000
0010
0000
0000
2002
,
0000
3003
0100
0100
,
0001
0000
1000
0000
0010
0000
0000
2002
,
0000
3003
0010
0010
,
1000
0000
0100
0000
0010
0000
0000
0220
,
0000
0330
0001
1000
,
0001
0000
0100
0000
0010
0000
0000
0220
,
0000
0000
0330
0000
,
1000
0100
0000
0100
,
1000
0010
0100
0000
,
0001
0100
0000
0100
,
0001
0010
0100
0000
,
2000
0000
3010
0000
,
0200
0000
0301
0000
,
0002
0000
0013
0000
,
0200
0000
1300
0000
,
2001
0000
3001
0000
,
1002
0000
1003
0000
,
2001
0000
3010
0000
,
1002
0000
0103
0000
,
0200
0000
0000
0000
,
0000
0000
0000
0000
,
0000
0000
0300
0000
;

//--------------- dance-single - ----------------
#NOTES:
     dance-single:
     :
     Medium:
     7:
     0,0,0,0,0:
0000
0000
0000
0000
,
0000
0000
0000
0000
,
0000
0000
0000
0000
,
0000
0000
0000
0000
,
0002
1000
0000
1003
,
0100
2000
0010
0000
,
3010
0000
0100
0000
0001
1000
0001
0000
,
0010
0000
0100
0000
1000
0001
1000
0000
,
0010
1100
0000
2000
,
3020
0100
0130
0000
,
0010
0101
0000
0001
,
0020
0000
0100
0000
0130
0000
1000
0010
,
1000
0000
0001
0000
0100
0000
0001
0010
,
0001
1000
0100
0110
,
0011
0000
1010
0000
,
1000
0100
0001
0100
0010
0001
1000
0000
,
0010
0000
0000
1000
0000
0000
1000
0000
0100
0000
1000
0000
0001
0000
0000
0000
,
0010
0000
0000
0001
0000
0000
0001
0000
0100
0000
0001
0000
1000
0000
0000
0000
,
0010
1000
0100
0000
0010
0001
0100
0000
,
0001
0010
0100
0000
1000
0010
0100
0000
,
0020
0000
0000
0030
,
1100
1010
0101
0011
,
1000
0010
1000
0000
0010
1000
0010
0000
,
0100
0001
0100
0101
,
0001
0010
0001
0000
0010
0001
0010
0000
,
0100
1000
0100
1100
,
1000
0010
0100
0000
0001
0000
1100
0000
,
0001
0010
0100
0000
1000
0010
0001
0000
,
0010
0100
0001
1100
,
0010
1000
0001
0101
,
1000
0010
1000
0000
0001
0000
1000
0000
,
0001
0010
0001
0000
1000
0000
0001
0000
,
0100
0001
0010
0110
,
0100
1000
0010
0110
,
0200
0001
0000
0310
,
2000
0100
0020
3030
,
0200
0001
0010
0310
,
0002
0000
0000
2000
0000
3000
1003
0000
,
0010
0000
1000
0000
0001
1000
0001
1000
,
0000
0100
0010
0100
,
0010
0000
0001
0000
1000
0001
1000
0001
,
0000
0100
0001
1000
,
0100
0000
1000
0000
0010
0100
0010
0100
,
0000
1001
1001
0000
,
0100
0000
0001
0000
0010
0100
0010
0200
,
0000
0000
0000
0300
,
0001
0000
1000
0000
0100
1000
0000
0000
,
1000
0000
0001
0000
0100
0001
0000
0000
,
0010
0000
0001
0000
0100
0010
0000
0000
,
0010
0000
1000
0000
0100
0010
0000
0000
,
0001
0000
0001
0000
0010
0001
0000
0000
,
1000
0000
1000
0000
0010
1000
0000
0000
,
0100
1000
0010
0100
,
0001
0010
0200
0300
,
1100
1000
0001
0100
,
0101
0001
1000
0100
,
1000
0010
0100
0000
0001
0010
0100
0000
,
1000
0010
0000
0010
1000
0000
0000
0000
0001
0100
0000
0100
0001
0000
0000
0000
,
0020
0000
0000
0000
,
0000
0000
0000
0000
,
0000
0000
0030
0000
;

//--------------- dance-single - ----------------
#NOTES:
     dance-single:
     :
     Hard:
     9:
     0,0,0,0,0:
0000
0000
0000
0000
,
0000
0000
0000
0000
,
0000
0000
0000
0000
,
0000
0000
0000
0000
,
2000
0000
0010
0000
3001
0100
0010
0000
,
0002
0000
0010
0000
1003
0000
0100
1000
,
0020
0000
1000
0000
0100
0000
1030
0100
,
0020
0001
0100
0031
,
1000
1100
0010
0101
,
1000
0100
0001
0000
0100
0010
0001
0000
,
1000
0110
0001
0110
,
0001
1000
0010
0000
0100
0001
1000
0000
,
0010
1000
0010
1000
0001
1000
0001
0100
,
0001
0010
0100
1000
0010
0100
0001
0000
,
1100
0000
0010
0001
0100
0010
1000
0000
,
1000
0001
0100
0110
0000
0001
1000
0001
,
0010
0000
0001
0010
0100
0000
1000
0000
0100
0000
1000
0100
0001
0000
0100
0000
,
0110
0000
0001
1000
0010
0000
1000
0000
0100
0000
1000
0010
0100
0000
0001
0000
,
1001
0000
1000
0100
1000
0000
0010
0000
0100
0000
0001
1000
0100
0000
0010
0000
,
0011
0000
0001
1000
0100
0000
1000
0000
1010
0000
1000
0001
0100
0000
0001
0000
,
2002
0000
0000
3003
,
1000
0010
2000
0000
0001
0000
3100
0000
,
0110
0000
0100
0001
0010
0000
0001
1000
,
0100
0000
1000
0010
0000
0010
0100
0000
,
0011
0000
0010
0001
1000
0000
0010
0100
,
0000
0010
1000
0100
1000
0001
0100
0000
,
1010
0000
1000
0010
0100
0001
0010
0000
,
0101
0000
0001
1000
0100
0010
0100
0000
,
1100
0000
1000
0010
0100
0000
0001
0000
,
2001
3010
0200
0301
,
0010
0001
1000
0100
0000
1000
0001
0000
,
0010
0001
0100
0000
0001
0000
1100
0000
,
0002
0000
0013
0001
1000
0100
0010
0000
,
0020
0000
0130
1000
0010
0100
0001
0000
,
1001
0000
1000
0100
0010
0000
0100
0000
,
0110
0000
0010
0001
0100
0000
0010
0000
,
1100
0010
0101
0010
,
2000
0000
0010
0002
3000
0000
0103
0000
,
0010
1000
0010
0000
0100
0001
2000
0200
,
0000
3000
0010
0000
1000
0000
0310
0000
,
0011
0000
1000
0000
0010
0100
0002
0200
,
0000
0003
0010
0000
0001
0000
0310
0000
,
1000
0100
0010
0000
0001
0010
0200
0020
,
0000
0300
1000
0000
0001
0000
0030
0000
,
1000
0010
0100
0000
0001
0010
0001
2000
,
0010
0010
0100
3100
,
1001
0000
0100
0000
0001
1000
0000
0000
,
0010
0000
0010
0000
0100
0010
0000
1000
,
1001
0000
0001
0000
0010
0001
0000
0000
,
0100
0010
1000
0000
0010
1000
0000
0000
,
1100
0000
0011
0000
0001
0010
0000
0001
,
0100
0000
0010
0000
1000
0100
0000
0000
,
0101
0000
1010
0000
0100
0001
1000
0000
,
0200
1000
0020
0330
,
0011
0000
0000
0001
0100
0000
0010
0000
1010
0000
0000
1000
0100
0000
0010
0000
,
1100
0000
0000
1000
0001
0000
0100
0000
0101
0000
0000
0001
1000
0000
0100
0000
,
1000
0000
0010
1000
0001
0000
0100
0000
0001
0000
0010
0001
1000
0000
0100
0000
,
1000
0010
0100
0000
0001
0010
0100
0000
1000
0001
0010
0001
0100
0010
1000
0000
,
0200
0000
0000
0000
,
0000
0000
0000
0000
,
0000
0000
0300
0000
;

//--------------- dance-double - ----------------
#NOTES:
     dance-double:
     :
     Easy:
     4:
     0,0,0,0,0:
00000000
00000000
00000000
00000000
,
00000000
00000000
00000000
00000000
,
00000000
00000000
00000000
00000000
,
00000000
00000000
00000000
00000000
,
00001000
00010000
00001000
00000000
,
00010000
00000100
00001000
00000000
,
00000001
00001000
00000001
00000000
,
00000010
00000100
00000010
00000000
,
00000100
00010100
00000000
00010100
,
00000000
00011000
00000000
00001000
,
01000000
01001000
00000000
01001000
,
00000000
01001000
00000000
00010000
,
00001000
00001000
00000000
00001000
,
00010000
00010000
00000000
00010000
,
00001000
00000100
00000010
00000000
,
00000100
00000000
00000000
00002002
00000000
00000000
00003003
00000000
,
00000001
00000100
00000001
00000000
00001000
00000000
00000100
00000000
,
00010000
00001000
00010000
00001000
01000000
00000000
00010000
00000000
,
10000000
01000000
10000000
00000000
00010000
00000000
01000000
00000000
,
00001000
00010000
00001000
00010000
00000100
00000000
00010000
00000000
,
00200000
00000000
00000000
00300000
,
10000000
01000000
00100000
00010000
,
00100000
00001000
00000000
00101000
,
00000000
00011000
00000000
00000000
,
00000010
00010000
00000000
00010010
,
00000000
00011000
00000000
00000000
,
00000100
00001000
00000100
00000000
,
00010000
00001000
00100000
00000000
,
00010000
10000000
00010000
00000000
,
10000000
01000000
10000000
00000000
,
00100000
01000000
00010000
00100000
,
00001000
00010000
00001000
00000000
,
00010000
00000100
00001000
00000010
,
00000100
00000001
00001000
00000000
,
00000100
00010000
00002000
00000000
,
01003000
00001000
00020000
00000000
,
00031000
00000000
00010000
00000000
,
00011000
00000000
00000000
00000200
00000000
00000000
00000310
00000000
,
00000100
00000000
00001000
00000000
00000001
00000000
00000000
00002002
,
00000000
00003003
00000100
00000100
,
00001000
00000000
00100000
00000000
00010000
00000000
00000000
20020000
,
00000000
30030000
00100000
00001000
,
00010000
00000000
00000100
00000000
00010000
00000000
00000000
00022000
,
00000000
00033000
00010000
00000100
,
00001000
00000000
00000010
00000000
00000200
00000000
00000000
00000310
,
00001000
00000100
00000010
00000001
,
00002000
00000010
00000000
00000010
,
00000000
00003001
00001000
00000000
,
00000002
00000010
00000000
00000010
,
00000000
00001003
00000100
00010000
,
00002000
00100000
00000000
01000000
,
00000000
00013000
00000100
00000100
,
00020000
00000010
00000000
00030100
,
00002000
00003000
00000002
00000003
,
00000100
00000100
00000001
00000000
,
00000010
00000010
00001000
00000000
,
00000100
00010000
00001000
00000000
,
01000000
00001000
00010000
00000000
,
00200000
00000000
00000000
00000000
,
00000000
00000000
00000000
00000000
,
00000000
00000000
00300000
00000000
;
