#TITLE:Cosmic Capers (UltraCore Mix);
#SUBTITLE:;
#ARTIST:8Chasey;
#TITLETRANSLIT:;
#SUBTITLETRANSLIT:;
#ARTISTTRANSLIT:;
#GENRE:;
#CREDIT:8Chasey 2025;
#MUSIC:Cosmic Capers (UltraCore Mix).mp3;
#BANNER:Cosmic Capers (UltraCore Mix)-bn.png;
#BACKGROUND:Cosmic Capers (UltraCore Mix)-bg.png;
#CDTITLE:;
#SAMPLESTART:36.620;
#SAMPLELENGTH:12.000;
#SELECTABLE:YES;
#OFFSET:-0.074;
#BPMS:0.000=210.000
,96.000=105.000
,108.000=210.000
,113.000=420.000
,129.000=210.000
,193.000=105.000
,201.000=210.000
,219.000=420.000
,283.000=105.000
,297.000=210.000
,301.000=420.000
;
#STOPS:112.000=0.857
,212.500=1.143
,213.000=0.286
,214.000=0.286
;
#BGCHANGES:;
#FGCHANGES:;

//--------------- dance-single - 8Chasey ----------------
#NOTES:
     dance-single:
     8Chasey:
     Beginner:
     3:
     0,0,0,0,0:
0000
0000
0000
0000
,
0000
0000
0000
0000
,
0000
0000
0000
0000
,
0000
0000
0000
0000
,
0001
0000
1000
0000
,
0001
0000
0000
0000
,
1000
0000
0001
0000
,
1000
0000
0000
0000
,
0001
0000
0001
0000
,
0001
0000
0000
0000
,
1000
0000
0001
0000
,
1000
0000
0001
0000
,
1000
0000
1000
0000
,
1000
0000
0000
0000
,
0001
0000
1000
0000
,
0001
0000
1000
0000
,
1001
0000
0000
0000
,
0000
0000
0000
0000
,
0110
0000
0000
0000
,
0000
0000
0000
0000
,
1001
0000
0000
0000
,
0000
0000
0000
0000
,
0110
0000
0000
0000
,
0000
0000
0000
0000
,
1001
0000
0001
0000
,
0001
0000
1000
0000
,
1000
0000
0010
0000
,
0100
0000
0110
0000
,
0000
0001
0000
0001
,
0000
1000
0000
1000
,
0000
1001
0000
0000
,
0000
0000
0000
0000
,
0000
0001
0000
0100
,
0000
0001
0000
0001
,
0000
1000
0000
0010
,
0000
1000
0000
1000
,
0000
0010
0000
0100
,
0000
0010
0000
0000
,
0000
0100
0000
0010
,
0000
0100
0000
0000
,
0000
1001
0000
0001
,
0000
1000
0000
0000
,
0000
1001
0000
1000
,
0000
0001
0000
0000
,
0000
0110
0000
0000
,
0000
0100
0000
0000
,
0000
0010
0000
0010
,
0000
0110
0000
0000
,
0000
1000
0100
1000
,
0000
0001
0010
0001
,
0000
0100
0000
0100
,
0000
0010
0000
0010
,
0000
0110
0000
0000
,
0000
0001
1000
0010
,
0010
0010
0000
0100
,
0000
0001
0000
0100
,
0000
0000
0000
0001
,
0000
0100
0000
0001
,
0000
0000
0000
1000
,
0000
0001
0000
1000
,
0000
0000
0000
0001
,
0000
0000
0000
1000
,
0000
0000
0000
0010
,
0000
1000
0000
0010
,
0000
0000
0000
1000
,
0000
0010
0000
1000
,
0000
0000
0000
0001
,
0000
1000
0000
0001
,
0000
0000
0000
1000
,
0000
0000
0000
0001
,
0000
0000
0000
1001
,
0000
0001
0000
1000
,
0000
0001
0000
1000
,
0000
0010
0000
0100
,
0000
0010
0010
0010
,
0000
1001
0000
0000
;

//--------------- dance-single - 8Chasey ----------------
#NOTES:
     dance-single:
     8Chasey:
     Easy:
     6:
     0,0,0,0,0:
0000
0000
0000
0000
,
0000
0000
0000
0000
,
0000
0000
0000
0000
,
0000
0000
0000
0000
,
0002
0000
0000
1000
0000
1003
0000
0000
,
0001
1000
0001
0000
,
2000
0000
0000
0001
0000
3001
0000
0000
,
0100
0000
0000
0010
0000
0000
0100
0000
,
0001
0100
0001
0001
,
1000
0010
1000
0010
,
1000
0100
1000
1000
,
0001
0010
0001
0010
,
0100
0010
0001
0000
,
0100
0010
1000
0000
,
0001
0100
0101
0000
,
1000
0100
1100
0000
,
0020
0000
0130
0000
,
0010
0100
0001
0000
,
0200
0000
0310
0000
,
0100
0010
1000
0000
,
1010
1000
0100
0000
,
2000
0000
3001
0000
,
0011
0001
0100
0000
,
0002
0000
1003
0000
,
0020
1000
0100
1030
,
0200
0001
0010
0301
,
1000
0100
1000
0000
0001
0010
0001
0000
,
0100
0000
0100
0000
0010
0100
0020
0000
,
0000
0130
0000
0100
,
0000
0001
0000
1000
,
0000
0020
0000
0000
,
0000
0000
0000
0030
,
0000
0100
0001
0100
,
0000
0001
0000
1000
,
0000
0100
1000
0100
,
0000
1000
0000
0001
,
0000
0010
0001
0011
,
0000
0010
0100
1000
,
0000
0010
1000
1010
,
0000
0010
0100
0001
,
0000
2000
0100
0000
,
0100
0000
3001
0000
,
1000
0002
0100
0000
,
0100
0000
1003
0000
,
0001
0020
0100
0000
,
0130
0000
1000
0001
,
0000
0200
0010
0000
,
0310
0000
0001
0000
0000
1000
0000
0000
,
0001
0000
1000
0100
1000
0010
0000
0000
,
0000
0000
0001
0100
0001
0010
0000
0000
,
0000
0100
0100
1000
,
0000
0001
1000
0001
,
0000
0100
0100
0001
,
0000
0020
0100
0000
0100
0000
0200
0000
,
0000
0330
0000
1000
,
0001
1000
0000
0001
,
0000
0000
0000
1000
,
0000
0001
0000
1000
,
0000
0000
0000
0001
,
1000
0001
0000
1000
,
0000
0000
0000
0001
,
0000
1000
0000
0001
,
0000
0000
0000
1000
,
0010
1000
0000
0010
,
0000
1000
0000
0001
,
0010
0001
0000
0010
,
0000
0001
0000
1000
,
0100
1000
0000
0100
,
0000
1000
0000
0001
,
0100
0001
0000
0100
,
0000
0001
0000
2000
,
0010
3010
0000
0002
,
0100
0000
0103
0000
0000
0000
0001
1000
,
0001
0000
1000
0001
1000
0000
0010
0100
,
0010
0100
0100
0001
,
0000
2002
0000
0000
,
0000
0000
0000
0000
,
0000
0000
0000
0000
,
0000
0000
0000
0000
,
0000
3003
0000
0000
;

//--------------- dance-single - 8Chasey ----------------
#NOTES:
     dance-single:
     8Chasey:
     Medium:
     9:
     0,0,0,0,0:
0000
0000
0000
0000
,
0000
0000
0000
0000
,
0000
0000
0000
0000
,
0000
0000
0000
0000
,
0001
0000
0010
0001
0000
1000
0000
0000
,
0100
1000
0100
1000
,
0010
0000
1000
0001
0000
0000
0100
0000
,
0101
0000
0000
1100
0000
0000
1001
0000
,
0010
0001
0010
0100
,
1000
0001
0000
1000
0001
0000
0100
0000
,
0010
1000
0100
1000
,
0001
1000
0000
0001
1000
0000
0010
0000
,
0100
0001
0010
0001
,
1000
0010
0000
1000
0100
0000
1000
0000
,
0100
1000
0010
1000
,
0001
0010
0000
0001
0100
0000
0010
0000
,
2000
0100
0100
0000
,
0001
0100
3001
0010
,
0002
0100
0100
0000
,
1000
0100
1003
0010
,
0200
0001
0001
0000
,
1000
0010
0310
1000
,
0020
0100
0100
0000
,
1000
0001
1030
0100
,
0120
0000
0001
0001
0001
0000
0130
1000
,
2001
0000
0010
0010
0010
0000
3001
0100
,
0210
0000
0301
1000
1001
0000
0010
0100
,
0001
0000
0001
0000
1000
0001
1000
0002
,
0000
1003
0000
0001
,
0000
0100
0100
0001
,
0000
1000
0001
0100
,
0020
0000
0000
0130
,
0010
0000
1000
0100
0000
1000
0001
0000
,
1000
0001
0000
0010
0001
0000
0100
0000
,
0101
0000
0001
0100
0000
0001
1000
0000
,
0001
1000
0000
0010
1000
0000
0100
0000
,
1100
0000
0010
0100
0000
1000
0100
0000
,
1000
0001
0000
0100
0010
0000
1000
0000
,
1010
0000
0010
0100
0000
0001
0100
0000
,
0001
1000
0100
0000
1000
0100
0010
0000
,
0011
0000
0010
0001
0000
0010
0001
0000
,
1000
0010
1000
0100
1000
0000
0010
0000
,
1010
0000
0010
1000
0000
0010
1000
0000
,
0001
0010
0001
0100
0001
0000
0010
0000
,
0011
0000
0010
0100
0000
1000
0100
0000
,
0001
0100
0000
1000
0001
0000
0100
0000
,
0110
0000
0010
1000
0010
0000
0100
0001
,
0100
0000
1010
0000
0000
0011
0000
0000
,
0110
0000
0000
0000
0100
0000
0001
0000
0100
0000
0000
0002
0000
0000
0000
0000
,
1003
0000
0000
0000
0010
0000
1000
0000
0010
0000
0000
2000
0000
0000
0000
0000
,
3001
0000
0010
0000
0001
0000
1000
0001
,
1000
0001
0000
0000
1000
0000
0010
0000
,
0100
0000
0010
0000
1000
0000
0001
1000
,
0001
1000
0010
0000
0110
0000
0100
0001
,
1000
0010
0000
0100
0010
0000
1000
0000
,
0100
1000
0000
0001
,
0000
0010
0000
0001
,
0100
0001
0000
1000
,
0000
1001
0000
0001
,
0010
0001
0000
1000
,
0000
0100
0000
1000
,
0010
1000
0000
0001
,
0000
1001
0000
0010
,
0100
0001
0000
1000
,
0000
0100
0000
0010
,
0100
1000
0000
0001
,
0000
0100
0000
0010
,
1000
0010
1000
0100
,
0001
0100
0001
0100
,
0010
0001
1000
0010
,
0100
0001
0000
2000
,
0100
0000
3001
0010
0001
1000
0002
0000
,
0010
0000
1003
0100
1000
0001
0200
0000
,
0310
0000
0020
0000
0130
0000
0001
1000
,
0010
0100
0001
0000
1000
0000
0001
1000
,
0001
1000
2002
0000
0000
0000
0000
0000
,
0000
0000
0000
0000
,
0000
0000
0000
0000
,
0000
0000
0000
0000
,
0000
3003
0000
0000
;

//--------------- dance-single - 8Chasey ----------------
#NOTES:
     dance-single:
     8Chasey:
     Hard:
     10:
     0,0,0,0,0:
0000
0000
0000
0000
,
0000
0000
0000
0000
,
0000
0000
0000
0000
,
0000
0000
0000
0000
,
0010
0001
0100
0010
0000
1010
0000
1000
,
0100
0100
1000
0002
0000
0000
0003
0000
,
0010
0001
1000
0010
0000
1010
0000
0100
,
0101
0000
0000
1100
0000
0000
1001
0000
,
0010
0001
0010
0002
0000
0100
0103
0000
,
0010
1000
0001
0100
0000
0010
0110
0000
,
0010
0100
0001
2000
0000
0100
3100
0000
,
1000
0001
0100
0010
0000
0100
0110
0000
,
0010
0100
0001
0020
0000
0001
0031
0100
,
0001
1000
0010
1000
0001
1000
1001
0000
,
0010
1000
0100
0020
0000
0100
0130
1000
,
0001
0100
0010
1000
0001
1000
1001
0000
,
0020
1000
1000
0000
0100
0000
1000
0000
,
0130
0001
0010
0001
0100
0010
1000
0100
,
0020
0001
0001
0000
0100
0000
0001
0000
,
0130
1000
0100
1000
0010
0100
0001
0010
,
0002
0100
0100
0000
1003
0010
1000
0100
,
2000
0100
0100
0000
3010
0100
0001
0000
,
0200
0001
0001
0000
0310
1000
0100
1000
,
0020
0100
0100
0000
0130
0001
1000
0000
,
1002
0000
0000
0103
0100
0000
0001
0000
2010
0000
0000
0100
3100
0000
0110
0000
,
0012
0000
0000
1000
1003
0000
0010
0000
2010
0000
0000
0001
3001
0000
0101
0000
,
1100
0000
1000
0100
0010
0000
0011
0000
0101
0000
0001
0100
0010
0000
1010
0000
,
1100
0000
0000
0000
0101
0000
0000
0000
1000
0000
0001
0000
1000
0001
1000
0002
,
0000
0003
0000
0000
0011
0000
0000
0000
0000
0000
0000
0000
1010
0000
0000
0000
,
0000
1100
1001
0101
,
0000
0110
0110
1001
,
0110
0000
0000
0000
0100
0001
1000
0000
,
1001
0000
0001
0010
0100
0010
0002
0100
,
0100
0000
1003
0010
1000
0100
0010
0000
,
0110
0000
0010
0001
0100
0010
2000
0100
,
0100
0000
3001
0010
0100
1000
0001
0000
,
1001
0000
0010
0001
0010
0100
1000
0020
,
1000
0000
0130
0001
0010
0100
1000
0001
,
1001
0000
0100
0001
0010
0100
1000
0010
,
0100
0010
2000
0000
0010
0010
0000
3001
,
0100
0001
1000
0010
1000
0100
0020
0001
,
0001
0000
0130
1000
0010
0100
0001
0000
,
0101
0000
0001
0010
0100
0010
0200
1000
,
1000
0000
0310
0001
0100
0010
1000
0000
,
1100
0000
0010
0001
0100
0001
1000
0200
,
1000
0000
0310
0100
1000
0001
0100
0010
,
0110
0000
0100
0001
0010
0100
1000
0010
,
0100
0001
2000
0010
3010
0002
0100
0103
,
0020
0000
0130
0000
0002
0000
0203
0000
0301
0010
0100
2000
0000
3010
1000
0100
,
1000
0010
0100
0001
2000
0000
3200
0000
1300
0100
0010
0200
0000
0310
0001
0000
,
1001
0110
0100
0001
0200
0000
0301
0010
,
0010
0002
0000
1003
0100
0001
0100
1000
,
0010
1000
0010
0000
0100
0000
0001
0100
0001
0000
1000
0000
0100
0000
1000
0100
,
1000
0000
0020
0030
0101
0000
0000
0000
1010
0000
0000
0000
0011
0000
1010
0000
,
0110
1001
0000
0010
0200
0000
0301
0000
,
0010
0000
0001
0000
1000
0000
0010
1000
,
0010
0000
1000
0000
0100
0000
0010
0100
,
0010
0100
0010
0000
0001
0000
1000
0000
,
0010
0220
0330
0100
,
0001
0000
1000
0000
0100
0000
0010
0001
,
0010
0000
0001
0000
1000
0000
0100
0010
,
0100
0010
0100
0000
0010
0000
0001
0000
,
1000
2002
3003
1000
,
0010
1000
0010
0000
0100
0000
0001
1000
,
0001
0000
0010
0000
0100
0000
1000
0010
,
1000
0001
0100
0000
0001
0010
0100
0000
,
1000
0000
2200
0000
3300
0000
0010
1000
,
0001
0100
0001
0000
0010
0000
0001
0100
,
0010
0000
1000
0000
0100
1000
0010
1000
,
0001
0100
0010
0100
0001
0010
0100
0000
,
1000
0000
0100
0000
0010
0000
0000
0000
0001
0000
0000
0000
0021
0000
0000
0100
,
0100
0000
0032
0000
0203
0000
0000
0010
0010
0000
0301
1000
0200
0000
0000
0010
,
0010
0000
2300
0000
3020
0000
0000
0100
0100
0000
1030
0001
2000
0000
0000
0100
,
0100
0000
3010
0100
0002
0000
0000
0100
0100
0000
0013
0100
1000
0000
0010
1000
,
0001
0010
0100
0000
1000
0000
0100
0000
1000
0000
0001
0000
0100
0001
0100
0001
,
1000
0010
1000
0000
2002
0000
0000
0000
0000
0000
0000
0000
0000
0000
0000
0000
,
0000
0000
0000
0000
,
0000
0000
0000
0000
,
0000
0000
0000
0000
,
0000
3003
0000
0000
;
