#TITLE:Cooking By The Book;
#SUBTITLE:;
#ARTIST:LazyTown;
#TITLETRANSLIT:;
#SUBTITLETRANSLIT:;
#ARTISTTRANSLIT:;
#GENRE:;
#CREDIT:8Chasey 2026;
#MUSIC:Cooking By The Book.ogg;
#BANNER:Cooking By The Book-bn.png;
#BACKGROUND:Cooking By The Book-bg.png;
#CDTITLE:cdtitle.png;
#SAMPLESTART:21.620;
#SAMPLELENGTH:12.000;
#SELECTABLE:YES;
#OFFSET:-0.080;
#BPMS:0.000=110.000;
#STOPS:;
#BGCHANGES:;
#FGCHANGES:;

//--------------- dance-single - 8Chasey ----------------
#NOTES:
     dance-single:
     8Chasey:
     Beginner:
     1:
     0,0,0,0,0:
0000
0000
0000
0000
,
0000
0000
0000
0000
,
0001
0000
0000
0000
,
1000
0000
0000
0000
,
0001
0000
0001
0000
,
0001
0000
0000
0000
,
1000
0000
0000
0000
,
0001
0000
0000
0000
,
1000
0000
1000
0000
,
1000
0000
0000
0000
,
0001
0000
0000
0000
,
1000
0000
1000
1000
,
1000
0000
0000
0000
,
0001
0000
0001
0001
,
0001
0000
0000
0000
,
0100
0000
0100
0100
,
0100
0000
0010
0000
,
0100
0000
0010
0000
,
0100
0000
0001
0000
,
0001
0000
1000
0000
,
1000
0000
0000
0000
,
0010
0010
0010
0000
,
0010
0000
0000
0000
,
0100
0000
0000
0000
,
0010
0000
0000
0000
,
0100
0000
0010
0000
,
0110
0000
0000
0000
,
1000
0000
0000
0000
,
0001
0000
0001
0001
,
0001
0000
0000
0000
,
1000
0000
1000
1000
,
1000
0000
0000
0000
,
0010
0000
0010
0010
,
0010
0000
0100
0000
,
0010
0000
0100
0000
,
0010
0000
1000
0000
,
1000
0000
0001
0000
,
0001
0000
0000
0000
,
1000
0000
0001
0000
,
1000
0000
0010
0000
,
0010
0000
0100
0000
,
0100
0000
0001
0000
,
1000
1000
1000
0000
,
1001
0000
0000
0000
;

//--------------- dance-single - 8Chasey ----------------
#NOTES:
     dance-single:
     8Chasey:
     Easy:
     3:
     0,0,0,0,0:
0000
0000
0000
0000
,
0000
0000
0000
0000
,
0001
0000
1000
0000
,
0001
0100
0001
0000
,
1000
0000
0001
0000
,
1000
0010
1000
0000
,
0010
0000
0010
0000
,
0100
0010
0100
0000
,
0001
0000
1000
0000
,
2002
0000
3003
0000
,
0001
0010
0001
0000
,
1000
0000
0001
0001
,
1000
0100
1000
0000
,
0001
0000
1000
1000
,
0010
0100
0010
0000
,
0100
0000
0010
0010
,
1000
0001
1000
0000
,
0001
0000
1000
0000
,
1001
0000
0001
0010
,
0001
0000
1000
0100
,
1000
0000
0010
0000
,
0100
0000
0001
1000
,
0002
0000
0003
0000
,
1000
0000
0010
0000
,
0100
0010
0100
0000
,
0001
0000
1000
0000
,
2002
0000
3003
0000
,
1000
0100
1000
0000
,
0001
0000
0100
0100
,
0001
0010
0001
0000
,
1000
0000
0010
0010
,
0100
0010
0100
0000
,
0001
1000
0001
1000
,
0001
0000
1000
0000
,
0010
0000
0100
0000
,
0110
0000
0010
0100
,
0010
0000
1000
0001
,
1000
0000
0100
0000
,
0010
0000
0001
0000
,
1001
0000
1000
0010
,
1000
0000
0001
0100
,
0001
0000
0010
0000
,
0100
0000
1000
0000
,
0002
0000
0000
1003
;

//--------------- dance-single - 8Chasey ----------------
#NOTES:
     dance-single:
     8Chasey:
     Medium:
     4:
     0,0,0,0,0:
0000
0000
0000
0000
,
0000
0000
0000
0000
,
0001
1000
0000
0001
0100
0000
0010
0000
,
0100
0010
0100
0000
0010
0000
0000
0000
,
0100
0001
0100
0000
0001
0000
0010
0000
,
0001
1000
0001
0000
1001
0000
0000
0000
,
1000
0100
1000
0000
0001
0000
0010
0000
,
0001
0100
0001
0000
0010
0000
0000
0000
,
0100
0010
0100
0000
1000
0000
0100
0000
,
0020
0000
0130
0000
,
1000
0000
0001
0100
0001
0000
0010
0000
,
0100
0200
0010
0310
,
0001
0000
1000
0100
1000
0000
0100
0000
,
0010
0020
0100
0130
,
1000
0001
1001
0000
,
0001
0100
0001
0000
1000
0000
0001
0000
,
0010
0100
0010
0000
0100
0010
0100
0000
,
1000
0001
1000
0001
,
1001
0000
0000
0000
0001
1000
0001
0000
,
0010
0000
0001
1000
,
1001
0000
0000
0000
1000
0001
1000
0000
,
0010
0010
0100
0010
,
2002
0000
0000
3003
,
0001
0000
0100
0001
0100
0000
0000
0000
,
0010
1000
1001
0000
,
1000
0000
0100
1000
0100
0000
0010
0000
,
0200
0000
0310
0000
,
0001
0000
0010
0100
0010
0000
0100
0000
,
1000
2000
0001
3001
,
1000
0000
0010
0100
0010
0000
0100
0000
,
0001
0002
1000
1003
,
0010
0100
0110
0000
,
0010
1000
0010
0000
1000
0000
0001
0000
,
0100
0001
0100
0000
0010
0000
0000
0000
,
1000
1000
0001
0001
,
1001
0000
0000
0000
1000
0010
1000
0000
,
0001
0000
0100
0010
,
1010
0000
0000
0000
1000
0010
1000
0000
,
0001
0002
1000
1003
,
1001
0000
0000
0000
0001
0100
0001
0000
,
1000
0000
0100
0010
,
0011
0000
0000
0000
0001
0100
0001
0000
,
1000
2000
0001
3001
,
0020
0000
0130
1001
;

//--------------- dance-single - 8Chasey ----------------
#NOTES:
     dance-single:
     8Chasey:
     Hard:
     5:
     0,0,0,0,0:
0000
0000
0000
0000
,
0000
0000
0000
0000
,
0001
1000
0001
0100
0010
0000
0100
0000
,
0001
0100
0001
0000
2000
0000
3100
0000
,
0010
0100
1000
0010
0100
0000
0001
0000
,
0010
0001
1000
0000
0001
0000
1001
0000
,
1000
0010
1000
0100
0010
0000
0001
0000
,
0100
0001
0100
0000
0020
0000
1030
0000
,
0100
1000
0001
0000
0100
0000
0010
0000
,
2000
0000
0000
0001
0002
0000
3003
0000
,
1000
0001
1000
0001
0100
0000
0010
0000
,
0100
0010
0100
0000
0002
0000
2003
0000
,
3001
1000
0001
1000
0100
0000
0010
0000
,
0100
0010
0100
0000
2000
0000
3002
0000
,
0013
0001
0010
0000
0110
0000
0010
0000
,
0100
1000
0100
0000
2000
0000
3002
0000
,
0103
0010
0100
0010
1000
0000
0100
0000
,
0110
0000
0010
0000
0001
1000
0001
0000
,
1001
0000
0000
1000
0010
1000
0010
0000
,
0200
0000
0300
0001
0010
0001
0010
0000
,
0002
0000
0003
0000
0100
0001
0100
0001
,
2000
3020
0230
0301
,
2002
0000
3003
1001
,
1000
0100
1000
0001
0100
0000
0001
0000
,
0010
0001
0010
0000
0001
1000
0001
0000
,
0100
0001
0100
0000
0010
0000
1000
0000
,
0200
0000
0000
0010
0310
0000
0110
0000
,
0100
1000
0100
1000
0010
0000
0100
0000
,
0001
0010
0001
0000
2000
0000
3002
0000
,
0103
0001
0100
0001
0010
0000
0100
0000
,
0010
0001
0010
0000
0002
0000
2003
0000
,
3001
0100
0001
0000
1001
0000
1000
0000
,
0100
1000
0100
0000
0020
0000
0230
0000
,
0310
0001
0010
0001
0100
0000
0001
0000
,
1010
0010
0101
0100
,
0110
0000
0000
0010
1000
0010
1000
0000
,
0002
0000
0003
0100
0001
0100
0001
0000
,
2000
0000
3001
0000
1000
0001
1000
0010
,
0200
0302
2003
3010
,
0110
0000
0000
0100
0001
0100
0001
0000
,
0020
0000
0030
0100
1000
0100
1000
0000
,
0200
0000
0300
0000
1000
0001
1000
0001
,
0020
0032
2003
3010
,
0110
0000
0010
0100
0001
0000
1001
0000
;

//--------------- dance-single - 8Chasey ----------------
#NOTES:
     dance-single:
     8Chasey:
     Challenge:
     8:
     0,0,0,0,0:
0000
0000
0000
0000
,
0000
0000
0000
0000
,
0001
0000
1000
0100
1000
0000
0100
0000
0010
0000
0100
0010
0000
0000
0001
0000
,
0100
0000
0001
1000
0001
0000
1000
0000
0100
0000
0010
0100
0020
0000
0000
0000
,
0130
0000
1000
0100
1000
0000
0010
0000
0100
0000
0001
0100
0001
0000
1000
0000
,
0010
0000
0100
0010
0100
0000
0001
0000
1000
0000
0100
0000
0110
0000
0010
0000
,
0001
0000
0100
0000
0001
1000
0001
0000
1000
0000
0100
1000
0000
0000
0100
0000
,
0010
0000
0001
0010
0001
0000
1000
0000
0020
0000
0000
0000
0100
0000
0100
0000
,
1030
0000
0001
1000
0001
0000
0100
0000
0001
0000
0010
0001
0000
0000
1000
0000
,
1020
0000
0100
0100
0200
0000
0330
0001
,
0100
0001
0100
0000
0010
0000
1000
0010
2000
0000
0000
0000
3100
0000
0010
0000
,
0100
0000
0100
0000
1000
0000
0002
0000
0010
0000
0000
0000
1003
0000
0000
0001
,
1000
0100
1000
0000
0001
0000
0010
0001
0020
0000
0000
0000
0130
0000
1000
0000
,
1001
0002
0100
0100
0203
0000
0310
1000
,
0100
1000
0100
0000
1000
0100
1000
0000
0002
0000
0000
0000
0103
0000
0010
0000
,
1000
0010
1000
0000
0001
0100
0001
0000
1001
0000
1100
0000
0022
0000
0033
0000
,
0001
0010
0001
0000
0010
0000
0100
0010
0200
0000
0000
0000
1300
0000
0010
0000
,
1000
0000
0001
0000
0010
0000
0100
0000
0010
0000
0001
0000
1000
0001
0000
1000
,
0020
0000
0100
0000
0130
0000
0001
0000
1001
0000
1000
0100
1000
0000
0010
0000
,
0200
0000
0010
0000
0310
0000
1000
0000
1001
0000
0001
0010
0001
0000
1000
0000
,
0002
1000
1003
0100
0110
0010
0001
1000
,
0001
0000
0010
0001
0010
0000
0001
0000
1000
0000
0100
1000
0100
0000
0010
0000
,
0200
0000
0001
0000
1300
0001
1001
1000
,
0010
0000
1000
0001
0000
1000
0001
0000
0100
0000
0010
0100
0000
0000
0010
0000
,
1000
0000
0100
1000
0000
0100
1000
0000
0001
0000
0100
0010
0200
0000
0001
0000
,
0301
0000
0010
0001
0000
0010
0001
0000
1000
0000
0100
0010
0100
0000
0010
0000
,
0012
0000
0100
0100
2000
0000
3003
0001
,
1000
0010
1000
0000
0010
0000
0100
0010
0200
0000
0000
0000
0301
0000
0010
0000
,
0001
0000
0001
0000
1000
0000
2000
0000
0100
0000
0000
0000
3010
0000
0000
0010
,
0100
0001
0100
0000
0001
0000
0010
0001
0020
0000
0000
0000
0130
0000
1000
0000
,
0100
0001
0100
0010
0020
0000
0130
0000
,
0110
0000
0010
0001
0010
0000
0001
1000
0002
0000
0000
0000
0103
0000
0010
0100
,
0010
0000
1000
0001
1000
0000
0001
0000
0101
0000
1010
0000
2002
0000
3003
0000
,
0001
0100
0001
0000
1000
0000
0010
1000
0020
0000
0000
0000
1030
0000
0100
0000
,
1000
0000
0010
0000
1000
0000
0001
0000
0010
0100
0010
0000
0110
0000
0000
0000
,
1001
0000
0001
0000
2000
0000
0010
0000
3010
0000
0100
0010
0100
0000
0001
0000
,
0011
0000
0000
0000
0002
0000
0100
0000
0103
0000
0010
0100
0010
0000
1000
0000
,
1010
0000
1000
0001
0010
0100
0010
0100
,
1000
0000
0010
1000
0010
0000
1000
0000
0001
0000
0100
0001
0100
0000
0001
0000
,
1001
0000
1000
0000
0100
0000
0010
0000
0001
0000
0100
0001
0100
0000
0001
0000
,
0010
0000
0001
0000
0100
0000
0010
0000
1000
0000
0100
1000
0100
0000
0010
0000
,
0110
0000
0100
2000
0001
3001
0010
0100
,
0010
0000
0001
0100
0001
0000
1000
0100
1000
0000
0001
0000
0100
0000
0000
0010
,
0100
0010
0100
0000
0001
0000
1000
0001
1000
0000
0000
0000
1001
0000
0000
0000
;

//--------------- dance-double - 8Chasey ----------------
#NOTES:
     dance-double:
     8Chasey:
     Easy:
     2:
     0,0,0,0,0:
00000000
00000000
00000000
00000000
,
00000000
00000000
00000000
00000000
,
00010000
00000000
00001000
00000000
,
00010000
00010000
00010000
00000000
,
00001000
00000000
00010000
00000000
,
00001000
00001000
00001000
00000000
,
00100000
00000000
01000000
00000000
,
10000000
00010000
10000000
00000000
,
01000000
00000000
00100000
00000000
,
00022000
00000000
00033000
00000000
,
00010000
00000100
00010000
00000000
,
00000100
00000000
00000010
00000000
,
00000001
00000100
00000001
00000000
,
00001000
00000000
00000100
00000000
,
00010000
00001000
00010000
00000000
,
00001000
00000000
00100000
00000000
,
01000000
00100000
01000000
00000000
,
10000000
00000000
00010000
00000000
,
10010000
00000000
00010000
00000000
,
01000000
00000000
00001000
00000000
,
00010000
00000000
00000100
00000000
,
00000010
00000000
00000001
00001000
,
00000002
00000000
00000003
00000000
,
00001000
00000000
00000001
00000000
,
00000100
00000010
00000100
00000000
,
00001000
00000000
00010000
00000000
,
00022000
00000000
00033000
00000000
,
00001000
00100000
00001000
00000000
,
00100000
00000000
01000000
00000000
,
10000000
00100000
10000000
00000000
,
00010000
00000000
01000000
00000000
,
00100000
01000000
00100000
00000000
,
10000000
00000000
01000000
00000000
,
00100000
01000000
00100000
00000000
,
00001000
00000000
00010000
00000000
,
00011000
00000000
00010000
00000000
,
00000100
00000000
00001000
00000000
,
00000001
00000000
00000100
00000000
,
00000010
00000100
00000010
00000000
,
00001001
00000000
00001000
00000000
,
00000100
00000000
00010000
00000000
,
00001000
00000000
00100000
00000000
,
01000000
00100000
01000000
00000000
,
20000000
00000000
00000000
30010000
;

//--------------- dance-double - 8Chasey ----------------
#NOTES:
     dance-double:
     8Chasey:
     Medium:
     4:
     0,0,0,0,0:
00000000
00000000
00000000
00000000
,
00000000
00000000
00000000
00000000
,
00001000
00000000
00100000
01000000
00100000
00000000
00000000
01000000
,
10000000
01000000
10000000
00000000
00010000
00000000
00100000
00000000
,
00001000
00010000
00001000
00000000
00010000
00000000
00000100
00000000
,
00001000
00000010
00001000
00000000
00001001
00000000
00000000
00000000
,
00000001
00000100
00000001
00000000
00001000
00000000
00000100
00000000
,
00010000
00001000
00010000
00000000
00001000
00000000
01000000
00000000
,
00100000
01000000
00100000
00000000
10000000
00000000
00010000
00000000
,
00200000
00000000
01300000
00000000
,
00100000
00000000
00001000
00010000
00001000
00000000
00010000
00000000
,
00000100
00010000
00000100
00000000
00002000
00000000
00003001
00000000
,
00000100
00000000
00000010
00001000
00000010
00000000
00010000
00000000
,
00001000
00010000
00001000
00000000
00200000
00000000
01300000
00000000
,
10000000
00000000
00010000
00100000
00010000
00000000
01000000
00000000
,
00001000
00010000
00001000
00000000
00020000
00000000
00030010
00000000
,
00000100
00000010
00000100
00000000
00000001
00000000
00001000
00000000
,
00000100
00010000
00001000
01000000
,
01100000
00000000
00000000
00000000
00100000
01000000
00100000
00000000
,
10000000
00000000
00000000
00000000
01000000
00100000
01000000
00000000
,
00010000
00000000
00000000
00000000
00001000
00010000
00001000
00000000
,
00010000
00010000
00000010
00000100
,
00002002
00000000
00000000
00003003
,
00000001
00000000
00001000
00000010
00001000
00000000
00000100
00000000
,
00010000
00001000
00011000
00000000
,
00010000
00000000
00100000
01000000
00100000
00000000
10000000
00000000
,
02000000
00000000
03100000
00000000
,
00001000
00000000
00010000
00001000
00010000
00000000
00000100
00000000
,
00000010
00000001
00000010
00000000
00000002
00000000
00001003
00000000
,
00000100
00000000
00010000
00001000
00010000
00000000
00001000
00000000
,
00100000
00100000
00010000
00000000
20000000
00000000
30010000
00000000
,
01000000
00010000
00100000
00000000
01100000
00000000
00000000
00000000
,
01000000
00100000
01000000
00000000
00200000
00000000
00301000
00000000
,
00010000
00000100
00001000
00000000
00000001
00000000
00000100
00000000
,
00000010
00000100
00000010
00000000
00010000
00000000
00001000
00000000
,
00011000
00000000
00000000
00000000
00001000
01000000
00001000
00000000
,
00100000
00000000
00001000
00000000
00010000
00000100
00010000
00000000
,
00000010
00000000
00001000
00000000
00000001
00000100
00000001
00000000
,
00000100
00001000
00010000
00001000
,
00011000
00000000
00000000
00000000
00010000
00001000
00010000
00000000
,
01000000
00000000
10000000
00000000
00010000
10000000
00010000
00000000
,
00100000
00001000
00010000
00000100
,
00000010
00000010
00000100
00000100
,
00020000
00000000
00031000
00011000
;

//--------------- dance-double - 8Chasey ----------------
#NOTES:
     dance-double:
     8Chasey:
     Hard:
     6:
     0,0,0,0,0:
00000000
00000000
00000000
00000000
,
00000000
00000000
00000000
00000000
,
00010000
00100000
00010000
01000000
00001000
00000000
00010000
00000000
,
00000100
00001000
00000100
00000000
00000020
00000000
00000031
00000000
,
00001000
00000100
00001000
00000010
00010000
00000000
00001000
00100000
,
00002000
00000000
01003000
00100000
10000000
00000000
01010000
00000000
,
00010000
00000000
00100000
00000000
00010000
00000000
01000000
00000000
00001000
00000000
00000000
00010000
00000000
00000000
00001000
00000000
,
00010000
00010000
00000100
00000010
00000002
00000000
00000103
00000001
,
00001000
00000000
00000100
00000000
00001000
00000000
00000000
00000000
00000010
00000000
00000000
00000100
00000000
00000000
00000010
00000000
,
00020000
00000000
00000000
00001000
00002000
00000000
00033000
00000000
,
00100000
00010000
01000000
00100000
20000000
00000000
31000000
00000000
,
00100000
00001000
00010000
00000000
00010100
00000000
01001000
00000000
,
00001000
00010000
00000010
00000100
00000020
00000000
00001030
00000000
,
00000100
00001000
00000010
00000000
00000101
00000000
00001010
00000000
,
00010000
00001000
00100000
00010000
20000000
00000000
31000000
00000000
,
00100000
00001000
00010000
00000000
00010010
00000000
00101000
00000000
,
00100000
01000000
10000000
00000000
00010000
00000000
01000000
00000000
,
01100000
00000000
00100000
00000000
10000000
01000000
10000000
00000000
,
10010000
00000000
00000000
00010000
00100000
00010000
00100000
00000000
,
00002000
00000000
00003000
00010000
00000100
00010000
00000100
00000000
,
00000002
00000000
00000103
00000000
00001000
00000100
00001000
00000000
,
00000010
00000100
00000010
00000000
00010000
00000000
00001000
00000000
,
00022000
00000000
00033000
01100000
,
01000000
10000000
01000000
10000000
00010000
00000000
00100000
00000000
,
00001000
00010000
00001000
00000000
00000020
00000001
00000031
00000000
,
00000100
00000001
00000100
00000000
00000010
00000000
00010000
00000000
,
00002000
00000000
00000000
00010000
00020000
00000000
00033000
00000000
,
00000010
00001000
00000100
00010000
00002000
00000000
00103000
00000000
,
01000000
00100000
00010000
00000000
01010000
00000000
10100000
00000000
,
10000000
01000000
10000000
00010000
00200000
00000000
00301000
00000000
,
00010000
00000100
00001000
00000000
00001010
00000000
00000101
00000000
,
00000100
00000100
00000010
00010000
00002000
00000000
01003000
00000000
,
00010000
01000000
00100000
00000000
01100000
00000000
10010000
00000000
,
10000000
01000000
00010000
00001000
00020000
00000000
00030100
00000000
,
00001000
00000010
00001000
00000000
00000001
00000100
00000010
00000000
,
00000110
00000000
00000000
00000010
00001000
00000010
00001000
00000000
,
00000200
00000000
00000300
00010000
00001000
00010000
00001000
00000000
,
00200000
00000000
01300000
00000000
10000000
01000000
00010000
00000000
,
00001000
00101000
00010000
00010100
,
00000110
00000000
00000000
00000010
00000001
00000100
00001000
00000000
,
00020000
00000000
00030000
00100000
10000000
01000000
00010000
00000000
,
00002000
00000000
00013000
00000000
00000100
00001000
00000100
00001000
,
00000010
00000000
00000110
00000000
00000100
00000001
00001000
00000000
,
00000200
00000000
00010000
00010000
00010300
00000000
00011000
00000000
;
