#TITLE:christmas isn't real;
#SUBTITLE:;
#ARTIST:Bill Wurtz;
#TITLETRANSLIT:;
#SUBTITLETRANSLIT:;
#ARTISTTRANSLIT:;
#GENRE:;
#CREDIT:;
#BANNER:christmas isn't real.png;
#BACKGROUND:;
#LYRICSPATH:christmas isn't real.lrc;
#CDTITLE:;
#MUSIC:christmas isn't real.ogg;
#OFFSET:-0.115000;
#SAMPLESTART:19.175001;
#SAMPLELENGTH:15.000000;
#SELECTABLE:YES;
#DISPLAYBPM:110.000000;
#BPMS:0.000000=110.000000
,223.000000=90.000000
,223.500000=80.000000
;
#STOPS:31.500000=1.091000,
62.000000=1.091000,
91.500000=1.091000,
119.500000=1.091000,
151.500000=1.091000,
210.000000=3.273000
;
#BGCHANGES:;
#KEYSOUNDS:;
#ATTACKS:;

//---------------dance-single - ----------------
#NOTES:
     dance-single:
     :
     Hard:
     7:
     0.364244,0.395536,0.501098,0.537943,0.143697,346.000000,278.000000,68.000000,73.000000,0.000000,0.000000,0.364244,0.395536,0.501098,0.537943,0.143697,346.000000,278.000000,68.000000,73.000000,0.000000,0.000000:
0000
0000
0000
0000
,
0001
0100
0010
0100
0000
0101
0000
1000
,
0010
1000
0100
0000
1001
0000
0100
0000
,
2001
0000
0010
0000
3001
0100
0001
0000
,
0102
0010
1003
1001
,
0001
0100
0001
0000
1000
0000
0020
0000
0000
0000
0200
0000
0000
0000
0330
0000
,
1001
0000
0000
0100
0001
0000
1000
0000
0001
0000
0000
0000
0010
0000
0000
0000
,
2001
0000
3100
0000
0010
0100
0010
1001
,
0000
0000
0000
0000
0000
0000
0100
0000
0002
0000
0000
0010
0000
0010
0000
0000
,
1003
0000
0100
0010
0200
0000
0301
0000
,
0110
0000
0000
0000
1010
0000
1000
0000
0200
0000
0000
1000
0000
1000
0000
0000
,
0310
0000
0000
0000
0110
0000
0000
0000
1001
0000
0000
0100
0001
0000
0000
0100
,
1000
0000
0010
0000
0010
0000
0100
0010
0200
0000
0000
0301
0000
0000
1000
0000
,
0200
0000
0000
1300
0000
1001
0000
0000
2002
0000
0000
0000
3003
0000
0000
0000
,
0100
0001
0010
0001
2000
0000
3001
0000
,
1100
0000
0000
0101
0000
0000
0000
0000
1001
0000
0000
0000
0000
0000
0100
0000
,
2000
0000
0000
0010
0000
0000
3001
0000
1000
0000
0020
0000
0000
0000
0130
0000
,
0001
0000
0002
0000
0000
0000
1000
0000
1003
0000
0000
0000
0100
0000
0000
0020
,
0000
1000
1030
0001
0100
0000
0010
0000
,
1000
0000
0000
1002
0000
0000
0010
0000
0013
0000
0000
0000
0100
0000
0001
0000
,
1000
0000
0000
1100
0000
0000
0010
0000
0100
0000
0000
0110
0000
0000
1000
0000
,
0001
0000
0000
0101
0000
0000
0100
0000
0010
0000
0000
0110
0000
0000
0000
0000
,
1002
0000
0000
0000
0103
0000
0010
0000
1000
0000
0000
0001
0000
0000
1001
0000
,
0010
0100
0210
0301
,
0120
1030
0101
1100
,
0011
1100
1002
0103
,
2001
0000
3100
0000
0010
1000
0001
0100
,
0200
0000
0000
0000
0301
0000
0000
0000
1002
0000
0000
0100
0000
0000
0010
0000
,
0013
0000
0000
0011
0000
0000
1001
0000
0100
0000
0000
0010
0000
0000
2000
0000
,
0002
0000
0000
0000
3003
0000
0000
0000
1100
0000
0000
1001
0000
0000
1020
0000
,
0100
1030
2002
3003
,
0102
0000
0013
0100
0010
0000
0110
0000
,
1000
0000
0100
0000
1000
0010
0000
0000
1020
0000
0000
0000
0130
0000
0000
0000
,
0002
0000
0000
0100
0000
0000
0023
0000
0100
0000
0130
0000
0000
0000
0110
0000
,
0220
0330
2002
3003
,
0100
1000
0001
1000
0020
0000
0030
0000
,
0100
0001
1000
0001
0020
0000
0030
0000
,
0101
0000
0000
1100
0000
0000
0010
0000
0220
0000
0000
0000
0330
0000
2002
0000
,
3003
0000
0000
0000
0000
0000
0010
0000
2000
0000
0000
0001
0000
0001
0000
0000
,
3100
0000
0210
0000
1300
0001
1000
0000
,
1001
0000
0000
0000
0000
0000
0010
0000
0002
0000
0000
0100
0000
0100
0000
0000
,
1003
0000
0110
0000
0001
0200
0010
0000
,
0020
0000
0000
0000
0330
0000
1000
0001
2000
0000
0000
0010
0000
0000
3020
0000
,
0100
0000
0000
0130
0000
0110
0000
0000
2002
0000
0000
0000
3003
0000
0000
0000
,
0201
0310
1200
0310
,
1000
0001
0100
0010
0220
0000
0000
0000
,
0330
0000
0000
0000
0001
0000
0100
0010
0200
0000
0000
0000
0001
0000
0000
0000
,
0302
0000
1003
0010
0020
0000
1000
0000
,
0130
0000
0010
0000
0110
0000
0000
0000
1002
0000
0000
0100
0000
0000
0010
0000
,
0020
0000
0000
0000
0033
0000
0000
0000
2001
0000
0000
0100
0000
0000
0010
0000
,
0020
0000
3030
0000
0001
0000
0100
0100
,
0001
1000
0010
0020
0100
0000
0030
0000
,
2002
3003
0220
0330
,
1001
0000
0001
0100
0001
1000
0001
0000
,
1001
0000
1000
0100
1000
0001
1000
0000
,
0120
0130
0210
0310
,
1001
2002
0000
0000
3003
0000
0000
0000
;

//---------------dance-single - ----------------
#NOTES:
     dance-single:
     :
     Challenge:
     8:
     0.526363,0.541260,0.714802,0.501098,0.335294,500.000000,403.000000,97.000000,68.000000,0.000000,0.000000,0.526363,0.541260,0.714802,0.501098,0.335294,500.000000,403.000000,97.000000,68.000000,0.000000,0.000000:
0000
0000
0000
0000
0000
0000
0000
0000
0000
0000
0000
0000
0000
0000
0000
0100
,
0002
0000
0013
0001
0010
0000
0200
0000
0310
0000
0110
0000
0000
0000
1000
0000
,
0002
0000
0000
0103
0010
0100
0000
0001
2000
0000
0100
0000
3100
0000
0100
0020
,
0000
0000
0001
0000
0031
0000
0001
0200
0000
0000
0010
0000
0310
0000
1000
0000
,
1001
0000
0100
0001
0100
0010
0110
0000
,
0011
0000
0000
0100
0001
0000
0020
0000
0130
0000
2000
0000
3100
0000
0010
0000
,
0110
0000
0000
1000
0200
0000
1000
0000
0310
0000
0000
0000
1001
0000
0001
0000
,
0020
0000
0000
0000
0130
0000
0100
0000
0110
0000
0000
0000
0001
1000
0001
0000
,
1001
0000
0000
0000
1001
0000
0100
0001
0100
0000
0000
0010
0100
0010
0000
0000
,
0110
0000
0000
0000
1001
0000
0100
0001
0010
0000
0000
0100
1000
0100
0000
0000
,
1100
0000
0000
0000
0000
0000
0001
1000
0010
0000
0000
0100
0010
1000
0000
0000
,
0001
0000
1002
0000
0100
0100
0013
0000
,
0011
0000
0000
0000
0000
0000
0100
0010
1000
0000
0000
0100
1000
0000
0001
0000
,
0100
0000
0000
0010
0000
2000
0000
0000
0002
0000
3003
0000
1000
0100
1000
0000
,
0001
0100
0001
0000
1001
0000
0000
0000
0110
0000
0000
0000
0001
0010
0001
0000
,
1000
0010
1000
0000
0100
1000
0001
0000
1001
0000
0000
0000
0100
0000
0010
0100
,
0020
0000
0031
1000
0002
0100
0103
0000
,
1001
0000
0000
0001
0100
0000
0001
0000
1001
0000
0000
1000
0100
0000
1000
0000
,
0010
0000
0010
0000
0100
0000
0100
0000
0001
1000
0001
0000
1000
0001
1000
0000
,
0010
0100
0020
0200
0000
0000
0330
0000
0110
0000
0000
0000
0001
0000
1000
0000
,
0020
0000
0000
0130
0000
0000
1010
0000
1002
0000
0000
0103
0000
0000
1100
0000
,
0120
0000
0000
0031
0000
0000
1001
0000
0201
0000
0000
0310
0000
0000
0110
0000
,
1001
0000
0000
0101
0000
0000
1100
0000
0010
0000
0100
0000
1000
0001
1000
0000
,
2002
0000
0000
0000
3003
0000
0000
0000
0102
0000
0000
0000
1003
0010
1000
0000
,
2100
0000
0000
0000
3001
0010
0001
0000
0210
0000
0000
0000
1300
0001
1000
0000
,
0210
0000
0000
0000
0301
1000
0001
0000
0102
0000
0013
0000
0100
0000
1000
0000
,
2100
0000
3010
0000
0100
0000
0001
0000
1001
0000
0100
0000
0001
1000
0100
0000
,
0010
0100
0010
0000
0100
0000
0000
0000
2100
0000
0001
0000
3010
0000
0001
0000
,
0102
0000
1000
0000
0013
0000
1000
0000
0110
0000
0000
0101
0000
0000
2100
0000
,
0002
0000
0000
0000
3003
0000
0010
0100
0010
0000
0000
0110
0000
0000
1002
0000
,
0103
0000
0000
0000
2001
0000
0100
0000
3001
0000
0000
0000
0110
0000
0000
0001
,
2000
0010
3100
0200
0000
0020
0330
0110
,
1002
0000
0000
0100
0000
0000
1003
0000
2001
0000
0000
0100
0000
0000
3001
0000
,
0020
0000
0000
0100
0000
0130
0000
0001
1000
0000
0000
1000
0001
0000
0100
0000
,
0110
0000
0000
1002
0000
0000
0103
0000
2001
0000
0000
3100
0000
0000
1001
0000
,
0010
0100
0000
0100
0010
0000
0010
0000
0100
0010
0000
0010
0100
0000
0100
0000
,
1002
0000
0000
0103
0010
0000
0110
0000
1001
0000
0100
0000
0001
0000
1000
0000
,
0100
0010
0110
0000
0101
1100
0110
1001
,
1000
0100
0010
0000
0001
0010
0100
0000
0110
0000
0000
1100
0000
0101
0000
0000
,
1001
0000
0000
0000
0010
0000
0100
0001
2000
0000
0001
0000
0010
0000
3010
0000
,
0110
0000
0000
0000
1001
0000
0100
0010
1000
0000
0000
0001
0100
0010
0000
0000
,
1001
0000
0201
0010
0301
1200
0010
1300
,
2002
0000
0000
0000
3003
0000
0010
0100
0010
0000
1000
0001
1000
0000
0001
1000
,
0001
0000
0000
0110
0000
0102
0000
0000
2000
0000
0000
0000
3003
0000
0001
0100
,
0010
2000
3001
1001
0120
0000
0001
0031
,
1000
0000
2001
3010
1001
0000
1002
0013
,
1001
0000
0000
0000
0000
0000
0100
0001
0010
0000
0000
0100
1000
0010
0000
0000
,
0120
0000
0130
1001
1001
0000
0100
0001
,
0010
0000
0100
0000
1000
0000
0010
1000
0100
0000
0000
0010
0001
0100
0000
0000
,
0210
0000
0310
1001
1001
0000
0100
1000
,
0010
0000
0100
0000
0001
0000
0010
0100
0002
0000
0000
0103
0010
0000
1000
0000
,
1001
0000
0000
1100
0000
0000
0101
0000
1001
0000
0000
0000
0010
0100
0001
0000
,
0010
0100
1000
0000
0110
0000
1001
0000
2002
0000
0000
0000
3003
0000
0000
0010
,
0100
0000
0001
0000
0002
0000
0010
0000
0020
0000
0000
0000
0033
0000
0000
0010
,
0100
1000
2000
0010
0020
0000
3030
0000
,
1002
0100
0013
0000
2001
0100
3010
0000
,
0110
2002
0000
0000
3003
0000
0000
0000
;

//---------------dance-single - ----------------
#NOTES:
     dance-single:
     :
     Beginner:
     1:
     0.165278,0.288868,0.213704,0.000000,0.000000,157.000000,128.000000,29.000000,0.000000,0.000000,0.000000,0.165278,0.288868,0.213704,0.000000,0.000000,157.000000,128.000000,29.000000,0.000000,0.000000,0.000000:
0000
0000
0000
0000
,
0001
0000
0001
0000
,
1000
0000
1000
0000
,
0001
0000
0001
0000
,
1000
0000
1000
0000
,
0010
0000
0100
0000
,
0001
0000
1000
0000
,
0001
0000
1001
1001
,
1001
0000
0010
0010
,
0010
0000
0100
0000
,
1000
0000
0010
0010
,
0010
0000
0100
0000
,
0001
0000
0010
0010
,
0010
0000
0110
0000
,
0001
0000
1000
0000
,
0100
0000
0110
0000
,
0001
0001
0001
0000
,
0010
0000
0001
0000
,
1000
1000
1000
0000
,
0100
0000
1000
0000
,
0010
0000
0100
0000
,
0010
0000
0100
0000
,
0010
0000
0110
0110
,
0110
0000
1001
1001
,
1001
0000
0110
0110
,
0110
0000
0001
0000
,
1000
0000
0100
0100
,
0100
0000
0010
0010
,
0010
0000
0001
0000
,
1000
0000
0110
0110
,
0000
0000
0000
0000
,
0001
0000
0010
0000
,
0010
0000
0001
0000
,
1000
0000
0100
0000
,
0100
0000
1000
0000
,
0001
0000
0100
0000
,
0010
0000
1000
0000
,
1001
0000
0110
0110
,
0000
0000
0100
0100
,
0100
0000
0001
0000
,
1000
0000
0100
0100
,
0100
0000
0010
0010
,
0010
0000
0100
0000
,
0010
0000
0110
0110
,
0110
0000
0001
0000
,
1000
0000
1001
1001
,
1001
0000
0001
0001
,
0001
0000
1000
0000
,
0001
0000
1000
1000
,
1000
0000
0001
0000
,
1000
0000
0010
0000
,
0100
0000
0110
0000
,
1001
0000
1001
0000
,
0010
0000
0001
0000
,
0100
0000
1000
0000
,
0001
0000
1000
0000
,
1001
0000
0000
0000
;

//---------------dance-single - ----------------
#NOTES:
     dance-single:
     :
     Medium:
     5:
     0.251602,0.249812,0.081060,0.081060,0.029476,239.000000,228.000000,11.000000,11.000000,0.000000,0.000000,0.251602,0.249812,0.081060,0.081060,0.029476,239.000000,228.000000,11.000000,11.000000,0.000000,0.000000:
0000
0000
0000
0000
,
0001
0000
0010
0001
0100
0000
0000
1000
,
0010
0000
0001
0100
0010
0000
0010
0000
,
1000
0000
0100
1000
0001
0000
0100
0000
,
0010
0000
1000
0001
0100
0000
0100
0000
,
0001
0010
0000
0010
0001
0000
1000
0000
,
0010
0100
0000
0001
0100
0000
0010
0000
,
1000
0000
0100
0000
0010
0000
0001
1000
,
0000
0000
0000
0100
0010
0000
0100
0000
,
0001
0000
0000
1000
0001
0000
0001
0000
,
0100
0000
0000
0100
0010
0000
0100
0000
,
0001
0000
0000
0001
0100
0000
1000
0000
,
0010
0000
0000
0100
0001
0000
1000
0000
,
0010
0100
0010
0000
2000
0000
3000
0000
,
0001
0000
0100
0001
0010
0000
0000
0000
,
1000
0000
0001
1000
0100
0000
0000
0000
,
0001
0000
1000
0100
1000
0000
0010
0000
,
0010
0000
0000
0100
0010
0000
0001
0010
,
0001
1000
0100
0010
,
0001
0000
1000
0010
1000
0000
0000
0001
,
0100
0000
0000
0010
0000
0000
0000
0000
1000
0000
0000
0001
0000
0000
0000
0000
,
0010
0000
0000
0100
0000
0000
0000
0000
0001
0000
0000
1000
0000
0000
0000
0000
,
0100
0000
0000
0001
0000
0000
0000
0000
1000
0000
0000
0000
0000
0000
0010
0000
,
0000
0000
1001
1001
,
0010
0000
0100
0000
0001
0100
0010
0000
,
2000
3000
0110
0110
,
1000
0000
0100
0000
0010
0001
1000
0000
,
0200
0000
0000
0000
0300
0000
0000
0000
1000
0000
0000
0001
0000
0000
0000
0000
,
0001
0000
0000
1000
0000
0000
0000
0000
0010
0000
0000
1000
0000
0000
0001
0000
,
2000
0000
3000
0000
0010
0000
0000
2002
,
0000
3003
0000
0000
0010
0000
0000
0000
,
0100
0000
0001
0010
0000
0100
0010
0000
,
1000
0000
0010
0000
0100
0001
0100
0000
,
0001
1000
0000
0000
1000
0001
0000
0000
,
0010
0000
0010
0000
1000
0100
0010
0000
,
0001
0100
0000
0000
0020
0000
0030
0000
,
1000
0100
0000
0000
0020
0000
0030
0000
,
1000
0001
0000
0000
0001
1000
0000
0010
,
0000
0000
0000
1000
0010
0000
0100
0001
,
0100
0000
0000
0000
0010
1000
0100
0000
,
0010
0000
0000
0001
0010
0000
0100
1000
,
0100
0000
0000
0000
0010
0001
0100
0000
,
0010
0000
0000
0010
1000
0000
0001
0100
,
0001
0000
0010
0000
0010
0000
0000
1000
,
0001
0001
0020
0030
,
1000
0000
0100
0000
0001
0000
0100
0001
,
0100
0000
0000
1000
0010
0100
0001
0000
,
1001
0000
0100
0100
,
0100
0000
0000
0001
0100
0010
1000
0000
,
0110
0000
0010
0010
,
0010
0000
0000
0010
0001
0000
1000
0100
,
1000
0000
0010
0000
0010
0000
0000
0001
,
1000
0001
1001
0000
,
0010
0000
1000
0100
1000
0000
0100
0010
,
0001
1000
0010
0000
,
0101
0000
1100
0000
,
2002
0000
3003
0000
;

//---------------dance-single - ----------------
#NOTES:
     dance-single:
     :
     Easy:
     3:
     0.178964,0.270630,0.125275,0.154751,0.000000,170.000000,153.000000,17.000000,21.000000,0.000000,0.000000,0.178964,0.270630,0.125275,0.154751,0.000000,170.000000,153.000000,17.000000,21.000000,0.000000,0.000000:
0000
0000
0000
0000
,
0001
0010
0001
0000
,
1000
0100
1000
0000
,
0010
0000
0010
0100
,
0001
0000
1001
0000
,
0100
0001
1000
0000
,
0010
0010
0100
0000
,
0001
0000
0000
0000
0010
0000
0000
1000
,
0000
0000
0020
0030
,
0110
0000
0001
0100
,
0001
0000
0020
0030
,
0110
0000
1000
0100
,
1000
0000
0001
0100
,
0010
1000
0002
0003
,
1000
0010
0020
0030
,
1000
0001
1000
0000
,
0010
0100
0001
0000
,
1000
0100
0100
0000
,
0010
0000
1000
0001
,
0200
0300
0110
0000
,
0002
0003
2000
3000
,
0200
0300
0020
0030
,
0001
0000
0000
0000
1000
0000
0000
0100
,
0000
0000
1001
0001
,
1001
1000
0110
0010
,
0110
0100
0001
0100
,
0010
1000
0001
0010
,
0200
0300
0002
0003
,
2000
3000
0020
0030
,
0200
0000
0300
0000
0001
0000
0000
1001
,
0000
0000
0010
0000
,
0100
0010
0010
1000
,
0001
0100
0001
0000
,
1000
0100
0100
0010
,
1001
0000
0010
0000
,
0100
0000
0001
0000
,
0010
0001
1000
0100
,
0010
0000
0000
0000
0001
0000
0000
1000
,
0000
0000
0002
0003
,
1001
0000
0100
0001
,
0020
0030
2000
3000
,
1001
0000
0100
1000
,
0020
0030
0001
1000
,
0010
1000
0200
0300
,
0001
0001
0001
0000
,
1000
1000
1000
0000
,
0110
0000
0001
0100
,
0110
0000
1000
0001
,
0010
0000
1000
0100
,
0110
0000
0001
0001
,
0010
0000
1000
0100
,
0100
0010
0100
0000
,
0010
0000
1001
0000
,
0001
0100
0001
0000
,
1000
0010
1000
0000
,
0001
0000
1000
0000
,
2002
0000
3003
0000
;

//---------------dance-double - ----------------
#NOTES:
     dance-double:
     :
     Easy:
     3:
     0.173700,0.228994,0.140013,0.213704,0.000000,165.000000,146.000000,19.000000,29.000000,0.000000,0.000000,0.173700,0.228994,0.140013,0.213704,0.000000,165.000000,146.000000,19.000000,29.000000,0.000000,0.000000:
// measure 0
00000000
00000000
00000000
00000000
,  // measure 1
00100000
01000000
00010000
00000000
,  // measure 2
10000000
01000000
00010000
00000000
,  // measure 3
00001000
00000000
00010000
00001000
,  // measure 4
00000100
00000000
00001001
00000000
,  // measure 5
00000010
00000100
00000001
00000000
,  // measure 6
00001000
00000100
00000010
00000000
,  // measure 7
00000100
00000000
00000000
00000000
00000010
00000000
00000000
00010000
,  // measure 8
00000000
00000000
00200000
00300000
,  // measure 9
01100000
00000000
00010000
00100000
,  // measure 10
00010000
00000000
00002000
00003000
,  // measure 11
00001001
00000000
00000100
00000100
,  // measure 12
00010000
00000000
00001000
00100000
,  // measure 13
00010000
10000000
20000000
30000000
,  // measure 14
00100000
00010000
00020000
00030000
,  // measure 15
10000000
00010000
10000000
00000000
,  // measure 16
00000001
00000100
00000010
00000000
,  // measure 17
00001000
00000100
00010000
00000000
,  // measure 18
00100000
00000000
00010000
01000000
,  // measure 19
00001000
00000000
00011000
00000000
,  // measure 20
00000200
00000300
00002000
00003000
,  // measure 21
00020000
00030000
00200000
00300000
,  // measure 22
10000000
00000000
00000000
00000000
00010000
00000000
00000000
00100000
,  // measure 23
00000000
00000000
01010000
00010000
,  // measure 24
00011000
00001000
00001001
00000010
,  // measure 25
00000020
00000030
00001000
00000100
,  // measure 26
00010000
00001000
00100000
00010000
,  // measure 27
02000000
03000000
00200000
00300000
,  // measure 28
00002000
00003000
00020000
00030000
,  // measure 29
00000200
00000000
00000300
00000000
00010000
00000000
00000000
00011000
,  // measure 30
00000000
00000000
00100000
00000000
,  // measure 31
01000000
10000000
01000000
00000000
,  // measure 32
00100000
00010000
01000000
00000000
,  // measure 33
00001000
00000000
00000100
00000100
,  // measure 34
00000010
00000000
00000110
00000000
,  // measure 35
00001000
00000100
00010000
00000000
,  // measure 36
00001000
00100000
00110000
00000000
,  // measure 37
10000000
00000000
00000000
00000000
00010000
00000000
00000000
00100000
,  // measure 38
00000000
00000000
20000000
30000000
,  // measure 39
10010000
00000000
01000000
00001000
,  // measure 40
00020000
00030000
00000200
00000300
,  // measure 41
00001001
00000000
00000100
00010000
,  // measure 42
00002000
00003000
00200000
00300000
,  // measure 43
00010000
10000000
00100000
00000000
,  // measure 44
01010000
00000000
00100000
00001000
,  // measure 45
00010000
00000100
00000020
00000030
,  // measure 46
00000220
00000330
00002000
00003000
,  // measure 47
00011000
00000000
00100000
00010000
,  // measure 48
00100000
00000000
00020000
00030000
,  // measure 49
00011000
00000000
00000100
00000010
,  // measure 50
00000002
00000003
00000200
00020300
,  // measure 51
00031000
00000000
10010000
00000000
,  // measure 52
00100000
00000000
00011000
00000000
,  // measure 53
01000000
00010000
00100000
00000000
,  // measure 54
00001000
00010000
00000100
00000000
,  // measure 55
00000010
00000000
00000100
00000000
,  // measure 56
00002002
00000000
00003003
00000000
;
