#TITLE:Charlie Church Mouse;
#SUBTITLE:;
#ARTIST:PeanutButterGamer;
#TITLETRANSLIT:;
#SUBTITLETRANSLIT:;
#ARTISTTRANSLIT:;
#GENRE:Carnival;
#CREDIT:8Chasey 2025/Funny Mix 3;
#MUSIC:Charlie Church Mouse.mp3;
#BANNER:Charlie Church Mouse-bn.png;
#BACKGROUND:Charlie Church Mouse-bg.png;
#CDTITLE:;
#SAMPLESTART:46.24;
#SAMPLELENGTH:12;
#SELECTABLE:YES;
#OFFSET:0.570;
#BPMS:0.000=199.931;
#STOPS:;
#DISPLAYBPM:200;
#BGCHANGES:2.650=Charlie Church Mouse.avi=1.000=1=0=0=StretchNoLoop==CrossFade==,
457.000=Charlie Church Mouse-bg.pngg=1.000=0=0=1===CrossFade==,
99999=-nosongbg-=1.000=0=0=0 // don't automatically add -songbackground-
;
#FGCHANGES:;

//--------------- dance-single - BEGINNER ----------------
#NOTES:
     dance-single:
     BEGINNER:
     Beginner:
     1:
     0,0,0,0,0:
0000
0000
0000
0000
,
0000
0000
0000
0000
,
0000
0000
0000
0000
,
0001
0000
0000
0000
,
0001
0000
0000
0000
,
1000
0000
0000
0000
,
1000
0000
0000
0000
,
0001
0000
0000
0000
,
1000
0000
0000
0000
,
0001
0000
0000
0000
,
0000
0000
0000
0000
,
1000
0000
0000
0000
,
0000
0000
0000
0000
,
0001
0000
0000
0000
,
0000
0000
0000
0000
,
1000
0000
0000
0000
,
1000
0000
0000
0000
,
0001
0000
0000
0000
,
0001
0000
0000
0000
,
1000
0000
0000
0000
,
0001
0000
0000
0000
,
1000
0000
0000
0000
,
0000
0000
0000
0000
,
0001
0000
0000
0000
,
0001
0000
0000
0000
,
0001
0000
0000
0000
,
0000
0000
0000
0000
,
1000
0000
0000
0000
,
1000
0000
0000
0000
,
1000
0000
0000
0000
,
0000
0000
0000
0000
,
0001
0000
0001
0000
,
0001
0000
0000
0000
,
0001
0000
0001
0000
,
0001
0000
0000
0000
,
1000
0000
1000
0000
,
1000
0000
0000
0000
,
1000
0000
1000
0000
,
1000
0000
0000
0000
,
0001
0000
0000
0000
,
1000
0000
0000
0000
,
0001
0000
0000
0000
,
0001
0000
0000
0000
,
1000
0000
0000
0000
,
0001
0000
0000
0000
,
1000
0000
0000
0000
,
1000
0000
0000
0000
,
0001
0000
0001
0000
,
0001
0000
0000
0000
,
0001
0000
0001
0000
,
0001
0000
0001
0000
,
1000
0000
1000
0000
,
1000
0000
0000
0000
,
1000
0000
1000
0000
,
1000
0000
1000
0000
,
0001
0000
0000
0000
,
0000
0000
0000
0000
,
1000
0000
0000
0000
,
0001
0000
0000
0000
,
1000
0000
0000
0000
,
0000
0000
0000
0000
,
0001
0000
0000
0000
,
1000
0000
0000
0000
,
0001
0000
0000
0000
,
0001
0000
0000
0000
,
1000
0000
0000
0000
,
1000
0000
0000
0000
,
0001
0000
0000
0000
,
1000
0000
0000
0000
,
0001
0000
1000
0000
,
0001
0000
1000
0000
,
0001
0000
0000
0000
,
1000
0000
0000
0000
,
0001
0000
0001
0000
,
0001
0000
0000
0000
,
1000
0000
0000
0000
,
0001
0000
0000
0000
,
1000
0000
1000
0000
,
1000
0000
0000
0000
,
0001
0000
0000
0000
,
1000
0000
0000
0000
,
0001
0000
0000
0000
,
0001
0000
0000
0000
,
1000
0000
0000
0000
,
1000
0000
0000
0000
,
0001
0000
0000
0000
,
1000
0000
0000
0000
,
0001
0000
1000
0000
,
0001
0000
1000
0000
,
0001
0000
0000
0000
,
0000
0000
0000
0000
,
0001
0000
0000
0000
,
0000
0000
0000
0000
,
1000
0000
0000
0000
,
0000
0000
0000
0000
,
1000
0000
0000
0000
,
0000
0000
0000
0000
,
0001
0000
0000
0000
,
0001
0000
0000
0000
,
1000
0000
0000
0000
,
1000
0000
0000
0000
,
0001
0000
0000
0000
,
1000
0000
0000
0000
,
0001
0000
0000
0000
,
0000
0000
0000
0000
,
1000
0000
0000
0000
,
1000
0000
0000
0000
,
0001
0000
0000
0000
,
0001
0000
0000
0000
,
1000
0000
0000
0000
,
0001
0000
0000
0000
,
1000
0000
0000
0000
,
0000
0000
0000
0000
,
1001
0000
0000
0000
;

//--------------- dance-single - NOVICE ----------------
#NOTES:
     dance-single:
     NOVICE:
     Easy:
     3:
     0,0,0,0,0:
0000
0000
0000
0000
,
0000
0000
0000
0000
,
0000
0000
0000
0000
,
0001
0000
1000
0000
,
0001
0000
0000
0000
,
1000
0000
0001
0000
,
1000
0000
0000
0000
,
0010
0000
0010
0000
,
0100
0000
0100
0000
,
0001
0000
1000
0000
,
0010
0000
0100
0000
,
0001
0000
0000
0000
,
1000
0000
0000
0010
,
1000
0000
0000
0001
,
0000
0000
0000
0100
,
0010
0000
0010
0000
,
0100
0000
0000
0000
,
0100
0000
0100
0000
,
0010
0000
0000
0000
,
1000
0000
0100
0000
,
0010
0000
0001
0000
,
1000
0000
0001
0000
,
0010
0000
0100
0000
,
1000
0000
0000
0000
,
0010
1000
0010
0000
,
0100
0000
0000
0000
,
0001
0000
1000
0000
,
0001
0000
0000
0000
,
0010
0001
0010
0000
,
0100
0000
0000
0000
,
1000
0000
0001
0000
,
0100
0000
0100
0000
,
0001
0000
0000
0000
,
0010
0000
0010
0000
,
0100
0000
0100
0000
,
1000
0000
0010
0000
,
0100
0000
0000
0000
,
0001
0000
0000
0000
,
0010
0000
1001
0000
,
1000
0000
1000
0000
,
0010
0000
0000
0000
,
1000
0000
0001
0000
,
1000
0000
1000
0000
,
0001
0000
0001
0000
,
0010
0000
0000
0000
,
0001
0000
1000
0000
,
0001
0000
0001
0000
,
0100
0000
0010
0000
,
0100
0000
0000
0000
,
0010
0000
0010
0000
,
0010
0000
0010
0000
,
0010
0000
0100
0000
,
0010
0000
0000
0000
,
0100
0000
0001
0000
,
1000
0000
1001
0000
,
1000
0000
1000
0000
,
0010
0000
1000
0000
,
0100
0000
0000
0000
,
0010
0000
0000
0000
,
0001
0000
0001
0000
,
0010
0000
0001
0000
,
0100
0000
0000
0000
,
0010
0000
0000
0000
,
1000
0000
0001
0000
,
1000
0000
0000
0000
,
0001
0000
1000
0000
,
0001
0000
0000
0000
,
1000
0000
1000
0000
,
0010
0000
0010
0000
,
0100
0000
0100
0000
,
0001
0000
0001
0000
,
1000
0001
0000
0000
,
0001
1000
0000
0000
,
0010
0000
0100
0000
,
0010
0000
0000
0000
,
0100
0010
0000
0000
,
0010
0100
0000
0000
,
0001
0000
1000
0000
,
0010
0000
0110
0000
,
0100
0001
0000
0000
,
1000
0010
0000
0000
,
1000
0000
0001
0000
,
1000
0000
0001
0000
,
1000
0100
0000
0000
,
0010
0001
0000
0000
,
0100
0000
0010
0000
,
0100
0000
0010
0000
,
1000
0001
1000
0000
,
0001
0000
1001
0000
,
1000
0000
1000
0000
,
1000
0000
0000
0000
,
0001
0000
0001
0000
,
0001
0000
0000
0000
,
1000
0000
0000
0000
,
0001
0000
0000
0000
,
0100
0000
0010
0000
,
0100
0000
0010
0000
,
1000
0000
0001
0000
,
1000
0000
0000
0000
,
0001
0000
1000
0000
,
0001
0000
0000
0000
,
0100
0000
0000
0000
,
0010
0000
0000
0000
,
1000
0000
0001
0000
,
0100
0000
0010
1001
,
1000
0000
0100
0000
,
0010
0000
0001
0000
,
1000
0000
1000
0000
,
0001
0000
0001
0000
,
0100
0000
0000
0000
,
0000
0000
0000
0000
,
0001
1000
0001
1000
,
0000
0000
0000
0000
,
1001
0000
0000
0000
;

//--------------- dance-single - REAL ----------------
#NOTES:
     dance-single:
     REAL:
     Medium:
     4:
     0,0,0,0,0:
0000
0000
0000
0000
,
0000
0000
0000
0000
,
0000
0000
0000
0000
,
0001
0000
0100
0000
,
0001
1000
0001
0000
,
1000
0000
0010
0000
,
0100
0010
0100
0000
,
0001
0100
1000
0000
,
0010
0100
0010
0000
,
1000
0001
1000
0001
,
0100
0000
0110
0000
,
0010
0000
0000
0010
0000
0000
0000
0000
,
1000
0100
1000
0001
,
0010
0000
0000
0010
0000
0000
0000
0000
,
0001
0100
0001
1000
,
0010
0000
0000
1000
0000
0000
0010
0000
,
0100
0000
0000
0001
0000
0000
0000
0000
,
0010
0000
0000
0001
0000
0000
0010
0000
,
0100
0000
0000
1000
0000
0000
0000
0000
,
0001
0100
0001
0000
,
1000
0010
1000
0000
,
0100
0010
0100
0010
,
0100
0000
1001
0000
,
0001
0100
0010
0000
,
1010
0000
1000
0100
,
1100
0000
0000
0001
,
0101
0000
0001
0000
,
1000
0010
0100
0000
,
0101
0000
0001
0010
,
0011
0000
0000
1000
,
1010
0000
0010
0000
,
0100
0001
0100
0000
,
0001
1000
0001
0000
,
1000
0000
0100
0000
,
1000
0010
1000
0000
,
0010
0100
0010
0000
,
0100
0001
1000
0000
,
0010
0000
0100
0000
,
0010
0000
1001
0000
,
1000
0000
0001
0000
,
1000
0010
1000
0000
,
0010
0000
0100
0000
,
0001
1000
0001
0000
,
0010
0000
0000
0010
0000
0000
0000
0000
,
0100
0000
0000
0100
0000
0000
0000
0000
,
1000
0100
1000
0000
,
0001
0100
0001
0000
,
1000
0000
0010
0000
,
0100
0001
0100
0000
,
0001
0000
0010
0000
,
0100
1000
0100
0000
,
1000
0001
1000
0000
,
0010
0100
0010
0000
,
0100
0001
1000
0001
,
1000
0000
1001
0000
,
0010
0001
0010
0000
,
0100
0000
1000
0001
,
0101
0000
0000
1000
,
1010
0000
0000
0010
,
0100
0100
0010
0000
,
1000
0001
1000
1000
,
1100
0000
0000
0001
,
0011
0000
0000
0010
,
0100
1000
0100
0000
,
0010
0000
0000
0010
0000
0000
0000
0000
,
0001
1000
0001
0000
,
0100
0000
0000
0100
0000
0000
0000
0000
,
0001
0000
0000
0001
0000
0000
0000
0000
,
1000
0000
0000
1000
0000
0000
0000
0000
,
0001
0000
1000
0000
,
0010
0100
0010
1000
,
1000
0100
0000
0010
,
0001
0000
0000
0001
0000
0000
0000
0000
,
1000
0001
1000
0001
,
1000
0000
0000
1000
0000
0000
0000
0000
,
0010
0000
0000
0010
0000
0000
0000
0000
,
0100
0000
0000
0100
0000
0000
0000
0000
,
0001
1000
0001
1000
,
0010
0000
0110
0000
,
0100
0001
0100
0000
,
0010
0000
0000
0010
0000
0000
0000
0000
,
1000
0001
1000
0000
,
0100
0000
0000
0100
0000
0000
0000
0000
,
1000
0000
0000
1000
0000
0000
0000
0000
,
0001
0000
0000
0001
0000
0000
0000
0000
,
1000
0001
1000
0000
,
0001
1000
0001
0000
,
0100
0010
0100
0000
,
0110
0000
1001
0000
,
1000
0000
0001
0000
,
1000
0000
0000
1000
,
0001
0000
1000
0000
,
0001
0000
0000
0001
,
0100
0000
0010
0000
,
0100
0000
0000
0010
,
1000
0010
1000
0000
,
0001
0000
0101
0000
,
1000
0000
0010
0000
,
1000
0100
0010
0000
,
0001
0000
0010
0000
,
0001
0100
0010
0000
,
1000
0000
0001
0000
,
0100
0000
0010
0000
,
1000
0001
1000
0000
,
0001
1000
0001
1001
,
0100
0000
0010
0000
,
1000
0000
0001
0000
,
1000
0100
1000
0000
,
0001
0010
0001
0000
,
0100
0000
0010
0000
,
1000
0000
0001
0000
,
0100
0010
1000
0001
,
0000
0000
0000
0001
,
1000
0000
0000
0000
;

//--------------- dance-single - MASTER ----------------
#NOTES:
     dance-single:
     MASTER:
     Hard:
     7:
     0,0,0,0,0:
0000
0000
0000
0000
,
0000
0000
0000
0000
,
0000
0000
0000
0000
,
0001
0010
0001
1000
,
0100
0000
1000
0010
0000
1000
0001
0000
,
1000
0010
1000
0001
,
0100
0000
0001
0010
0000
0001
1000
0000
,
0100
1000
0010
1000
,
0001
0000
0100
0001
0000
0010
0001
0000
,
1000
0100
0001
0100
,
0020
0030
1001
0000
,
1000
0000
0010
1000
0000
0000
0001
0000
,
1000
0001
0100
0100
,
0001
0000
0010
0001
0000
0000
1000
0000
,
0001
0100
0020
0000
,
1030
0100
0100
1000
,
0001
0000
1000
0001
0000
0000
0010
0000
,
0001
0100
0100
0001
,
1000
0000
0010
0100
0000
0000
0001
0000
,
1010
1000
0100
1000
,
0001
0010
0001
0000
,
0011
1000
0010
0100
,
0002
0003
0110
0000
,
1000
0100
1000
0010
,
0100
0000
0001
1000
0100
0000
0010
0000
,
0002
0000
0010
0010
,
0020
0000
0033
1001
,
1000
0010
0100
0001
,
0010
0010
0001
1000
,
2000
0000
0010
0010
,
0020
0000
3030
0000
,
1001
0000
0001
1000
,
1001
0000
0100
0100
,
0110
0000
0010
0100
,
0110
0000
0000
1001
0000
0000
0001
0000
,
0010
0010
0001
0100
,
0010
1000
0001
1000
,
0200
1300
0020
0030
,
0200
0300
1001
0000
,
0100
0001
0100
0000
0010
0000
1000
0000
,
0100
0010
0000
0100
1000
0000
0001
0000
,
0020
0001
0230
1000
,
0310
0000
0100
1000
0000
0001
0100
0000
,
0010
1000
0010
1000
0000
0000
0001
0000
,
0010
0001
0010
0001
0000
0100
0010
0000
,
1000
1000
0001
0010
,
0022
0033
2020
3030
,
1001
0000
0001
0000
0010
0001
0010
0000
,
0001
1000
0100
0000
1000
0010
1000
0000
,
0200
1300
0002
0013
,
0020
0130
2000
3001
,
1000
0000
0010
1000
0100
0000
1000
0000
,
0001
0010
0001
0100
0000
0001
0010
0000
,
0001
0100
1010
1000
,
0011
0000
0200
0000
,
0301
0010
0001
0000
0100
0000
0010
0000
,
1000
0000
0100
0000
1000
0001
1000
0000
,
0020
0000
1000
1000
,
2000
0000
3030
0000
,
0100
1000
0100
0000
1000
0000
0001
0010
,
0001
0000
0100
0000
0001
1000
0100
0000
,
0020
0000
0001
0001
,
0002
0000
0033
0000
,
1001
0000
1100
0000
1000
0010
1000
0000
,
0001
0010
0000
0001
0000
0100
0001
0000
,
1001
0101
0010
1000
,
0100
0000
1000
0001
0000
0000
0100
0000
,
0001
0000
0010
0001
1000
0000
0100
0000
,
1000
0010
1000
0000
0001
0000
0100
0000
,
1000
0001
0010
0010
,
0001
0100
0010
1000
0100
0000
2000
0000
,
3010
1010
0000
0002
,
0013
0011
0000
0200
,
0310
0110
0001
1000
,
0001
1001
0000
0002
,
0103
0101
0000
2000
,
3100
1100
0000
0020
,
0130
1000
0001
1000
,
2002
3003
0001
1000
,
0100
0100
1000
0010
,
1000
0001
0000
0010
0001
0000
0100
0000
,
0010
1000
0010
0000
1000
0000
0001
0010
,
0001
0100
0001
1000
,
0100
1000
1010
0000
,
0100
0001
0000
1000
0001
0000
0010
0000
,
0011
0010
0100
1000
,
1010
0100
0010
1000
,
0001
0001
1000
1000
,
2002
0000
3003
0000
,
0010
0001
0000
0001
,
0000
0000
0001
0000
0000
0010
0001
0010
,
0001
1000
0000
1000
,
0000
0000
1000
0000
0000
0010
1000
0010
,
1000
0100
0000
0100
,
0000
0000
0100
0000
0000
1000
0001
0000
,
1000
0100
0010
0001
,
2200
3300
0202
0303
,
0010
0000
1000
0010
0000
1000
0001
0000
,
0010
0000
0001
0100
0000
0010
1000
0000
,
0200
0000
1300
0000
0001
0010
0001
0000
,
0020
0031
0100
1001
,
0010
0000
1000
0000
0100
1000
0001
0000
,
0010
0001
0100
0000
0010
0000
1000
0000
,
0001
0010
0001
0000
1000
0100
1000
0000
,
1001
0002
2000
3003
,
0100
1000
0010
1000
0100
0000
0010
0000
,
0001
0100
0001
1000
0100
0000
0010
0001
,
0010
0100
1000
1010
,
1000
0001
0010
0011
,
2002
3003
2000
3000
,
0002
0003
0200
0300
,
0020
0130
0001
1100
,
0000
0000
0000
0200
,
0020
0000
0000
0330
;

//--------------- dance-double - DOUBLE ----------------
#NOTES:
     dance-double:
     DOUBLE:
     Easy:
     4:
     0,0,0,0,0:
00000000
00000000
00000000
00000000
,
00000000
00000000
00000000
00000000
,
00000000
00000000
00000000
00000000
,
00001000
00000000
00100000
00000000
,
00001000
00000000
00000000
00000000
,
00010000
00000000
00000100
00000000
,
00010000
00000000
00000000
00000000
,
00000010
00000000
00000010
00000000
,
00000100
00000000
00000100
00000000
,
00000001
00000000
00001000
00000000
,
00000010
00000000
00000110
00000000
,
00001000
00000000
00000000
00001000
00000000
00000000
00000000
00000000
,
00000100
00000000
00010000
00000000
,
00001000
00000000
00000000
00001000
00000000
00000000
00000000
00000000
,
01000000
00000000
00000000
00010000
00000000
00000000
00000000
00000000
,
10000000
00000000
00100000
00000000
,
10000000
00000000
00000000
00000000
,
00010000
00000000
01000000
00000000
,
00010000
00000000
00000000
00000000
,
10000000
00000000
10000000
00000000
,
00010000
00000000
00010000
00000000
,
01000000
00000000
00001000
00000000
,
00010000
00000000
00011000
00000000
,
00000100
00000000
00000100
00000000
,
00001000
00000100
00001000
00000000
,
00000010
00000000
00001000
00000000
,
00000001
00000000
00000000
00000000
,
00000100
00000000
00000100
00000000
,
00000001
00000100
00000001
00000000
,
00000010
00000000
00000001
00000000
,
00001000
00000000
00000000
00000000
,
00000100
00000000
00010000
00000000
,
00001000
00000000
00100000
00000000
,
00010000
00000000
10000000
00000000
,
00100000
00000000
01100000
00000000
,
01000000
00000000
00010000
00000000
,
10000000
00000000
01000000
00000000
,
00100000
00000000
00001000
00000000
,
00010000
00000000
00011000
00000000
,
00001000
00000000
00010000
00000000
,
00000100
00001000
00000100
00000000
,
00001000
00000000
00000010
00000000
,
00000100
00000000
00000001
00000000
,
00001000
00000001
00001000
00000000
,
00000001
00001000
00000001
00000000
,
00000100
00000000
00000010
00000000
,
00010000
00000000
00011000
00000000
,
00010000
00000000
00001000
00000000
,
01000000
00010000
01000000
00000000
,
00100000
00000000
10000000
00000000
,
00100000
00000000
01000000
00000000
,
00010000
10000000
00010000
00000000
,
10000000
00010000
10000000
00000000
,
01000000
00000000
00100000
00000000
,
00010000
00000000
01000000
00000000
,
00010000
00100000
00010000
00000000
,
00100000
00000000
00001000
00000000
,
00010000
00000000
00000000
00000000
,
00000100
00000000
00000000
00000000
,
00001000
00000010
00001000
00000000
,
00000010
00000000
00010000
00000000
,
00001000
00000000
00000000
00000000
,
01000000
00000000
00000000
00000000
,
00100000
10000000
00100000
00000000
,
10000000
00000000
00000000
00000000
,
00010000
00000000
00100000
00000000
,
01000000
00000000
01000000
00000000
,
00100000
00010000
00100000
00000000
,
00010000
00000000
00000000
00000000
,
10000000
00000000
01000000
00000000
,
00010000
00000000
00001000
00000000
,
00010000
00001000
00000000
00000000
,
00001000
00010000
00000000
00000000
,
00000100
00000000
00000010
00000000
,
00000001
00000000
00000010
00000000
,
00000001
00001000
00000000
00000000
,
00001000
00000001
00000000
00000000
,
00001000
00000000
00000100
00000000
,
00010000
00000000
00001000
00000000
,
00010000
00001000
00000000
00000000
,
00001000
00010000
00000000
00000000
,
00001000
00000000
00100000
00000000
,
00010000
00000000
10000000
00000000
,
00010000
10000000
00000000
00000000
,
10000000
00010000
00000000
00000000
,
01000000
00100000
01000000
00000000
,
00100000
01000000
00100000
00000000
,
10000000
01000000
00100000
00010000
,
10000000
00000000
10010000
00000000
,
00000000
00100000
00000000
00100000
,
00000000
00100000
00000000
00100000
,
00001000
00010000
00000000
00010000
,
00000000
00010000
00000000
00010000
,
00000100
00000010
00000000
00000010
,
00000000
00000010
00000000
00000001
,
00000010
00000001
00000010
00000000
,
00000100
00000000
00010000
00000000
,
00001000
00000000
00100000
00000000
,
00010000
00100000
00010000
00000000
,
10000000
00000000
00100000
00000000
,
10000000
01000000
10000000
00000000
,
01000000
00000000
00010000
00000000
,
00001000
00000000
00000100
00000000
,
00000010
00000100
00000010
00000000
,
00001000
00000001
00001000
00001001
,
00000001
00000000
00000100
00000000
,
00000010
00000000
00001000
00000000
,
00000100
00010000
00000100
00000000
,
00010000
00001000
00100000
00000000
,
00010000
00000000
10000000
00000000
,
01000000
00000000
00100000
00000000
,
00001000
00010000
00001000
01000000
,
00000000
00000000
00000000
00100000
,
01000000
00000000
00000000
00000000
;

//--------------- pump-single - Beat Popper Novice Chart ----------------
#NOTES:
     pump-single:
     Beat Popper Novice Chart:
     Easy:
     2:
     0,0,0,0,0:
00000
00000
00000
00000
00000
00000
00000
00000
01000
00000
00000
00000
,
00001
00000
00010
00000
,
10000
00000
00100
00000
,
00000
00000
00000
00000
,
00000
00000
00000
00000
00000
00000
00000
00000
01000
00000
00000
00000
,
00000
00000
00000
00000
,
00000
00000
00000
00000
00000
00000
00000
00000
01000
00000
00000
00000
,
00000
00000
00000
00000
,
00000
00000
00000
00000
00000
00000
00000
00000
01000
00000
00000
00000
,
00100
00000
00010
00000
,
00001
00000
10000
00000
,
00000
00000
00000
00000
,
00000
00000
00000
00100
,
01000
00000
00000
00000
,
00010
00000
10000
00000
,
00000
00000
00000
00000
,
00000
00000
00000
00000
00000
00000
00000
00000
01000
00000
00000
00000
,
00000
00000
00000
00000
,
00000
00000
00000
00000
00000
00000
00000
00000
01000
00000
00000
00000
,
00000
00000
00000
00000
,
00000
00000
00000
00000
00000
00000
00000
00000
01000
00000
00000
00000
,
00100
00000
00010
00000
,
00001
00000
10000
00000
,
10000
00000
00000
00000
,
01000
00000
00000
00001
,
00100
00000
00000
00010
,
10000
00000
00000
00000
,
10000
00100
00000
00000
,
00010
00000
00010
00000
,
00100
00000
00001
00000
,
00010
00000
00000
00000
,
10000
00000
00000
00000
,
01000
00000
00000
00001
,
00100
00000
00000
00010
,
10000
00000
00000
00000
,
10000
00100
00000
00000
,
00010
00000
00010
00000
,
00100
00000
01000
00000
,
00001
00000
00000
00000
,
00000
00000
00000
00000
,
00000
00000
00000
00000
00000
00000
00000
00000
01000
00000
00000
00000
,
00000
00000
00000
00000
,
00000
00000
00000
00000
00000
00000
00000
00000
01000
00000
00000
00000
,
00000
00000
00000
00000
,
00000
00000
00000
00000
00000
00000
00000
00000
01000
00000
00000
00000
,
00001
00000
00010
00000
,
10000
00000
00100
00000
,
00000
00000
00000
00000
,
00000
00000
00000
00000
00000
00000
00000
00000
01000
00000
00000
00000
,
00000
00000
00000
00000
,
00000
00000
00000
00000
00000
00000
00000
00000
01000
00000
00000
00000
,
00000
00000
00000
00000
,
00000
00000
00000
00000
00000
00000
00000
00000
01000
00000
00000
00000
,
00100
00000
00010
00000
,
00001
00000
10000
00000
,
10000
00000
00000
00000
,
01000
00000
00000
00001
,
00100
00000
00000
00010
,
10000
00000
00000
00000
,
10000
00100
00000
00000
,
00010
00000
00010
00000
,
00100
00000
00001
00000
,
00010
00000
00000
00000
,
10000
00000
00000
00000
,
01000
00000
00000
00001
,
00100
00000
00000
00010
,
10000
00000
00000
00000
,
10000
00100
00000
00000
,
00010
00000
00010
00000
,
00100
00000
01000
00000
,
00001
00000
00000
00100
,
00000
00000
00000
10000
,
00000
00000
00000
00001
,
00000
00000
00010
00000
,
01000
00000
00000
00100
,
00000
00000
00000
10000
,
00000
00000
00000
00000
,
00100
00000
00010
00000
,
00001
00000
10000
00100
,
00000
00000
00000
10000
,
00000
00000
00000
00001
,
00000
00000
00010
00000
,
01000
00000
00000
00100
,
00000
00000
00000
10000
,
00000
00000
00000
00000
,
00001
00000
00100
00000
,
00010
00000
01000
00000
,
10000
00000
00100
00000
,
00001
00000
10000
00000
,
00000
00000
00000
00000
,
00000
00000
00000
00000
00000
00000
00000
00000
01000
00000
00000
00000
,
00000
00000
00000
00000
,
00000
00000
00000
00000
00000
00000
00000
00000
01000
00000
00000
00000
,
00000
00000
00000
00000
,
00000
00000
00000
00000
00000
00000
00000
00000
01000
00000
00000
00000
,
00001
00000
00010
00000
,
10000
00000
00100
00000
,
00000
00000
00000
00000
,
00000
00000
00000
00000
00000
00000
00000
00000
01000
00000
00000
00000
,
00000
00000
00000
00000
,
00000
00000
00000
00000
00000
00000
00000
00000
01000
00000
00000
00000
,
00000
00000
00000
00000
,
00000
00000
00000
00000
00000
00000
00000
00000
01000
00000
00000
00000
,
00100
00000
00010
00000
,
00001
00000
10000
00000
,
00001
00000
00010
00000
,
00100
00000
01000
00000
,
00100
00000
10000
00000
,
00001
00000
01000
00000
,
00100
00000
00000
00000
,
00000
00000
00000
00000
,
00000
01000
00010
01000
,
00000
00000
00000
00001
;

//--------------- pump-single - Beat Popper Chart ----------------
#NOTES:
     pump-single:
     Beat Popper Chart:
     Medium:
     4:
     0,0,0,0,0:
00000
00000
00000
00000
00000
00000
00000
00000
01000
00000
00000
00000
,
00001
00010
00100
10000
,
01000
00000
00100
00000
,
00000
00001
00000
00001
,
00000
00000
00000
00001
00000
00000
00000
00000
01000
00000
00000
00000
,
00000
00001
00000
00001
,
00000
00000
00000
00001
00000
00000
00000
00000
01000
00000
00000
00000
,
00000
00001
00000
00001
,
00000
00000
00000
00001
00000
00000
00000
00000
01000
00000
00000
00000
,
00100
10000
00010
01000
,
00001
00000
10000
00000
,
00000
00001
00000
00001
,
00000
00001
00000
00010
,
01000
00000
00000
00100
00000
00000
00000
00000
,
00010
00000
00000
00000
00000
00000
10000
00000
01000
00000
00000
00000
,
00000
00001
00000
00001
,
00000
00000
00000
00001
00000
00000
00000
00000
01000
00000
00000
00000
,
00000
00001
00000
00001
,
00000
00000
00000
00001
00000
00000
00000
00000
01000
00000
00000
00000
,
00000
00001
00000
00001
,
00000
00000
00000
00001
00000
00000
00000
00000
01000
00000
00000
00000
,
00100
10000
00010
01000
,
00001
00000
10010
00000
,
10000
00100
00000
00000
,
01000
00000
00000
00001
,
00100
00000
00000
00010
,
10000
00000
00000
00010
,
10000
00100
00000
01000
,
00010
00000
00010
00000
,
00100
00000
00001
00010
,
00100
00000
00000
00000
,
10000
00100
00000
00000
,
01000
00000
00000
00001
,
00100
00000
00000
00010
,
10000
00000
00000
00010
,
10000
00100
00000
01000
,
00010
00000
00010
00000
,
00100
00000
01000
00000
,
00001
00000
10000
00000
,
00000
00001
00000
00001
,
00000
00000
00000
00001
00000
00000
00000
00000
01000
00000
00000
00000
,
10000
00100
00000
00000
,
00100
00000
00000
00100
,
00000
00001
00000
00001
,
00000
00000
00000
00001
00000
00000
00000
00000
01000
00000
00000
00000
,
00001
00010
00100
10000
,
01000
00000
00100
00000
,
00000
00001
00000
00001
,
00000
00000
00000
00000
00000
00000
00000
00000
00000
00000
00000
00000
00001
00000
00000
00000
00000
00000
00000
00000
00000
00000
00000
00000
00000
00000
00000
00000
00000
00000
00000
00000
01000
00000
00000
00000
00000
00000
00000
00000
00000
00000
00000
00000
00000
00001
00000
00000
,
00000
00000
00000
00000
00000
00000
00000
00001
00000
00000
00000
00000
00000
00000
00000
00001
,
00000
00000
00000
00000
00000
00000
00000
00000
00000
00000
00000
00000
00000
00000
00000
00000
00000
00000
00000
00000
00000
00001
00000
00000
00000
00000
00000
00000
00000
00000
00000
00000
01000
00000
00000
00000
00000
00000
00000
00000
00000
00000
00000
00000
00000
00000
00000
00000
,
00000
00001
00000
00001
,
00000
00000
00000
00001
00000
00000
00000
00000
01000
00000
00000
00000
,
00100
10000
00010
01000
,
00001
00000
10000
00000
,
10000
00100
00000
00000
,
01000
00000
00000
00001
,
00100
00000
00000
00010
,
10000
00000
00000
00010
,
10000
00100
00000
01000
,
00010
00000
00010
00000
,
00100
00000
00001
00010
,
00100
00000
00000
00000
,
10000
00100
00000
00000
,
01000
00000
00000
00001
,
00100
00000
00000
00010
,
10000
00000
00000
00010
,
10000
00100
00000
01000
,
00010
00000
00010
00000
,
00100
00000
01000
00000
,
00001
00000
00000
00100
,
00100
00000
00000
10000
,
10000
00000
00000
00001
,
00001
00000
00010
00100
,
01000
00000
00000
00100
,
00100
00000
00000
10000
,
10000
00000
00000
00001
,
00001
10000
01000
00100
,
00010
00000
10000
00100
,
00100
00000
00000
10000
,
10000
00000
00000
00001
,
00001
00000
00010
00100
,
01000
00000
00000
00100
,
00100
00000
00000
10000
,
10000
00000
00000
00001
,
00001
00010
00100
01000
,
00010
00100
01000
10000
,
01000
10000
01000
00100
,
00010
00000
10000
00000
,
00000
00001
00000
00001
,
00000
00000
00000
00001
00000
00000
00000
00000
01000
00000
00000
00000
,
00000
00001
00000
00001
,
00000
00000
00000
00001
00000
00000
00000
00000
01000
00000
00000
00000
,
00000
00001
00000
00001
,
00000
00000
00000
00001
00000
00000
00000
00000
01000
00000
00000
00000
,
00001
00010
00100
10000
,
01000
00000
00100
00000
,
00000
00001
00000
00001
,
00000
00000
00000
00001
00000
00000
00000
00000
01000
00000
00000
00000
,
00000
00001
00000
00001
,
00000
00000
00000
00001
00000
00000
00000
00000
01000
00000
00000
00000
,
00000
00001
00000
00001
,
00000
00000
00000
00001
00000
00000
00000
00000
01000
00000
00000
00000
,
00100
10000
00010
01000
,
00001
00000
10000
00100
,
00001
00000
00010
00000
,
00100
00000
01000
01000
,
00100
01000
10000
00100
,
00001
00010
01000
00001
,
00100
10000
00000
00001
,
00000
00100
00000
10000
,
00000
01000
00010
01000
,
00000
00000
00000
00001
;

//--------------- pump-single - Beat Popper Hyper Chart ----------------
#NOTES:
     pump-single:
     Beat Popper Hyper Chart:
     Hard:
     8:
     0,0,0,0,0:
00000
00000
00000
00000
00000
00000
00000
00000
00010
01000
00000
00010
,
00001
00010
00100
10000
,
01000
00000
00100
00000
,
01000
00001
10000
00001
,
01000
00000
00000
00001
00000
00000
10000
00000
00001
00100
00000
00001
,
01000
00001
10000
00001
,
01000
00000
00000
00001
00000
00000
10000
00000
00001
00100
00000
00001
,
01000
00001
10000
00001
,
01000
00000
00000
00001
00000
00000
10000
00000
00001
00100
00000
00001
,
00100
10000
00010
01000
,
00001
00000
10000
00000
,
01000
00001
10000
00001
,
01000
00000
00000
00001
00000
00000
10000
00000
00001
01100
00000
00001
,
00010
00000
00001
10000
00000
00000
00001
00000
,
00010
00000
00000
10001
00000
00000
01000
00000
00001
00100
00000
00001
,
01000
00001
10000
00001
,
01000
00000
00000
00001
00000
00000
10000
00000
00001
00100
00000
00001
,
01000
00001
10000
00001
,
01000
00000
00000
00001
00000
00000
10000
00000
00001
00100
00000
00001
,
01000
00001
10000
00001
,
01000
00000
00000
00001
00000
00000
10000
00000
00001
00100
00000
00001
,
00100
10000
00010
01000
,
00001
00000
10010
00000
,
10000
00100
00100
00100
,
00100
00000
00010
00100
00000
01000
00100
00000
00000
00001
00000
00000
,
01000
00000
00000
00010
,
10000
00000
00000
00010
,
10000
00000
00000
00100
00000
00000
00100
00000
00000
01000
00000
00100
,
00010
00000
00100
01000
00000
00100
00010
00000
00000
00100
00000
00000
,
01000
10000
00001
00010
,
00100
00000
00000
00000
,
10000
00100
00100
00100
,
00100
00000
00010
00100
00000
01000
00100
00000
00000
00001
00000
00000
,
01000
00000
00000
00010
,
10000
00000
00000
01000
,
10000
00000
00000
00100
00000
00000
00100
00000
00000
01000
00000
00100
,
00010
00000
00100
01000
00000
00100
00010
00000
00000
00100
00000
00000
,
00100
01000
00001
10000
,
00010
00000
10100
00000
,
01000
00001
10000
00001
,
01000
00000
00000
00001
00000
00000
10000
00000
00001
00100
00000
00001
,
10000
00011
00000
00001
,
00010
00000
00000
00001
00000
00000
00000
00000
00001
00110
00000
00001
,
01000
00001
10000
00001
,
01000
00000
00000
00001
00000
00000
10000
00000
00010
01000
00000
00010
,
00001
00010
00100
10000
,
01000
00000
00100
00000
,
01000
00001
10000
00001
,
01000
00000
00000
00000
00000
00000
00000
00000
00000
00000
00000
00000
00001
00000
00000
00000
00000
00000
00000
00000
00000
00000
00000
00000
10000
00000
00000
00000
00000
00000
00000
00000
00001
00000
00000
00000
00010
00000
00000
00000
00000
00000
00000
00000
00001
00010
00000
00000
,
01000
00000
00000
00000
00001
00000
00000
00010
10000
00000
00000
00000
00001
00000
00000
00010
,
01000
00000
00000
00000
00000
00000
00000
00000
00000
00000
00000
00000
00001
00000
00000
00000
00000
00000
00000
00000
00000
00010
00000
00000
10000
00000
00000
00000
00000
00000
00000
00000
00001
00000
00000
00000
00100
00000
00000
00000
00000
00000
00000
00000
00001
00000
00000
00000
,
01000
00001
10000
00001
,
01000
00000
00000
00001
00000
00000
10000
00000
00001
00100
00000
00001
,
00100
10000
00010
01000
,
00001
00000
10000
00000
,
10000
00100
00100
00100
,
00100
00000
00010
00100
00000
01000
00100
00000
00000
00001
00000
00000
,
01000
00000
00000
00010
,
10000
00000
00000
00010
,
10000
00000
00000
00100
00000
00000
00100
00000
00000
01000
00000
00100
,
00010
00000
00100
01000
00000
00100
00010
00000
00000
00100
00000
00000
,
01000
10000
00001
00010
,
00100
00000
00000
00000
,
10000
00100
00100
00100
,
00100
00000
00010
00100
00000
01000
00100
00000
00000
00001
00000
00000
,
01000
00000
00000
00010
,
10000
00000
00000
01000
,
10000
00000
00000
00100
00000
00000
00100
00000
00000
01000
00000
00100
,
00010
00000
00100
01000
00000
00100
00010
00000
00000
00100
00000
00000
,
00100
01000
00001
10000
,
00010
00000
00000
00000
00000
00000
10000
00000
00000
01000
00000
10000
,
01000
00000
00000
00001
00000
00000
00000
00000
00000
00100
00000
01000
,
00100
00000
00000
00001
00000
00000
00000
00000
00000
00100
00000
00010
,
00001
00000
00001
00010
,
00100
00000
00000
00001
00000
00000
00000
00000
00000
01000
00000
10000
,
01000
00000
00000
00001
00000
00000
00000
00000
00000
00100
00000
01000
,
00100
00000
00000
00001
00000
00000
00000
00000
00000
00001
00000
00010
,
00001
10000
01000
00100
,
00010
00000
00000
00000
00000
00000
10000
00000
00000
01000
00000
10000
,
01000
00000
00000
00001
00000
00000
00000
00000
00000
00100
00000
01000
,
00100
00000
00000
00001
00000
00000
00000
00000
00000
00100
00000
00010
,
00001
00000
00001
00010
,
00100
00000
00000
00001
00000
00000
00000
00000
00000
01000
00000
10000
,
01000
00000
00000
00001
00000
00000
00000
00000
00000
00100
00000
01000
,
00100
00000
00000
00001
00000
00000
00000
00000
00000
00100
00000
00010
,
00001
00010
00100
01000
,
00010
00100
01000
10000
,
01000
10000
01000
00100
,
00010
00000
10000
00000
,
01000
00001
10000
00001
,
01000
00000
00000
00001
00000
00000
10000
00000
00001
00100
00000
00001
,
01000
00001
10000
00001
,
01000
00000
00000
00001
00000
00000
10000
00000
00001
00100
00000
00001
,
01000
00001
10000
00001
,
01000
00000
00000
00001
00000
00000
10000
00000
00010
01000
00000
00010
,
00001
00010
00100
10000
,
01000
00000
00100
00000
,
01000
00001
10000
00001
,
01000
00000
00000
00001
00000
00000
10000
00000
00001
00100
00000
00001
,
01000
00001
10000
00001
,
01000
00000
00000
00001
00000
00000
10000
00000
00001
00100
00000
00001
,
01000
00001
10000
00001
,
01000
00000
00000
00001
00000
00000
10000
00000
00001
00100
00000
00001
,
00100
10000
00010
01000
,
00001
00000
10000
00100
,
00010
00000
00100
00010
00000
00001
00100
00000
01000
00100
00000
00010
,
01000
00000
10000
01000
00000
00100
10000
00000
00000
01000
00000
00100
,
00010
01000
10000
00100
,
00001
00100
01000
00010
,
00001
00000
00000
00010
00000
00010
00001
00000
00000
10000
00000
10000
,
01000
00000
00000
00100
00000
00100
00010
00000
00000
01000
00000
01000
,
00100
00000
00000
10000
00000
10000
00001
00000
00000
10000
00000
00000
,
00000
00000
00000
00000
00000
00000
00000
00000
00000
01000
00100
00010
,
00001
00000
00000
00000
;
