#TITLE:Candy Blue;
#SUBTITLE:;
#ARTIST:浅井裕子;
#TITLETRANSLIT:;
#SUBTITLETRANSLIT:;
#ARTISTTRANSLIT:Yuko Asai;
#GENRE:Positive;
#CREDIT:8Chasey 2026;
#MUSIC:Candy Blue.ogg;
#BANNER:Candy Blue-bn.png;
#BACKGROUND:Candy Blue-bg.png;
#CDTITLE:;
#SAMPLESTART:53.29;
#SAMPLELENGTH:15;
#SELECTABLE:YES;
#OFFSET:-1.868;
#BPMS:0.000=112.000;
#STOPS:;
#BGCHANGES:;
#FGCHANGES:;

//--------------- dance-single - 8Chasey ----------------
#NOTES:
     dance-single:
     8Chasey:
     Beginner:
     1:
     0,0,0,0,0:
0000
0000
0000
0000
,
0000
0000
0000
0000
,
0000
0000
0000
0000
,
0000
0000
0000
0000
,
1000
0000
0000
0000
,
0000
0000
0000
0000
,
0001
0000
0000
0000
,
1000
0000
0000
0000
,
0001
0000
0000
0000
,
0000
0000
0000
0000
,
1000
0000
0000
0000
,
0001
0000
0000
0000
,
1000
0000
0000
0000
,
0001
0000
1000
0000
,
0001
0000
0000
0000
,
1000
0000
0000
0000
,
0001
0000
0000
0000
,
1000
0000
0001
0000
,
1000
0000
0000
0000
,
0001
0000
0000
0000
,
1000
0000
1000
0000
,
1000
0000
0000
0000
,
0001
0000
0001
0000
,
0001
0000
0000
0000
,
1001
0000
0000
0000
,
1000
0000
0000
0000
,
0001
0000
0001
0000
,
0001
0000
0000
0000
,
1000
0000
0000
0000
,
0001
0000
0000
0000
,
1000
0000
1000
0000
,
1000
0000
0000
0000
,
0110
0000
0000
0000
,
0100
0000
0000
0000
,
0010
0000
0010
0000
,
0010
0000
0000
0000
,
0100
0000
0000
0000
,
0010
0000
0000
0000
,
0100
0000
0100
0000
,
0100
0000
0000
0000
,
0001
0000
0000
0000
,
1000
0000
0000
0000
;

//--------------- dance-single - 8Chasey ----------------
#NOTES:
     dance-single:
     8Chasey:
     Easy:
     2:
     0,0,0,0,0:
0000
0000
0000
0000
,
0000
0000
0000
0000
,
0000
0000
0000
0000
,
0000
0000
0000
0000
,
1000
0000
0001
0000
,
1000
0100
1000
0000
,
0010
0000
0010
0000
,
0100
0000
0100
0000
,
0001
0000
1000
0000
,
0001
0100
0001
0000
,
0100
0000
0100
0000
,
0010
0000
0010
0000
,
1001
0000
0000
0000
,
1000
0001
1000
0000
,
0001
0000
0100
0000
,
0010
1000
0010
0000
,
0100
0000
0100
0000
,
0001
1000
0001
0000
,
1000
0000
0100
0000
,
0010
0001
0010
0000
,
0002
0000
0000
0003
,
1000
0100
1000
0000
,
2000
0000
0000
3000
,
0001
0010
0001
0000
,
1001
0000
1000
0000
,
0001
0002
0000
0003
,
0100
0000
0001
0000
,
0010
0001
0010
0000
,
0110
0000
0100
0000
,
1000
2000
0000
3000
,
0100
0000
1000
0000
,
0010
1000
0010
0000
,
0110
0000
0100
0000
,
0010
0020
0000
0030
,
0100
0000
0001
0000
,
1000
0100
1000
0000
,
1001
0000
0001
0000
,
0100
0200
0000
0300
,
0010
0000
1000
0000
,
0001
0000
0000
0000
,
0002
0000
0003
0000
,
2000
0000
3000
0000
;

//--------------- dance-single - 8Chasey ----------------
#NOTES:
     dance-single:
     8Chasey:
     Medium:
     4:
     0,0,0,0,0:
0000
0000
0000
0000
,
0000
0000
0000
0000
,
0000
0000
0000
0000
,
0000
0000
0000
0000
,
1000
0000
0010
0000
1000
0001
1000
0000
,
0100
0000
0010
0000
0001
0010
0001
0000
,
0200
0000
0001
0000
0301
0000
1000
0010
,
0000
1000
0001
1000
0000
0001
0010
0000
,
0001
0000
0100
0000
0001
1000
0001
0000
,
0100
0000
0010
0000
1000
0010
1000
0000
,
0200
0000
1000
0000
1300
0000
0001
0100
,
0000
0001
1000
0001
0000
1000
0100
0000
,
0110
0000
0010
0000
0001
0000
0010
0100
,
0010
0100
0000
1000
0000
0100
1000
0100
,
0000
1000
0000
0001
0000
0100
0001
0100
,
0000
0001
0000
1000
0000
0001
1000
0000
,
1001
0000
0001
0000
1000
0000
0100
0010
,
0100
0010
0000
0001
0000
0010
0001
0010
,
0000
0001
0000
1000
0000
0010
1000
0010
,
0000
1000
0000
0001
0000
1000
0001
0000
,
0101
0000
0000
0001
0000
0010
0001
0000
,
0100
0000
0010
0000
1000
0010
1000
0000
,
1100
0000
0000
1000
0000
0010
1000
0000
,
0100
0000
0010
0000
0001
0010
0001
0000
,
1001
0000
1000
0000
0100
0000
1000
0010
,
0000
1000
0002
0000
0100
0000
0103
0010
,
0100
0000
0010
0000
1000
0000
0001
1000
,
0000
1000
0001
0000
1000
0000
1100
0000
,
0101
0000
0001
0000
0100
0000
0001
0010
,
0000
0001
2000
0000
0010
0000
3010
0100
,
0010
0100
0001
1000
,
0100
1000
0100
0000
0010
0001
0010
0000
,
0110
0000
0100
0000
1000
0000
0010
1000
,
0000
0010
0200
0000
0001
0000
0301
0100
,
0001
0000
1000
0000
0100
0000
1000
0001
,
0000
0001
1000
0000
0001
0000
0011
0000
,
1010
0000
1000
0000
0001
0000
0010
0001
,
0000
0100
0020
0000
1000
0000
1030
0010
,
1000
0000
0001
0000
0100
0001
0100
0001
,
2000
0000
3001
0100
,
0020
0000
0000
0000
0030
0000
0000
0100
,
0200
0000
0300
0000
;

//--------------- dance-single - 8Chasey ----------------
#NOTES:
     dance-single:
     8Chasey:
     Hard:
     7:
     0,0,0,0,0:
0000
0000
0000
0000
,
0000
0000
0000
0000
,
0000
0000
0000
0000
,
0000
0000
0000
0000
,
0100
1000
0010
0000
0100
0001
0100
0000
,
0001
0000
0010
0000
0001
0000
0000
1000
0000
0001
1000
0000
0001
0000
0010
0000
,
0100
0000
0100
0000
1000
0000
0000
0010
1000
0000
0010
0000
0100
0000
0001
0000
,
0000
0010
0100
1000
0010
0100
0001
0000
,
0100
0001
0010
0000
0100
1000
0100
0000
,
1000
0000
0010
0000
1000
0000
0000
0001
0000
1000
0001
0000
0010
0000
0100
0000
,
1000
0000
1000
0000
0001
0000
0000
0010
0001
0000
0100
0000
0010
0000
1000
0000
,
0000
0000
0100
0000
1000
0000
0010
0000
0000
0100
0001
0000
0000
1000
0000
0000
,
1001
0000
0001
0010
0100
0000
0010
0100
,
1000
0000
0010
0000
0000
0000
0100
0001
0000
0100
0001
0000
1000
0000
0100
0000
,
0000
1000
0001
0100
0000
0010
1000
0100
,
1000
0000
0001
0000
0100
0000
0010
0000
0000
0010
0100
0000
0010
0000
0000
0000
,
0110
0000
0010
1000
0100
0000
1000
0100
,
0010
0000
0001
0000
0000
0000
0100
0001
0000
0100
0001
0000
1000
0000
0010
0000
,
0000
1000
0001
0010
0000
0100
0010
0001
,
0100
0000
0010
0000
1000
0000
0100
0000
0000
1000
0001
0000
0010
0000
0100
0000
,
1100
0000
0000
1000
0000
0000
1000
0000
0000
0000
0010
0000
1000
0100
0000
1000
,
0000
0010
0000
0100
0000
0001
0000
1000
0100
0000
1000
0000
0001
0000
0000
0000
,
0101
0000
0000
0001
0000
0000
0001
0000
0000
0000
0010
0000
0001
0100
0000
0001
,
0000
0000
1001
0000
0000
0001
0010
0000
0001
0000
0100
0000
0010
0000
1000
0000
,
1001
0000
0000
0001
0010
0000
0001
0000
0100
0000
0010
0000
1000
0000
0100
0000
,
0000
0000
1000
0000
0020
0000
1000
0000
0000
0000
0130
0000
0001
0100
0001
0100
,
0000
0010
1000
0001
1000
0100
0010
0002
,
0000
0000
0100
0000
0103
0000
0010
0000
1000
0000
0100
0000
1000
0001
0000
0000
,
1001
0000
0000
1000
0100
0000
1000
0000
0010
0000
0100
0000
0001
0000
0010
0000
,
0000
0000
0001
0000
0200
0000
0001
0000
0000
0000
0310
0000
1000
0100
1000
0100
,
0000
0000
1000
0000
0001
0000
0000
0001
0100
0000
0001
0000
1000
0000
0200
0000
,
0000
0000
0010
0000
0310
0000
0001
0000
1000
0100
0000
1000
0100
0000
0010
0000
,
0110
0000
0000
0100
1000
0000
0001
0000
0100
0000
0010
0000
1000
0000
0010
0000
,
0000
0000
0010
0000
0200
0000
0001
0000
0000
0000
0310
0000
1000
0001
1000
0001
,
0000
0010
0001
0100
0010
1000
0100
0020
,
0000
0000
0001
0000
0031
0000
0100
0000
0010
0000
1000
0000
0100
0010
0000
0000
,
0110
0000
0000
0010
0001
0000
1000
0000
0010
0000
0100
0000
0001
0000
0100
0000
,
0000
0000
0100
0000
0020
0000
1000
0000
0000
0000
0130
0000
0001
1000
0001
1000
,
0000
0000
0100
0000
1000
0000
0000
1000
0001
0000
1000
0000
0100
0000
0010
0000
,
0002
0000
1003
0100
2000
0000
3010
0100
,
0020
0000
0000
0000
0000
0000
0000
0100
,
0200
0000
0330
0000
;

//--------------- dance-double - 8Chasey ----------------
#NOTES:
     dance-double:
     8Chasey:
     Easy:
     1:
     0,0,0,0,0:
00000000
00000000
00000000
00000000
,
00000000
00000000
00000000
00000000
,
00000000
00000000
00000000
00000000
,
00000000
00000000
00000000
00000000
,
00010000
00000000
10000000
00000000
,
00010000
00000000
00010000
00000000
,
10000000
00000000
01000000
00000000
,
00100000
00000000
00000000
00000000
,
00001000
00000000
00001000
00000000
,
00010000
00000000
00010000
00000000
,
00000100
00000010
00000100
00000000
,
00000020
00000000
00000030
00000000
,
00001000
00000000
00000001
00000000
,
00001000
00000000
00001000
00000000
,
00000001
00000000
00000100
00000000
,
00000010
00000000
00000000
00000000
,
00010000
00000000
00010000
00000000
,
00001000
00000000
00001000
00000000
,
01000000
00100000
01000000
00000000
,
00200000
00000000
00300000
00000000
,
01000000
00000000
00001000
00000000
,
00010000
00000000
00010000
00000000
,
00000100
00000000
00010000
00000000
,
00001000
00000000
00001000
00000000
,
00011000
00000000
00010000
00000000
,
00001000
00002000
00000000
00003000
,
00100000
00000000
01000000
00000000
,
10000000
00000000
00010000
00000000
,
10010000
00000000
10000000
00000000
,
00010000
00020000
00000000
00030000
,
10000000
00000000
01000000
00000000
,
00100000
00000000
00001000
00000000
,
00011000
00000000
00001000
00000000
,
00010000
00020000
00000000
00030000
,
00000010
00000000
00000100
00000000
,
00000001
00000000
00001000
00000000
,
00001001
00000000
00000001
00000000
,
00001000
00002000
00000000
00003000
,
00000001
00000000
00000100
00000000
,
00000010
00000000
00010000
00000000
,
00002000
00000000
00003000
00000000
,
00020000
00000000
00030000
00000000
;

//--------------- dance-double - 8Chasey ----------------
#NOTES:
     dance-double:
     8Chasey:
     Medium:
     4:
     0,0,0,0,0:
00000000
00000000
00000000
00000000
,
00000000
00000000
00000000
00000000
,
00000000
00000000
00000000
00000000
,
00000000
00000000
00000000
00000000
,
00001000
00000000
00000100
00000000
00001000
00000001
00001000
00000000
,
00000001
00000100
00000001
00000100
00000001
00000000
00000010
00000000
,
00000200
00000000
00001000
00000000
00001300
00000000
00000100
00010000
,
00000000
00001000
00010000
00001000
00000000
00100000
00010000
10000000
,
00000000
00010000
01000000
00000000
00010000
10000000
00010000
00000000
,
10000000
00100000
10000000
00100000
10000000
00000000
01000000
00000000
,
00200000
00000000
00010000
00000000
00310000
00000000
00100000
00001000
,
00000000
00010000
00001000
00010000
00000000
00000100
00000010
00000000
,
00000011
00000000
00000001
00000000
00000100
00000000
00000001
00001000
,
00000001
00001000
00000000
00000100
00000000
00001000
00000100
00010000
,
00000000
00001000
01000000
00010000
00000000
00100000
00000000
00010000
,
00000000
10000000
01000000
10000000
00000000
00100000
10000000
00000000
,
10100000
00000000
10000000
00000000
01000000
00000000
10000000
00010000
,
10000000
00010000
00000000
01000000
00000000
00010000
00100000
00001000
,
00000000
00010000
00000010
00001000
00000000
00000100
00000000
00001000
,
00000000
00000001
00001000
00000001
00000000
00000100
00000000
00000010
,
00000110
00000000
00000000
00000100
00000000
00000000
00001000
00000000
,
00010000
00000000
00001000
00000000
00100000
00010000
00100000
00000000
,
01100000
00000000
00000000
01000000
00000000
00000000
00010000
00000000
,
00001000
00010000
00000010
00000000
00000100
00000001
00001000
00000000
,
00001001
00000000
00000001
00000000
00000100
00000000
00000001
00000100
,
00000000
00000001
00000020
00000000
00000100
00000000
00000130
00000010
,
00000100
00000000
00001000
00000000
00000100
00000000
00010000
00001000
,
00000000
00010000
00001000
00100000
00000000
01000000
00100000
00000000
,
10010000
00000000
10000000
00000000
01000000
00000000
10000000
00100000
,
00000000
10000000
02000000
00000000
00100000
00000000
03100000
01000000
,
00100000
00000000
00010000
00000000
01000000
00000000
00001000
00010000
,
00000000
00001000
00010000
00000010
00000100
00000001
00000100
00000000
,
00000110
00000000
00000010
00001000
00000010
00000000
00001000
00000100
,
00000000
00000010
00000002
00000000
00001000
00000000
00001003
00000100
,
00001000
00000000
00000010
00000000
00000100
00000000
00000001
00000100
,
00000000
00001000
00010000
00001000
00000000
00100000
01000000
00000000
,
01100000
00000000
00100000
00010000
00100000
00000000
00010000
01000000
,
00000000
00100000
20000000
00000000
00010000
00000000
30010000
01000000
,
00010000
00100000
01000000
00100000
,
00002000
00000000
00013000
00000100
,
00000020
00000000
00000000
00000000
00000030
00000000
00000000
00000100
,
00000200
00000000
00000300
00000000
;

//--------------- dance-double - 8Chasey ----------------
#NOTES:
     dance-double:
     8Chasey:
     Hard:
     7:
     0,0,0,0,0:
00000000
00000000
00000000
00000000
,
00000000
00000000
00000000
00000000
,
00000000
00000000
00000000
00000000
,
00000000
00000000
00000000
00000000
,
00000100
00001000
00000010
00000000
00000100
00000001
00000100
00000000
,
00000010
00000000
00000100
00000000
00000010
00000000
00000000
00001000
00000000
00000001
00001000
00000000
00000001
00000000
00000100
00000000
,
00000001
00000000
00000001
00000000
00000010
00000000
00000000
00000010
00000100
00000000
00001000
00000000
00000001
00000000
00000010
00000000
,
00000000
00000100
00010000
00001000
00100000
00010000
10000000
00100000
,
01000000
00010000
00100000
00000000
01000000
10000000
01000000
00000000
,
00100000
00000000
01000000
00000000
00100000
00000000
00000000
00010000
00000000
10000000
00010000
00000000
10000000
00000000
01000000
00000000
,
10000000
00000000
10000000
00000000
00100000
00000000
00000000
00100000
01000000
00000000
00010000
00000000
10000000
00000000
00100000
00000000
,
00000000
00000000
01000000
00000000
00001000
00000000
00010000
00000000
00000000
00000100
00001000
00000000
00000000
00000001
00000000
00000000
,
00001001
00000000
00001000
00000100
00000010
00000000
00000100
00001000
,
00000010
00000000
00000100
00000000
00000000
00000000
00001000
00010000
00000000
00001000
00010000
00000000
00000100
00000000
00000010
00000000
,
00000000
00000001
00000100
00000010
00000000
00001000
00000010
00000100
,
00000010
00000000
00010000
00000000
00001000
00000000
00100000
00000000
00000000
01000000
00100000
00000000
00010000
00000000
10000000
00000000
,
10010000
00000000
00010000
01000000
00100000
00000000
01000000
00010000
,
00100000
00000000
01000000
00000000
00000000
00000000
00010000
00001000
00000000
00010000
00001000
00000000
01000000
00000000
00100000
00000000
,
00000000
10000000
01000000
00100000
00000000
00010000
00100000
01000000
,
00100000
00000000
00001000
00000000
00010000
00000000
00000100
00000000
00000000
00001000
00000000
00000000
00000010
00000000
00000100
00000000
,
00010100
00000000
00000000
00010000
00000000
00000000
00010000
00000000
00000000
00000000
00000100
00000000
00001000
00000010
00000000
00000100
,
00000000
00000001
00000000
00000100
00000000
00000010
00000000
00001000
00000100
00000000
00010000
00000000
00001000
00000000
00000000
00000000
,
00101000
00000000
00000000
00001000
00000000
00000000
00001000
00000000
00000000
00000000
00010000
00000000
00001000
01000000
00000000
00010000
,
00000000
00000000
10010000
00000000
00000000
10000000
01000000
00000000
00100000
00000000
00001000
00000000
00010000
00000000
00000100
00000000
,
00001100
00000000
00000000
00001000
00000010
00000000
00001000
00000000
00000100
00000000
00000010
00000000
00000001
00000000
00000100
00000000
,
00000000
00000000
00001000
00000000
00020000
00000000
00000100
00000000
00000000
00000000
00030010
00000000
00001000
00000010
00001000
00000010
,
00000000
00000100
00000001
00000010
00000100
00010000
00001000
00200000
,
00000000
00000000
00010000
00000000
00310000
00000000
01000000
00000000
00100000
00000000
10000000
00000000
00010000
01000000
00000000
00000000
,
01010000
00000000
00000000
00010000
00100000
00000000
00010000
00000000
01000000
00000000
00100000
00000000
10000000
00000000
01000000
00000000
,
00000000
00000000
00010000
00000000
00002000
00000000
00100000
00000000
00000000
00000000
01003000
00000000
00010000
01000000
00010000
01000000
,
00000000
00000000
00010000
00000000
10000000
00000000
00000000
01000000
10000000
00000000
01000000
00000000
00100000
00000000
00001000
00000000
,
00010000
00000000
00000010
00000000
00001000
00000100
00000000
00001000
00000100
00000010
00000000
00000001
00000000
00001000
00000001
00001000
,
00000001
00000100
00000001
00000010
00000001
00000100
00001000
00010000
,
00000000
00000000
00001000
00000000
00000020
00000000
00000001
00000000
00000000
00000000
00000130
00000000
00001000
00000100
00001000
00000100
,
00000000
00001000
00000001
00000100
00001000
00010000
00001000
00200000
,
00000000
00000000
00010000
00000000
00310000
00000000
01000000
00000000
00100000
00000000
10000000
00000000
01000000
00100000
00000000
00000000
,
01100000
01000000
10000000
00100000
10000000
01000000
00010000
00001000
,
00000000
00000000
00010000
00000000
00200000
00000000
10000000
00000000
00000000
00000000
01300000
00000000
00010000
01000000
00010000
01000000
,
00000000
00010000
10000000
01000000
00010000
00001000
00000010
00000001
,
00001000
00000000
00000000
00000001
00000100
00000000
00001000
00000000
00010000
00000000
00001000
00000000
00100000
00000000
01000000
00000000
,
00200000
00000000
00000000
00000000
00000000
00000000
00000000
01000000
,
02000000
00000000
03300000
00000000
;
