#TITLE:Call Me Maybe;
#SUBTITLE:;
#ARTIST:Carly Rae Jaspen;
#TITLETRANSLIT:;
#SUBTITLETRANSLIT:;
#ARTISTTRANSLIT:;
#GENRE:;
#CREDIT:8Chasey 2024 / Beat Popper;
#MUSIC:Call Me Maybe.ogg;
#BANNER:Call Me Maybe-bn.png;
#BACKGROUND:;
#CDTITLE:;
#SAMPLESTART:28.005;
#SAMPLELENGTH:12.000;
#SELECTABLE:YES;
#OFFSET:-0.010;
#BPMS:0.000=120.000;
#STOPS:;
#BGCHANGES:;
#FGCHANGES:;

//--------------- dance-single - 8Chasey - 2025 chart ----------------
#NOTES:
     dance-single:
     8Chasey - 2025 chart:
     Beginner:
     1:
     0,0,0,0,0:
0000
0000
0000
0000
,
0000
0000
0000
0000
,
0001
0000
0000
0000
,
1000
0000
0000
0000
,
0001
0000
0000
0000
,
0001
0000
0001
0000
,
1000
0000
0000
0000
,
0001
0000
0000
0000
,
1000
0000
0000
0000
,
1000
0000
1000
0000
,
0010
0000
0000
0000
,
0100
0000
0000
0000
,
0010
0000
0100
0000
,
0010
0000
0000
0000
,
1001
0000
0000
0000
,
1000
1000
0000
0000
,
0001
0001
0000
0000
,
1000
1000
0000
0000
,
0100
0000
0000
0000
,
0001
0001
0000
0000
,
1000
1000
0000
0000
,
0001
0001
0000
0000
,
0110
0000
0000
0000
,
0100
0100
0000
0000
,
0010
0010
0000
0000
,
1000
1000
0000
0000
,
1001
0000
0000
0000
,
0010
0010
0000
0000
,
0100
0100
0000
0000
,
0001
0001
0000
0000
,
0000
0000
0000
0000
,
0000
0000
0000
0000
,
0100
0000
0000
0000
,
0010
0000
0000
0000
,
0100
0000
0000
0000
,
0100
0000
0100
0000
,
0010
0000
0000
0000
,
0100
0000
0000
0000
,
0010
0000
0000
0000
,
0010
0000
0010
0000
,
1000
0000
0000
0000
,
0001
0000
0000
0000
,
1000
0000
0001
0000
,
1000
0000
0000
0000
,
0110
0000
0000
0000
,
0010
0010
0000
0000
,
0100
0100
0000
0000
,
0010
0010
0000
0000
,
1000
0000
0001
0000
,
0100
0100
0000
0000
,
0010
0010
0000
0000
,
0100
0100
0000
0000
,
1001
0000
1000
0000
,
0001
0001
0000
0000
,
1000
1000
0000
0000
,
0001
0000
0100
0000
,
0110
0000
0010
0000
,
0100
0100
0000
0000
,
0010
0010
0000
0000
,
1000
0000
0001
0000
,
1001
0000
0000
0000
,
1000
1000
0000
0000
,
0010
0010
0000
0000
,
0100
0000
0001
0001
,
0001
0000
0000
0000
,
0001
0001
0000
0000
,
0010
0010
0000
0000
,
0100
0000
1000
1000
,
1000
0000
0000
0000
;

//--------------- dance-single - 8Chasey - 2025 chart ----------------
#NOTES:
     dance-single:
     8Chasey - 2025 chart:
     Easy:
     3:
     0,0,0,0,0:
0000
0000
0000
0000
,
0000
0000
0000
0000
,
0001
0100
0001
0000
,
1000
0100
1000
0000
,
0010
0000
0100
0000
,
0010
0100
0010
0000
,
1000
0010
1000
0000
,
0001
0010
0001
0000
,
0100
0000
0010
0000
,
0100
0010
0100
0000
,
0001
0000
0001
0000
,
1000
0000
1000
0000
,
0100
0000
0100
0000
,
0010
0100
0010
0000
,
1001
0000
1000
0000
,
0010
1000
0001
0000
,
0010
0001
0100
0000
,
0010
0100
0010
0000
,
0110
0000
0100
0000
,
0001
0010
0001
0000
,
1000
0100
1000
0000
,
0010
0000
0100
0100
,
1001
0000
1000
0000
,
0100
0010
0001
0000
,
0100
0010
1000
0000
,
0001
1000
0001
0000
,
1001
0000
1000
0000
,
0100
0010
0100
0000
,
0010
0100
0010
0000
,
0001
0000
0100
0010
,
0100
0000
0000
0000
,
0000
0000
0000
0000
,
0010
0001
0010
0000
,
0100
1000
0100
0000
,
1000
0000
0001
0000
,
0100
0100
0100
0000
,
0010
1000
0010
0000
,
0100
0001
0100
0000
,
0001
0000
1000
0000
,
0010
0010
0010
0000
,
0100
0000
0010
0000
,
1000
0000
0001
0000
,
0010
0000
0100
0000
,
0010
0010
0010
0100
,
1001
0000
1000
0000
,
0010
1000
0001
0000
,
0010
0001
1000
0000
,
0100
0010
0100
0000
,
0110
0000
0010
0000
,
0001
0010
0001
0000
,
1000
0010
1000
0000
,
0100
0010
0100
0010
,
0110
0000
0100
0000
,
1000
0100
1000
0000
,
0010
0100
0010
0000
,
0100
0001
0100
0000
,
1001
0000
1000
0000
,
0010
1000
0010
0000
,
0100
0000
0001
0000
,
0010
0001
0010
0000
,
0110
0000
0000
0100
,
0000
0100
1000
0010
,
0000
0100
0001
0010
,
0000
0100
0010
0000
,
1001
0000
0000
0010
,
0000
0010
1000
0100
,
0000
0010
0001
0100
,
0000
0010
0100
0010
;

//--------------- dance-single - 8Chasey - 2025 chart ----------------
#NOTES:
     dance-single:
     8Chasey - 2025 chart:
     Medium:
     6:
     0,0,0,0,0:
0000
0000
0000
0000
,
0000
0000
0000
0000
,
0001
0100
0001
0001
,
1000
0100
1000
1000
,
0010
0000
0100
0000
0001
0000
0100
0010
,
0100
0010
1000
0001
,
1001
1000
0100
1000
,
1000
0001
0100
0001
,
0001
0000
0010
0000
0100
0000
0010
0100
,
0010
0100
1000
0010
,
0110
0000
0100
0000
0001
0100
0001
0000
,
0010
0000
0100
0000
1000
0100
1000
0000
,
0010
0000
0100
0000
0001
0100
0001
0000
,
1000
0001
1000
0000
0010
0000
0100
0000
,
1001
0000
0001
0000
1000
0000
0100
1000
,
0000
0010
1000
0000
0001
0000
0100
0001
,
0000
0010
0001
0000
0010
0000
0100
0010
,
0000
0100
1000
0000
0001
1000
0001
0000
,
1001
0000
1000
0000
0010
0000
0100
0001
,
0000
0100
0001
0000
0010
0000
0100
1000
,
0000
0100
1000
0000
0001
0000
0100
0010
,
0000
0100
0010
0000
1010
0000
0011
0000
,
1001
0000
1000
0000
0100
0000
0010
0100
,
0000
1000
0001
0000
0100
0000
0010
0100
,
0000
0001
1000
0000
0100
0000
1000
0010
,
0000
0100
0001
0000
1000
0000
1001
0000
,
0001
0000
0010
0000
0001
0000
0100
0001
,
0000
1000
0001
0000
1000
0000
0100
1000
,
0000
0001
1000
0000
0010
0000
0100
0001
,
0000
0100
1000
0000
0100
0010
0100
0010
,
0000
1000
0000
1000
0000
0100
0000
1000
,
0000
0001
0000
0001
0000
0100
0000
0001
,
0010
0100
1000
1000
,
0010
0100
0001
0001
,
1000
0000
0100
0000
0010
0100
0010
0000
,
0001
0000
0100
0000
0010
0100
0010
0000
,
0110
0100
0001
0010
,
0010
0100
1000
0010
,
0010
0000
1000
0000
0001
1000
0001
0000
,
1000
0000
0100
0000
0010
0100
0010
0000
,
0100
0000
0010
0000
0001
0010
0001
0000
,
0100
0000
0010
0000
1000
0010
1000
0000
,
0100
0000
0010
0000
0001
1000
0001
0000
,
1000
0000
0010
0000
0100
0010
0100
0000
,
1001
0000
1000
0000
0100
0000
1000
0001
,
0000
1000
0001
0000
0100
0000
0001
1000
,
0000
0001
1000
0000
0010
0000
0100
0010
,
0000
0100
0010
0000
1000
0000
0001
0000
,
0101
0000
0001
0000
0010
0000
0100
1000
,
0000
0100
1000
0000
0010
0000
0100
0001
,
0000
0100
0001
0000
0010
0000
0100
0010
,
0000
0100
0010
0000
0001
0100
0010
0000
,
0110
0000
0100
0000
0010
0000
1000
0100
,
0000
1000
0100
0000
0010
0000
0001
0100
,
0000
0001
0100
0000
0010
0000
1000
0001
,
0000
1000
0001
0000
0010
0000
0100
0000
,
1100
0000
1000
0000
0001
0000
0100
0010
,
0000
0100
0001
0000
1000
0000
0100
0010
,
0000
0100
1000
0000
0001
0000
0010
0100
,
0000
0100
0010
0000
0001
1000
0001
0000
,
1001
0000
0001
1000
0000
1000
0100
0000
,
0100
0010
0000
0010
0001
0000
0100
0000
,
0001
0000
1000
0001
0000
0001
0010
0000
,
0010
0100
0000
0100
1000
0000
1010
0000
,
0011
0000
0001
0100
0000
0100
0010
0100
,
0000
0100
0010
0000
1000
0000
0100
0010
,
0000
0010
0100
0010
0000
0010
0100
0000
,
1000
0010
1000
0000
0001
0100
0001
0010
;

//--------------- dance-single - 8Chasey - 2024 chart ----------------
#NOTES:
     dance-single:
     8Chasey - 2024 chart:
     Hard:
     8:
     0,0,0,0,0:
0000
0000
0000
0000
,
0000
0000
0000
0000
,
0001
0000
0100
0000
0001
0000
1000
0100
,
1000
0000
0010
0000
1000
0000
0001
0100
,
0001
0000
0010
0000
0100
0000
0010
0100
,
0010
0000
0000
0000
0001
0000
0000
0000
1000
0000
0000
1000
0000
0000
0001
0000
,
1000
0000
0010
0000
1000
0010
1000
1000
,
0001
0000
0100
0000
0001
0010
0001
1000
,
0001
0000
0100
0000
0010
1000
0100
0000
,
1000
0000
0010
0000
1000
0000
0000
0000
0001
0000
0000
0001
0000
0000
1000
0000
,
0100
0000
1001
0000
1000
0010
0100
0000
,
0001
0001
1000
0000
0001
0010
0100
0000
,
1000
0000
0110
0000
0010
1000
0001
0000
,
0100
0001
1000
0001
0010
0000
0100
0000
,
1001
0000
0000
0000
1000
0000
1000
0000
0010
0000
0000
1000
0000
0000
0001
0000
,
0000
0001
0100
0000
0001
0010
0001
1000
,
0000
1000
0100
0000
0010
0001
1000
0010
,
0000
0010
0100
0000
0001
1000
1001
0000
,
0110
0000
0100
0000
0010
1000
0100
1000
,
0000
0001
0001
0000
0100
0001
0010
0001
,
0000
1000
1000
0000
0010
0000
1001
0000
,
0100
0001
1000
0000
0010
0010
0100
0001
,
1001
0000
0000
0000
1000
0000
0010
0000
1000
0000
1000
0100
0000
0000
1000
0000
,
0000
0000
0001
0000
0100
0000
0000
0000
0001
0000
0001
0010
0000
0000
0001
0000
,
0000
1000
0100
0000
0010
0001
1000
0010
,
0000
0100
0010
0000
1010
0000
0011
0000
,
0110
0000
0000
0000
0010
0000
0000
0000
0001
0000
0010
0001
0000
1000
0001
0000
,
0100
0010
1000
0000
0001
0100
0001
1000
,
0000
1000
1010
0000
0001
1000
0100
1000
,
0000
0001
0011
0000
0100
0010
0100
0100
,
0002
0000
1000
0000
0100
0100
0103
0000
,
2000
0000
0001
0000
0100
0100
3100
0000
,
0010
0000
0001
0000
1000
0001
0000
0001
,
0100
0000
0001
0000
1000
0010
0000
0010
,
1000
0000
0100
0000
1000
0001
0010
0001
,
0100
0000
0000
0000
0010
0000
1000
0000
0010
0000
0000
0100
0000
0000
0110
0000
,
0000
0100
0001
0000
0010
0001
1000
0000
,
1010
0000
1000
0100
1000
0001
0010
0000
,
0011
0000
0010
0001
1000
0010
0100
0100
,
0000
0000
0010
0000
0100
0000
0001
0000
1000
0000
0000
0001
0000
0000
1001
0000
,
0000
0001
0010
0001
1000
0100
1000
0000
,
0010
1000
0001
0000
0100
0000
1001
0000
,
0010
1000
0001
0000
0100
0100
0010
0000
,
1000
0010
0001
0010
0100
0001
1000
0000
,
1001
0000
0000
0000
1000
0000
0000
0000
0010
0000
0000
1000
0000
0000
0100
0000
,
1000
0000
0001
0000
0001
0000
0000
0000
0010
0000
0000
0001
0000
0000
0100
0000
,
0001
1000
1000
0000
0100
1000
0001
0100
,
0000
0010
0010
1000
0001
0000
0100
0000
,
1001
0000
0001
0000
0010
0001
0100
0010
,
0000
0010
1000
0000
0100
1000
0001
0010
,
0000
0010
0001
0000
0100
0100
0001
1000
,
0000
0010
0100
0000
0001
0100
1000
0100
,
0110
0000
0000
0000
1000
0000
0010
0000
1000
0000
0001
1000
0000
0000
0001
0000
,
0010
0000
0001
0000
0100
0000
0000
0000
0001
0000
1000
0001
0000
0000
1000
0000
,
0010
1000
0100
0000
1000
0001
0100
0100
,
0000
0010
0100
0000
0001
0100
0101
0000
,
1100
0000
0000
0000
1000
0000
0000
0000
0010
0000
1000
0001
0000
0010
0001
0000
,
0100
0010
1000
0000
0001
0001
0010
0001
,
1000
0100
0010
0000
0100
1000
0001
0100
,
0000
0010
0110
0000
1000
0010
0001
0010
,
0200
0000
0301
0020
0001
0000
0130
0000
,
1000
0010
1000
0001
0100
0000
1001
0000
,
0100
0001
1000
0010
0100
0000
0110
0000
,
0100
0001
1000
0000
1010
0000
0011
0000
,
2001
0000
3001
0010
0100
0010
0002
0000
,
0103
0010
1000
0001
0100
0000
1001
0000
,
1000
0010
0100
0001
0010
0000
0110
0000
,
1000
0001
0100
0000
1001
1000
0100
0020
,
0000
0000
0000
0000
,
0000
0000
0000
0000
,
0000
0030
0000
0000
;

//--------------- pump-single - Beat Popper Novice Chart ----------------
#NOTES:
     pump-single:
     Beat Popper Novice Chart:
     Easy:
     2:
     0,0,0,0,0:
00000
00000
00000
00000
,
00000
00000
00000
00000
,
10000
00000
00000
00000
,
00000
00000
00000
00000
,
10000
00000
00000
00000
,
00000
00000
00000
00000
,
10000
00000
00000
00000
,
00000
00000
00000
00000
,
10000
00000
00000
00000
,
00000
00000
00000
00000
,
00000
00001
00000
00000
,
00000
00001
00000
00000
,
00000
00001
00000
00000
,
00000
00001
00000
00000
,
10000
00000
00000
00000
00000
00000
00000
00010
,
00000
01000
00000
00000
00000
00000
00000
00100
,
00000
10000
00000
00000
00000
00000
00000
00010
,
00000
01000
00000
00000
00000
00000
00000
00000
,
10000
00000
00000
00000
00000
00000
00000
00010
,
00000
01000
00000
00000
00000
00000
00000
00100
,
00000
10000
00000
00000
00000
00000
00000
00010
,
00000
01000
00000
00000
00000
00000
00000
00000
,
10000
00000
00000
00000
00000
00000
00000
00010
,
00000
01000
00000
00000
00000
00000
00000
00100
,
00000
10000
00000
00000
00000
00000
00000
00010
,
00000
01000
00000
00000
00000
00000
00000
00000
,
10000
00000
00000
00000
00000
00000
00000
00010
,
00000
01000
00000
00000
00000
00000
00000
00100
,
00000
10000
00000
00000
00000
00000
00000
00010
,
00000
01000
00000
00000
00000
00000
00000
00000
,
00000
00000
00000
00000
,
00000
00000
00000
00000
,
10000
00001
00000
00000
,
00000
00001
00000
00000
,
00000
00001
00000
00000
,
00000
00001
00000
00000
,
10000
00001
00000
00000
,
00000
00001
00000
00000
,
00000
00001
00000
00000
,
00000
00001
00000
00000
,
10000
00001
00000
00000
,
00000
00001
00000
00000
,
00000
00001
00000
00000
,
00000
00001
00000
00000
,
10000
00000
00000
00000
00000
00000
00000
00010
,
00000
01000
00000
00000
00000
00000
00000
00100
,
00000
10000
00000
00000
00000
00000
00000
00010
,
00000
01000
00000
00000
00000
00000
00000
00000
,
10000
00000
00000
00000
00000
00000
00000
00010
,
00000
01000
00000
00000
00000
00000
00000
00100
,
00000
10000
00000
00000
00000
00000
00000
00010
,
00000
01000
00000
00000
00000
00000
00000
00000
,
10000
00000
00000
00000
00000
00000
00000
00010
,
00000
01000
00000
00000
00000
00000
00000
00100
,
00000
10000
00000
00000
00000
00000
00000
00010
,
00000
01000
00000
00000
00000
00000
00000
00000
,
10000
00000
00000
00000
00000
00000
00000
00010
,
00000
01000
00000
00000
00000
00000
00000
00100
,
00000
10000
00000
00000
00000
00000
00000
00010
,
00000
01000
00000
00000
00000
00000
00000
00000
,
00001
00000
00000
00100
,
00000
00000
10000
00001
,
00000
00000
00000
00100
,
00000
00000
10000
00000
,
00001
00000
00000
00100
,
00000
00000
10000
00001
,
00000
00000
00000
00100
,
00000
00000
10000
00000
,
01000
00000
00000
00000
;

//--------------- pump-single - Beat Popper Chart ----------------
#NOTES:
     pump-single:
     Beat Popper Chart:
     Medium:
     2:
     0,0,0,0,0:
00000
00000
00000
00000
,
00000
00000
00000
00000
,
10000
00000
00000
00000
,
10000
00000
00000
00000
,
10000
00000
00000
00000
,
10000
00000
00000
00000
,
10000
00000
00000
00000
,
10000
00000
00000
00000
,
10000
00000
00000
00000
,
10000
00000
00000
00000
,
10000
00010
00000
00010
,
10000
00010
00000
00010
,
10000
00010
00000
00010
,
10000
00010
00000
00000
,
10000
00000
00000
00000
00000
00000
00000
00010
,
00000
01000
00000
00000
00000
00000
00000
00100
,
00000
10000
00000
00000
00000
00000
00000
00010
,
00000
01000
00000
00000
00000
00000
00000
00000
,
10000
00000
00000
00000
00000
00000
00000
00010
,
00000
01000
00000
00000
00000
00000
00000
00100
,
00000
10000
00000
00000
00000
00000
00000
00010
,
00000
01000
00000
00000
00001
00000
00001
00000
,
10000
00000
00000
00000
00000
00000
00000
00010
,
00000
01000
00000
00000
00000
00000
00000
00100
,
00000
10000
00000
00000
00000
00000
00000
00010
,
00000
01000
00000
00000
00000
00000
00000
00000
,
10000
00000
00000
00000
00000
00000
00000
00010
,
00000
01000
00000
00000
00000
00000
00000
00100
,
00000
10000
00000
00000
00000
00000
00000
00010
,
00000
01000
00000
00000
00001
00000
00001
00000
,
00000
00000
00000
00000
,
00000
00000
00000
00000
,
10000
00010
00000
00010
,
10000
00010
00000
00010
,
10000
00010
00000
00010
,
10000
00010
00000
00010
,
10000
00010
00000
00010
,
10000
00010
00000
00010
,
10000
00010
00000
00010
,
10000
00010
00000
00010
,
10000
00010
00000
00010
,
10000
00010
00000
00010
,
10000
00010
00000
00010
,
10000
00010
10000
00100
,
10001
00000
00000
00000
00000
00000
00000
00010
,
00000
01000
00000
00000
00000
00000
00000
00100
,
00000
10000
00000
00000
00000
00000
00000
00010
,
00000
01000
00000
00000
00000
00000
00000
00000
,
10000
00000
00000
00000
00000
00000
00000
00010
,
00000
01000
00000
00000
00000
00000
00000
00100
,
00000
10000
00000
00000
00000
00000
00000
00010
,
00000
01000
00000
00000
00001
00000
00001
00000
,
10000
00000
00000
00000
00000
00000
00000
00010
,
00000
01000
00000
00000
00000
00000
00000
00100
,
00000
10000
00000
00000
00000
00000
00000
00010
,
00000
01000
00000
00000
00000
00000
00000
00000
,
10000
00000
00000
00000
00000
00000
00000
00010
,
00000
01000
00000
00000
00000
00000
00000
00100
,
00000
10000
00000
00000
00000
00000
00000
00010
,
00000
01000
00000
00000
00001
00000
00001
00000
,
00001
00000
00000
00010
00000
00000
01000
00000
,
00000
10000
00000
00000
00100
00000
00001
00000
,
00000
00000
00000
00010
00000
00000
01000
00000
,
00000
10000
00000
00000
00100
00000
00100
00000
,
00001
00000
00000
00010
00000
00000
01000
00000
,
00000
10000
00000
00000
00100
00000
00001
00000
,
00000
00000
00000
00010
00000
00000
01000
00000
,
00000
10000
00000
00000
00101
00000
10001
00000
,
01000
00100
01000
00000
;

//--------------- pump-single - Beat Popper Hyper Chart ----------------
#NOTES:
     pump-single:
     Beat Popper Hyper Chart:
     Hard:
     8:
     0,0,0,0,0:
00000
00000
00000
00000
,
00000
00000
00000
00000
,
11000
01000
10000
01000
10000
01000
10000
00010
,
10000
00100
10000
00100
10000
00100
10000
00010
,
10000
01000
10000
01000
10000
01000
10000
00010
,
10000
00100
10000
00100
10000
00100
10000
00100
,
11000
01000
10000
01000
10000
01000
10000
00010
,
10000
00100
10000
00100
10000
00100
10000
00010
,
10000
01000
10000
01000
10000
01000
10000
00010
,
10000
00100
10000
00100
10000
00100
10000
00101
,
10000
00001
10010
00001
10000
00001
10010
00001
,
10000
00001
10010
00001
10000
00001
10010
00001
,
10000
00001
10010
00001
10000
00001
10010
00001
,
10000
00001
10010
00001
00000
00000
00000
00000
,
10001
00000
00000
00000
00000
00000
00000
00010
,
00000
01000
01000
00000
00000
00000
00000
00100
,
00000
10000
10000
00000
00000
00000
00000
00010
,
00000
00100
00100
00000
00000
00000
00000
00000
,
10000
00000
00000
00000
00000
00000
00000
00010
,
00000
01000
01000
00000
00000
00000
00000
00100
,
00000
10000
10000
00000
00000
00000
00000
00010
,
00000
00100
00100
00000
00001
10000
00001
10000
,
10001
00000
00001
00000
00001
00000
00001
00010
,
00001
01000
01001
00000
00001
00000
00001
00100
,
00001
10000
10001
00000
00001
00000
00001
00010
,
00001
01000
01001
00000
00001
00000
00001
00000
,
10001
00000
00001
00000
00001
00000
00001
00010
,
00001
01000
01001
00000
00001
00000
00001
00100
,
00001
10000
10001
00000
00001
00000
00001
00010
,
00001
01000
01001
00000
00011
10000
00011
10000
,
00000
00100
00000
00100
00000
00010
00000
00100
,
00000
00100
00000
00100
00000
00010
00000
00100
,
11000
01000
10001
01000
10000
01000
10001
00010
,
10000
00100
10001
00100
10000
00100
10001
00010
,
10000
01000
10001
01000
10000
01000
10001
00010
,
10000
00100
10001
00100
10000
00100
10001
00100
,
11000
01000
10001
01000
10000
01000
10001
00010
,
10000
00100
10001
00100
10000
00100
10001
00010
,
10000
01000
10001
01000
10000
01000
10001
00010
,
10000
00100
10001
00100
10000
00100
10001
00100
,
10000
00001
10010
00001
10000
00001
10010
00001
,
10000
00001
10010
00001
10000
00001
10010
00001
,
10000
00001
10010
00001
10000
00001
10010
00001
,
10000
00000
00001
00000
10010
00000
00001
00000
10000
00000
00001
00000
00100
00000
00001
00100
,
10001
00000
00000
00000
00000
00000
00000
00010
,
00000
01000
01000
00000
00000
00000
00000
00100
,
00000
10000
10000
00000
00000
00000
00000
00010
,
00000
00100
00100
00000
00000
00000
00000
00000
,
10000
00000
00000
00000
00000
00000
00000
00010
,
00000
01000
01000
00000
00000
00000
00000
00100
,
00000
10000
10000
00000
00000
00000
00000
00010
,
00000
00100
00100
00000
00001
10000
00001
10000
,
10001
00000
00001
00000
00001
00000
00001
00010
,
00001
01000
01001
00000
00001
00000
00001
00100
,
00001
10000
10001
00000
00001
00000
00001
00010
,
00001
01000
01001
00000
00001
00000
00001
00000
,
10001
00000
00001
00000
00001
00000
00001
00010
,
00001
01000
01001
00000
00001
00000
00001
00100
,
00001
10000
10001
00000
00001
00000
00001
00010
,
00001
01000
01001
00000
00011
10000
00011
10000
,
10001
00000
00100
00010
00000
00000
01100
00000
,
00000
10000
00100
00000
00010
00000
00101
00000
,
00000
00000
00100
00010
00000
00000
01100
00000
,
00000
10000
00100
00000
00010
00000
00110
00000
,
10001
00000
00100
00010
00000
00000
01100
00000
,
00000
10000
00100
00000
00010
00000
00101
00000
,
00000
00000
00100
00010
00000
00000
01100
00000
,
00000
10000
00100
00000
00011
10000
00101
10000
,
01000
00100
01000
00000
;
