#VERSION:0.83;
#TITLE:僕の名前は勇気 ~鈴木歯科クリニック編~;
#SUBTITLE:;
#ARTIST:ゆうき。;
#TITLETRANSLIT:Boku no namae wa Yuuki ~Suzuki shika clinic hen~;
#SUBTITLETRANSLIT:;
#ARTISTTRANSLIT:Yuuki;
#GENRE:Waltz;
#CREDIT:;
#MUSIC:Boku no namae wa Yuuki ~Suzuki shika clinic hen~.ogg;
#BANNER:bn.png;
#BACKGROUND:bg.png;
#CDTITLE:;
#SAMPLESTART:87.440;
#SAMPLELENGTH:12.000;
#SELECTABLE:NO;
#OFFSET:-3.881;
#BPMS:0.000=140.015;
#STOPS:;
#TIMESIGNATURES:0.000=3=4;
#BGCHANGES:;
#FGCHANGES:;

//--------------- dance-single - 8Chasey ----------------
#NOTEDATA:;
#STEPSTYPE:dance-single;
#DESCRIPTION:8Chasey;
#DIFFICULTY:Beginner;
#METER:1;
#RADARVALUES:0,0,0,0,0;
#NOTES:
0000
0000
0000
0000
,
0000
0000
0000
0000
,
0000
0000
0000
0000
,
0000
0000
0000
0000
,
0000
0000
0000
0000
,
0000
0000
0000
0000
,
0001
0000
0000
0001
,
0000
0000
0001
0000
,
0000
0000
0000
0000
,
1000
0000
0000
1000
,
0000
0000
1000
0000
,
0000
0000
0000
0000
,
0010
0000
0000
0010
,
0000
0000
0010
0000
,
0000
0000
0000
0000
,
0100
0000
0000
0100
,
0000
0000
0100
0000
,
0000
0000
0000
0000
,
0010
0000
0000
1000
,
0000
0000
0010
0000
,
0000
0010
0000
0000
,
0100
0000
0000
0001
,
0000
0000
0100
0000
,
0000
0100
0000
0000
,
0001
0000
0000
1000
,
0000
0000
0001
0000
,
0000
0000
0000
0000
,
1000
0000
0000
0001
,
0000
0000
1000
0000
,
0000
0000
0000
0000
,
0010
0000
0000
0100
,
0000
0000
0100
0000
,
0000
0000
0000
0000
,
0100
0000
0000
0010
,
0000
0000
0010
0000
,
0000
0000
0000
0000
,
0001
0000
0001
0001
,
0000
0000
0001
0000
,
0000
0000
0000
0000
,
1000
0000
1000
1000
,
0000
0000
1000
0000
,
0000
0000
0000
0000
,
0001
0000
0000
0000
,
0000
0000
1000
0000
,
0000
0000
0000
0000
,
0001
0000
0000
0000
,
0000
0000
1000
0000
,
0000
0000
0000
0000
,
0100
0100
0100
0000
,
0000
0000
0000
0000
,
0000
0010
0000
0000
,
0000
0000
0000
0100
,
0000
0000
0000
0000
,
0000
0010
0000
0000
,
0000
0000
0000
0001
,
0000
0000
0001
0000
,
0000
1000
0000
0000
,
0001
0000
0000
1000
,
0000
0000
1000
0000
,
0000
0001
0000
0000
,
1000
0000
0000
0010
,
0000
0010
0010
0000
,
0000
0100
0000
0100
,
0100
0000
0000
0001
,
0000
0000
1000
0000
,
0000
0001
0000
0000
,
1000
1000
0000
1000
,
0000
0000
0001
0000
,
0000
1000
0000
0000
,
0001
0001
0000
0000
;

//--------------- dance-single - 8Chasey ----------------
#NOTEDATA:;
#STEPSTYPE:dance-single;
#DESCRIPTION:8Chasey;
#DIFFICULTY:Easy;
#METER:2;
#RADARVALUES:0,0,0,0,0;
#NOTES:
0000
0000
0000
0000
,
0000
0000
0000
0000
,
0000
0000
0000
0000
,
0001
0001
0000
1000
,
1000
0000
0010
0010
,
0000
0100
0000
0000
,
0002
0003
0000
1000
,
0000
0001
2000
0000
,
3000
0001
0000
0000
,
0200
0300
0000
0010
,
0000
0100
0020
0000
,
0030
0100
0000
0000
,
0001
0000
0000
1000
,
0001
0000
2000
0000
,
3000
0001
0000
0000
,
1000
0000
0000
0001
,
1000
0000
0002
0000
,
0003
1000
0000
0000
,
0010
0000
0000
1000
,
0000
0000
0010
0000
,
0000
1000
0010
0000
,
0100
0000
0000
0001
,
0000
0000
0100
0000
,
0000
0001
0100
0000
,
0001
0000
0000
1000
,
0000
0000
0001
0000
,
1000
0002
0003
0000
,
1000
0000
0000
0001
,
0000
0000
1000
0000
,
0001
2000
3000
0000
,
0010
0000
0000
0100
,
0000
0010
0200
0000
,
0300
0010
0000
0000
,
0100
0000
0000
0010
,
0000
0100
0020
0000
,
0030
0100
0000
0000
,
0001
0000
1000
0001
,
0000
1000
0001
0000
,
0000
0000
0000
0000
,
1000
0000
0001
1000
,
0000
0001
1000
0000
,
0000
0000
0000
0000
,
0002
0000
0000
0003
,
0000
0000
2000
0000
,
0000
3000
0000
0000
,
0002
0000
0000
1003
,
0000
0000
2000
0000
,
0000
3001
0000
0000
,
0100
0100
0100
0000
,
0000
0000
0002
0000
,
0000
0003
0000
0000
,
2000
0000
0000
3010
,
0000
0000
0010
0000
,
0000
0100
0000
0010
,
0100
0000
0000
0002
,
0000
0003
0100
0000
,
0000
0001
0000
1000
,
0200
0300
0000
2000
,
0000
3000
0100
0000
,
0000
1000
0000
0001
,
0020
0030
0000
0100
,
0000
0000
0010
0000
,
0000
0100
0000
0000
,
0010
0000
0000
0001
,
0000
0000
1000
0000
,
0000
0100
0000
0000
,
0010
0010
0000
1000
,
0000
0000
0001
0000
,
0000
0010
0000
0000
,
0100
0010
0000
0000
;

//--------------- dance-single - 8Chasey ----------------
#NOTEDATA:;
#STEPSTYPE:dance-single;
#DESCRIPTION:8Chasey;
#DIFFICULTY:Medium;
#METER:4;
#RADARVALUES:0,0,0,0,0;
#NOTES:
0000
0000
0000
0000
,
0000
0000
0000
0000
,
0000
0000
0000
0000
,
0001
0010
0001
1000
,
0100
1000
0010
0100
,
0010
0100
0000
0000
,
0001
0000
0100
0001
,
1000
0000
0020
0000
,
0000
0030
1000
0001
,
1000
0000
0100
1000
,
0001
0000
0200
0000
,
0000
0300
0010
0010
,
0000
1000
1000
0010
,
1000
0000
0200
0000
,
0000
0300
0010
0100
,
0010
0000
0001
0100
,
0010
0000
2000
0000
,
3000
0002
1000
1003
,
0001
0100
0000
0010
,
1000
0000
0010
0200
,
0300
0100
0020
0030
,
1000
0100
0000
0010
,
0001
0000
0100
0020
,
0030
0010
0200
0300
,
0002
0000
0000
0103
,
0001
0000
0020
0000
,
0000
0130
0000
0000
,
2000
0000
0000
3100
,
1000
0000
0200
0000
,
0000
0310
0100
0010
,
0110
0000
0000
0001
,
0100
0000
0010
0000
,
0000
1000
0100
0000
,
0010
0001
0010
0100
,
1000
0100
0020
0000
,
0000
0130
0010
0100
,
0110
0000
1000
2000
,
0000
0000
3010
1000
,
0010
1000
0001
0000
,
0100
0000
0001
0002
,
0000
0000
0013
0001
,
0010
0001
1000
0100
,
0020
0000
0000
0100
,
0130
0000
0200
0000
,
0000
0010
0310
0000
,
2002
0000
3003
0001
,
0100
0010
0220
0000
,
0330
1000
0100
0010
,
0100
0100
0100
0020
,
0000
0031
2000
0000
,
3001
0100
0001
0100
,
0002
0000
0003
1000
,
0000
1000
0020
0000
,
0030
1000
0000
1000
,
0200
0000
1300
0020
,
0000
1030
0002
0000
,
1003
0100
1000
0100
,
2000
0000
3000
0001
,
0000
0001
0020
0000
,
0030
0001
0000
0001
,
0200
0000
0301
0020
,
0000
0030
0002
0000
,
0003
2000
0000
3000
,
2002
0000
3003
0001
,
0001
0000
1000
1000
,
0000
0010
0100
0000
,
0010
0020
0000
1030
,
0100
0000
0001
0100
,
0000
0010
0001
1000
,
0100
0000
0020
0000
0000
0030
0000
0000
;

//--------------- dance-single - 8Chasey ----------------
#NOTEDATA:;
#STEPSTYPE:dance-single;
#DESCRIPTION:8Chasey;
#DIFFICULTY:Hard;
#METER:6;
#RADARVALUES:0,0,0,0,0;
#NOTES:
0000
0000
0000
0000
,
0000
0000
0000
0000
,
0000
0000
0000
0000
,
0001
0000
0001
0100
0001
0000
1000
0000
,
1000
0100
1000
0000
0010
0000
0100
0000
,
0010
1000
0001
0000
,
0020
1000
1030
0001
,
0010
0000
0000
0100
0010
0000
0001
0000
,
1000
0000
0010
0000
0100
0010
0100
0000
,
0002
0000
0103
0101
,
0001
1000
0020
0000
,
1030
0100
0010
0110
,
0001
0000
0100
0001
0100
0000
0001
0000
,
1000
0010
2000
0010
,
3010
1000
0001
0010
,
0002
0000
0103
0010
,
0010
1000
0200
1000
,
1300
0001
1000
0010
,
0200
0000
0000
0001
0301
0000
0100
0000
,
0001
0000
1000
0000
0200
0000
0000
1000
,
1300
0010
2002
3003
,
0010
0000
1000
0010
1000
0000
0100
0000
,
0010
0000
0001
0000
0100
0000
0001
0100
,
0001
0010
2002
3003
,
0020
0001
0031
1000
,
0010
0000
0000
0100
0010
0000
1000
0000
,
0001
0000
0010
0000
0100
0010
0100
0000
,
2000
0000
3100
1100
,
1000
0001
0020
0000
,
0031
0100
0010
0110
,
1000
0000
0100
1000
0100
0000
1000
0000
,
0001
0010
0002
0010
,
0013
0001
1000
0010
,
2000
0000
3100
0010
,
0010
0001
0200
0001
,
0301
1000
0001
0010
,
0110
0000
0100
0020
,
0001
0000
0031
0000
1000
0000
0100
1000
,
0100
1000
0001
0100
,
0001
0000
1000
0010
1000
0000
0200
0000
,
1000
1300
0010
1000
,
0010
0000
0100
0001
0100
0001
0100
0000
,
0002
0000
0013
1001
,
1000
0001
2000
0000
,
3100
0110
0010
0100
,
0010
0001
0010
0000
0100
0000
1000
0000
,
0001
0000
0100
0000
0010
1000
0010
0000
,
0100
0000
0001
1000
0001
0000
1000
0000
,
0100
0100
0100
2002
,
3003
0000
0001
1000
0002
0000
0103
0000
,
0001
0010
0100
0000
0010
0000
0001
0000
,
1000
1010
0011
0200
,
0001
0310
1000
0010
,
0100
0002
0010
0013
,
0001
1000
0010
0220
,
0330
0000
1000
0001
2000
0000
3100
0000
,
1000
0010
0100
0000
0001
0000
1000
0000
,
0010
0100
0010
0000
0110
0000
0200
0000
,
0301
0000
0100
0000
0010
1000
0001
0000
,
1000
0002
0100
1003
,
0010
1000
0010
0000
1000
0000
0200
0000
,
0000
1300
2002
0000
,
3003
0000
0010
0000
0000
0100
0010
0000
,
0220
0000
0000
0000
0330
0000
0001
0010
,
0001
0000
0100
0000
0010
1000
0001
0000
,
1001
0000
1000
0010
1000
0000
0100
0000
,
1000
0000
0202
0000
0000
0303
0010
0001
,
0010
0000
0100
0000
1000
0001
1000
0000
,
0010
0100
0001
0000
1000
0000
0100
1000
,
0001
0000
2200
0000
0000
3300
0000
0000
;
