#TITLE:Body Rock;
#SUBTITLE:(from WarioWare D.I.Y.);
#ARTIST:Nintendo;
#TITLETRANSLIT:;
#SUBTITLETRANSLIT:;
#ARTISTTRANSLIT:;
#GENRE:;
#CREDIT:;
#BANNER:Banner_Missing.png;
#BACKGROUND:;
#LYRICSPATH:;
#CDTITLE:;
#MUSIC:Body Rock.ogg;
#OFFSET:-0.001000;
#SAMPLESTART:54.000000;
#SAMPLELENGTH:16.000000;
#SELECTABLE:YES;
#BPMS:0.000000=120.000000
;
#STOPS:
;
#BGCHANGES:;
#KEYSOUNDS:;
#ATTACKS:;

//---------------dance-single - ----------------
#NOTES:
     dance-single:
     :
     Hard:
     7:
     0.435709,0.535388,0.294159,0.232230,0.069669,394.000000,356.000000,38.000000,30.000000,0.000000,0.000000,0.435709,0.535388,0.294159,0.232230,0.069669,394.000000,356.000000,38.000000,30.000000,0.000000,0.000000:
// measure 0
0000
0000
0000
0000
,  // measure 1
0000
0000
0000
0000
,  // measure 2
0000
0000
0000
0000
,  // measure 3
0001
0100
0010
0001
0010
1000
0001
0000
,  // measure 4
1000
0010
1000
0001
0200
0000
0310
0000
,  // measure 5
0100
0001
1000
0000
0010
0100
0001
0000
,  // measure 6
1000
1001
0010
1001
,  // measure 7
0010
1000
0100
0001
0100
0010
0001
0000
,  // measure 8
0010
1000
0100
0010
0002
0000
1003
0000
,  // measure 9
0010
0100
1000
0001
0100
0001
0010
0000
,  // measure 10
1100
0101
0010
0110
,  // measure 11
0001
0000
1000
0001
0000
0000
0000
0000
0000
0000
0100
0000
0110
0000
0000
0000
,  // measure 12
1000
0000
0001
1000
0000
0000
0000
0000
0010
0000
1000
0000
0001
0000
0000
0000
,  // measure 13
0010
0001
1000
0000
0100
0100
0100
0010
,  // measure 14
0000
0100
0010
0000
0110
0000
1001
0000
,  // measure 15
0010
0000
0100
0010
0000
0000
0000
0000
0000
0000
1000
0000
0001
0000
0000
0000
,  // measure 16
0100
0000
0010
0100
0000
0000
0000
0000
0000
0000
0001
0000
1000
0000
0000
0000
,  // measure 17
0010
0001
0100
0000
0010
1000
0100
0000
,  // measure 18
0001
1000
0001
1000
0020
0100
0130
0000
,  // measure 19
0102
0000
0000
1003
0010
0100
0010
0000
,  // measure 20
2100
0000
0000
3001
0100
0001
1000
0000
,  // measure 21
0020
1030
0002
0103
,  // measure 22
0010
1000
0100
0010
0100
0000
0110
0000
,  // measure 23
0002
0000
0000
1003
0010
0100
0010
0000
,  // measure 24
2000
0000
0000
3001
0010
0100
1000
0000
,  // measure 25
0002
0013
0200
0310
,  // measure 26
1000
0010
0100
0010
0001
0000
0110
0000
,  // measure 27
0001
0100
0010
0001
0010
1000
0001
0000
,  // measure 28
1000
0010
1000
0001
0200
0000
0310
0000
,  // measure 29
0100
0001
1000
0000
0010
0100
0001
0000
,  // measure 30
1000
1001
0010
1001
,  // measure 31
0010
1000
0100
0001
0100
0010
0001
0000
,  // measure 32
0010
1000
0100
0010
0002
0000
1003
0000
,  // measure 33
0010
0100
1000
0001
0100
0001
0010
0000
,  // measure 34
1100
0101
0010
0110
,  // measure 35
0001
0000
0100
0001
0000
0100
0010
0000
1000
0000
1000
0000
0001
0000
0000
0000
,  // measure 36
0100
0000
0010
0000
0010
0000
0100
0000
0001
1000
0001
0000
0020
0000
0000
0000
,  // measure 37
0130
0000
1000
0000
0001
0000
0000
0010
0001
0000
0100
0000
0010
0000
0000
0000
,  // measure 38
1000
0101
0010
1100
,  // measure 39
0002
0000
0000
1000
0000
0000
1003
0000
0010
0000
0100
0000
0020
0000
0000
0000
,  // measure 40
2030
0000
0000
0001
0000
0000
3001
0000
0100
0000
0010
0000
0200
0000
0000
0000
,  // measure 41
0301
1000
0002
0000
1003
0001
0200
0000
,  // measure 42
0320
0000
1000
0000
0000
0230
0000
0000
0301
0000
0000
0000
1100
0000
0000
0000
,  // measure 43
0001
1000
0100
0010
0100
0001
0100
0000
,  // measure 44
1000
0010
0100
0010
0002
0000
0013
0000
,  // measure 45
0100
1000
0001
0100
1000
0100
0010
0000
,  // measure 46
1100
1010
0101
0011
,  // measure 47
0100
0010
1000
0100
0001
1000
0010
0000
,  // measure 48
0001
0100
0010
1000
0002
0000
0103
0000
,  // measure 49
1010
0000
0000
0000
0100
0000
0001
0000
0010
0000
0100
1000
0100
0000
0010
0000
,  // measure 50
0001
0100
0002
0000
1003
0100
1000
0001
,  // measure 51
0020
0000
0000
0000
0230
0000
0000
0000
1300
0000
0001
0020
0000
0000
0130
0000
,  // measure 52
1001
0000
0010
0010
,  // measure 53
1000
0000
0001
0000
0001
0000
0000
0000
0100
0000
0010
0100
0010
0000
0000
0000
,  // measure 54
1000
0010
0001
1000
0002
0000
0003
0000
,  // measure 55
1100
0000
0001
0000
0010
0100
0000
0100
1000
0000
0110
0000
1001
0000
0000
0000
,  // measure 56
1000
0010
0100
0100
0001
0010
1000
0000
,  // measure 57
0001
1000
0100
1000
0020
0000
0130
0000
,  // measure 58
0001
1000
0100
0010
0010
0100
1000
0000
,  // measure 59
0101
1100
0010
0010
,  // measure 60
0001
0000
0100
0010
0100
0000
0001
0000
1000
0000
0100
0000
1100
0000
0100
0000
,  // measure 61
0110
0010
0011
0000
1001
1000
1010
0000
,  // measure 62
0110
0000
0000
0000
0110
0000
0000
0000
0001
1000
0001
0000
0010
0000
0100
0000
;

//---------------dance-single - ----------------
#NOTES:
     dance-single:
     :
     Medium:
     4:
     0.312958,0.340701,0.247713,0.209007,0.007741,283.000000,251.000000,32.000000,27.000000,0.000000,0.000000,0.312958,0.340701,0.247713,0.209007,0.007741,283.000000,251.000000,32.000000,27.000000,0.000000,0.000000:
// measure 0
0000
0000
0000
0000
,  // measure 1
0000
0000
0000
0000
,  // measure 2
0000
0000
0000
0000
,  // measure 3
0001
0000
1000
0000
0100
1000
0001
0000
,  // measure 4
1000
0010
0002
1003
,  // measure 5
0001
1000
0100
0000
1000
0000
0001
0000
,  // measure 6
0010
0010
1001
1001
,  // measure 7
0010
1000
0100
0000
0010
0000
0001
0000
,  // measure 8
0100
0001
2000
3001
,  // measure 9
1000
1000
0001
0001
,  // measure 10
0010
0100
0110
0110
,  // measure 11
0020
0000
0031
0000
0010
0001
0010
0000
,  // measure 12
0200
0000
1300
0000
0100
0000
1000
0001
,  // measure 13
0200
0000
0301
1000
,  // measure 14
1001
0000
0000
0100
1000
0001
0100
0000
,  // measure 15
1010
0000
0000
0000
0101
0000
0001
1000
,  // measure 16
0100
1000
0001
0010
,  // measure 17
0002
0013
2000
3010
,  // measure 18
0200
0000
0000
0000
0310
0100
0010
0000
,  // measure 19
1000
0000
0001
1000
0000
0010
1000
0000
,  // measure 20
0001
0000
1000
0001
0000
0100
0001
0000
,  // measure 21
0010
0011
0100
1100
,  // measure 22
1000
1001
0001
1001
,  // measure 23
0010
0000
1000
0100
0000
1000
0100
0000
,  // measure 24
0010
0000
0001
0100
0000
0001
0100
0000
,  // measure 25
0002
0103
2000
3100
,  // measure 26
0020
0030
1001
1001
,  // measure 27
0100
1000
0001
0000
0100
0000
0001
0000
,  // measure 28
1000
0010
0020
0030
,  // measure 29
1000
0001
0100
0000
0001
0000
1000
0000
,  // measure 30
0020
0000
1030
0001
,  // measure 31
1000
0000
0100
0000
1000
0001
0010
0000
,  // measure 32
0002
0100
1003
0000
,  // measure 33
1010
0000
1001
0000
,  // measure 34
1100
0101
0010
0010
,  // measure 35
0001
0000
0000
0100
0000
0000
0001
0000
1000
0000
0000
0000
0100
0000
0000
0000
,  // measure 36
0000
1000
0001
1000
0001
0000
1001
0000
,  // measure 37
2000
3010
0002
0013
,  // measure 38
0000
1000
0100
0000
0001
0000
0100
0000
,  // measure 39
0010
1000
0100
0000
0010
0000
0100
0000
,  // measure 40
1000
0001
0000
0001
0000
0001
1000
0000
,  // measure 41
0020
1030
0002
0103
,  // measure 42
2002
3003
0010
1001
,  // measure 43
0100
1000
0001
0100
,  // measure 44
0010
0100
0010
0000
0020
0000
0030
0000
,  // measure 45
0010
1000
0001
0000
0100
0000
0100
0000
,  // measure 46
1001
1001
0110
0110
,  // measure 47
2000
3100
0002
0103
,  // measure 48
0010
0000
1000
0000
0001
1000
0001
1000
,  // measure 49
0100
0000
1000
0001
,  // measure 50
0010
0001
1000
0000
0000
0100
1000
0000
,  // measure 51
0020
0000
0000
0000
0000
0000
0000
0000
0130
0000
0000
0001
0000
0000
1000
0000
,  // measure 52
1001
0000
0100
0100
,  // measure 53
0000
0000
1001
0000
0000
0001
1000
0001
,  // measure 54
0000
1000
0001
1000
0000
0000
0010
0000
,  // measure 55
1000
0001
1000
0001
0010
0001
0100
0000
,  // measure 56
0010
0120
0000
0130
,  // measure 57
0000
1000
0100
0010
0001
0000
0000
0000
,  // measure 58
0002
0103
2000
3100
,  // measure 59
0010
0000
1100
0101
,  // measure 60
0000
1000
0000
0001
,  // measure 61
1000
0001
1100
0101
,  // measure 62
0110
0000
0000
0000
1000
0001
0100
0010
;

//---------------dance-single - ----------------
#NOTES:
     dance-single:
     :
     Easy:
     2:
     0.204584,0.242874,0.077410,0.232230,0.000000,185.000000,175.000000,10.000000,30.000000,0.000000,0.000000,0.204584,0.242874,0.077410,0.232230,0.000000,185.000000,175.000000,10.000000,30.000000,0.000000,0.000000:
// measure 0
0000
0000
0000
0000
,  // measure 1
0000
0000
0000
0000
,  // measure 2
0000
0000
0000
0000
,  // measure 3
2000
0000
3001
1000
,  // measure 4
0200
0000
0310
0000
,  // measure 5
0002
0000
0103
0001
,  // measure 6
2000
0000
3010
0010
,  // measure 7
0200
0000
0301
0010
,  // measure 8
0002
0000
1003
0000
,  // measure 9
0100
1000
0001
0000
,  // measure 10
0010
0000
0100
0100
,  // measure 11
0020
0000
0031
0010
,  // measure 12
0200
0000
1300
0001
,  // measure 13
0200
0300
0020
0030
,  // measure 14
2002
0000
3003
1001
,  // measure 15
2000
0000
3100
0010
,  // measure 16
0002
0000
1003
0000
,  // measure 17
0010
1000
0100
0001
,  // measure 18
0220
0000
0330
0110
,  // measure 19
0100
0000
0001
1000
,  // measure 20
0100
0000
0010
0000
,  // measure 21
1000
0100
0001
0100
,  // measure 22
1000
0100
0001
0100
,  // measure 23
0010
0000
1000
0001
,  // measure 24
0100
0000
0010
0000
,  // measure 25
1000
0010
0001
0010
,  // measure 26
0200
0000
0310
0010
,  // measure 27
0100
1000
0001
0000
,  // measure 28
0100
0010
0100
0000
,  // measure 29
0001
0001
1000
1000
,  // measure 30
0020
0000
0100
0130
,  // measure 31
0001
0010
1000
0000
,  // measure 32
0001
0100
1000
0000
,  // measure 33
0010
0000
1000
0000
,  // measure 34
0001
0000
0100
0100
,  // measure 35
0002
0000
0013
0000
,  // measure 36
0100
0000
1000
0000
,  // measure 37
0001
0000
2000
0000
,  // measure 38
3000
0010
1000
0001
,  // measure 39
0100
0000
0011
0000
,  // measure 40
1010
0000
1001
0000
,  // measure 41
1000
0010
0100
0001
,  // measure 42
0020
0000
0130
0010
,  // measure 43
0001
0001
0100
0000
,  // measure 44
1000
1000
0100
0000
,  // measure 45
0010
0001
1000
0000
,  // measure 46
0100
1000
0010
0010
,  // measure 47
0200
0000
0301
1000
,  // measure 48
0200
0000
0310
0000
,  // measure 49
0100
1000
0100
0001
,  // measure 50
0100
0020
0000
0030
,  // measure 51
0010
0001
1000
0010
,  // measure 52
0200
0000
0310
0100
,  // measure 53
0001
0011
0000
0001
,  // measure 54
1000
1010
0000
1000
,  // measure 55
0001
1000
0100
0000
0020
0000
0130
0000
,  // measure 56
2000
0100
0000
3001
,  // measure 57
0010
0001
0100
0000
,  // measure 58
0002
0100
0000
1003
,  // measure 59
0010
1000
0100
0000
,  // measure 60
2000
0000
0000
3001
,  // measure 61
0002
1000
0000
1003
,  // measure 62
0001
1000
0010
1001
;
