#TITLE:Blow Me Up;
#SUBTITLE:(Definitive Version);
#ARTIST:Heath Whitelock;
#TITLETRANSLIT:;
#SUBTITLETRANSLIT:;
#ARTISTTRANSLIT:;
#GENRE:April Fools;
#CREDIT:8Chaser 2026;
#MUSIC:Blow Me Up (Definitive Version).ogg;
#BANNER:Blow Me Up (Definitive Version)-bn.png;
#BACKGROUND:Blow Me Up (Definitive Version)-bg.png;
#CDTITLE:cdtitle.png;
#SAMPLESTART:57.790;
#SAMPLELENGTH:12.000;
#SELECTABLE:YES;
#OFFSET:-0.372;
#BPMS:0.000=280.000
,32.000=70.010
,67.000=140.000
,81.500=280.000
,86.000=140.000
,109.000=280.000
,117.500=560.000
,121.500=140.000
,142.750=560.000
,158.750=140.000
,161.000=560.000
,165.000=140.000
,173.000=420.000
,179.000=70.000
,180.000=560.000
,184.000=140.000
,214.000=280.000
,223.500=35.000
,230.500=280.000
,238.500=70.000
,252.000=140.000
,257.000=1.000
;
#STOPS:62.000=0.857
,71.000=0.214
,74.625=0.214
,74.750=0.214
,81.500=0.750
,115.500=0.107
,116.000=0.107
,117.000=0.107
,135.250=0.214
,137.563=0.214
,137.813=0.214
,138.063=0.214
,138.313=0.214
,138.500=0.107
,160.750=0.321
,214.000=0.321
;
#DISPLAYBPM:1.000:999.000;
#BGCHANGES:;
#FGCHANGES:;

//--------------- dance-single - ----------------
#NOTES:
     dance-single:
     :
     Challenge:
     1:
     0,0,0,0,0:
0000
0000
0000
0000
,
M000
M000
M000
M000
M000
M000
M000
M000
,
M000
MMMM
0000
0000
0MM0
M00M
M00M
M00M
,
M00M
M00M
M00M
M00M
M00M
0MM0
0000
M000
,
M000
M000
M000
M000
M000
M000
M000
M000
,
MMMM
0000
0000
0000
,
1001
0000
1001
0000
0000
0000
0001
1000
,
0110
1001
0110
0010
,
0200
0010
0001
0000
1000
0010
0000
0010
0301
0000
0011
0010
0001
1000
0100
0020
,
1000
1000
0100
0000
0001
0100
0000
0100
0031
0100
2000
0100
3100
0001
0010
0210
,
1000
0010
0001
0000
0010
1000
0000
1000
0310
0001
0200
0010
0310
1000
0100
0012
,
0100
0000
1000
0000
0010
0000
0000
0000
1000
0000
0100
0000
0100
0000
1003
0000
0100
1000
0010
0100
0001
0000
0100
0001
0010
0100
0010
0000
0110
0000
0100
0000
,
1000
0100
2000
0000
3012
0000
1000
0000
0100
1000
0100
0010
0000
1100
1003
0010
,
0100
0100
0002
0000
2103
0000
0010
0000
0100
0010
0010
0001
0011
0100
3010
0000
,
0110
0200
0020
0000
1331
0000
1000
0002
0000
1000
0023
1000
0230
2000
0301
3001
,
1001
0000
0000
0000
1000
0000
0000
0000
0010
0000
0000
0000
0000
0000
0000
0000
0110
0000
0000
0000
0100
0000
0000
0000
0001
0000
0000
0000
0010
0000
0000
0000
0102
0000
0000
0000
1000
0000
0000
0000
0000
0000
0103
0000
0000
0000
0000
0000
0210
0000
0000
0000
0000
0000
0000
0010
0000
0000
0000
0000
0000
0000
2300
0000
,
0000
0000
0000
0000
0000
0000
0000
0000
0000
0000
0000
0000
0100
0000
0010
0000
3201
0000
0000
0000
0000
0010
0000
0000
0000
0000
0000
1000
0000
0000
0000
0000
0310
0000
0000
0000
0000
0100
0000
0000
0000
0000
0000
0000
0010
0000
0000
0000
0001
0000
0000
0000
0010
0000
0000
0000
0100
0000
0000
0000
1000
0000
0000
0000
,
0100
0010
0001
0000
1000
0000
1001
0000
0001
1000
0010
0000
0110
0000
0101
0100
,
0001
0000
0000
0000
0000
0000
0000
0000
0000
0000
0000
0000
0010
0000
0000
0000
0000
0000
0000
0000
0000
0000
0000
0000
1000
0000
0000
0000
0000
0000
0000
0000
0000
0000
0000
0000
0010
0000
0000
0000
0000
0000
0000
0000
0000
0000
0000
0000
0100
0000
0000
0000
0000
0000
0010
0000
0000
0000
0000
0000
0000
0000
0000
0000
0000
0000
0000
0000
0000
0000
0000
0000
1000
0000
0000
0000
0000
0000
0000
0000
0000
0000
0000
0000
0100
0000
0000
0000
0000
0000
0000
0000
0000
0000
0000
0000
1000
0000
0000
0000
0000
0000
0000
0000
0000
0000
0000
0000
0000
0000
0000
0000
0000
0000
0000
0000
0000
0000
0000
0000
0110
0000
0000
0000
0000
0000
0002
0003
0000
0000
0000
0000
1010
0000
0000
0000
0000
0000
0000
0000
0000
0000
0000
0000
1000
0000
0000
0000
0000
0000
0000
0000
0000
0000
0000
0000
0100
0000
0000
0000
0000
0000
0000
0000
0000
0000
0000
0000
1000
0000
0000
0000
0000
0000
0000
0000
0000
0000
0000
0000
0010
0000
0000
0000
0000
0000
0000
0000
0000
0000
0000
0000
,
0100
0001
0011
0022
0000
0033
1100
0000
1000
0010
0100
0001
0010
0100
0010
0000
,
0010
0000
0000
0000
0000
0000
0001
0000
0000
0000
0000
0000
0000
0000
0000
0000
0000
0000
0000
0000
0000
0000
0000
0000
0000
0000
0000
0000
0000
0000
0000
0000
0000
0000
0000
0000
1000
0000
0000
0000
0000
0000
0000
0000
0000
0000
0000
0000
0100
0000
0000
0000
0000
0000
0000
0000
0000
0000
0000
0000
0000
0000
0000
0000
0000
0000
0000
0000
0000
0000
0000
0000
2011
3000
1000
0000
0000
0000
0000
0000
0000
0000
0000
0000
0000
0000
0000
0000
0000
0000
0000
0000
0000
0000
0000
0000
0012
0000
0000
0000
0000
0000
0000
0000
0000
0000
0000
0000
0000
0000
0000
0000
0000
0000
0000
0000
0000
0000
0000
0000
0000
0000
0000
0000
0000
0000
0000
0000
0000
0000
0000
0000
0000
0000
0000
0000
0000
0000
0000
0000
0000
0000
0000
0000
0003
0000
0000
0000
0000
0000
0000
0000
0000
0000
0000
0000
0000
0000
0000
0000
0000
0000
0000
0000
0000
0000
0000
0000
0101
0000
0000
0000
0000
0000
0000
0000
0000
0000
0000
0000
0000
0000
0000
0000
0000
0000
0000
0000
0000
0000
0000
0000
,
0000
0000
0001
0000
2002
0000
3003
0000
1000
0000
0100
0000
0021
0000
1000
0130
,
0000
0001
1010
0000
1001
0000
1000
0001
1000
0100
0010
0100
0110
0000
0010
0002
,
0000
1000
0203
0000
1310
0000
0101
0000
0001
0110
0000
1001
0200
0000
0001
2320
,
0000
0000
3130
0000
0011
0000
1001
0100
2000
0000
0100
0010
0011
0001
0010
0100
,
0000
0010
0100
0001
3010
0100
0012
0000
0100
0000
0010
0100
1010
0000
0100
1000
,
0023
0000
0000
0100
1031
0000
0110
0000
1202
0000
0010
1000
0013
0000
1000
0010
,
0001
1000
1000
0010
0301
0000
0100
0000
1000
0000
0001
0000
0010
0000
1000
0000
,
0100
0010
0001
1000
0010
0100
0110
1001
,
1100
1100
0011
0002
0000
0203
0000
2300
,
0000
0000
3020
0000
0000
0000
0230
0000
0001
0001
1320
0000
1000
0100
1000
1000
,
0001
0100
2031
0000
0110
0000
0011
0000
0001
0010
3102
0000
0010
1000
1000
0100
,
1000
0000
0010
0000
1103
0000
0000
0000
0011
0000
0000
0000
0001
0000
0100
0000
0010
0000
1000
0000
0001
0000
0100
0000
0010
0000
1000
0000
0100
0010
0000
0000
,
0100
0000
0000
0000
0000
0000
0000
0000
0000
0000
0000
0000
0000
0000
0000
0000
0000
0000
0000
0000
0000
0000
0000
0000
0011
0000
0000
0000
0000
0000
0000
0000
0000
0000
0000
0000
0000
0000
0000
0000
0000
0000
0000
0000
0000
0000
0000
0000
1100
0000
0000
0000
0000
0000
0000
0000
0000
0000
0000
0000
0000
0000
0000
0000
0000
0000
0000
0000
0000
0000
0000
0000
0100
0000
0000
0000
0000
0000
0000
0000
0000
0000
0000
0000
1000
0000
0000
0000
0000
0000
0000
0000
0000
0000
0000
0000
0010
0000
0000
0000
0000
0000
0000
0000
0000
0000
0000
0000
0110
0000
0000
0000
0000
0000
0000
0000
0000
0000
0000
0000
0000
0000
0000
0000
0000
0000
0000
0000
0000
0000
0000
0000
0100
0000
0000
0000
0000
0000
0000
0000
0000
0000
0000
0000
0002
0000
0000
0000
0000
0000
0000
0000
0000
0000
0000
0000
2000
0003
0000
0000
0000
0000
0000
0000
0000
0000
0000
0000
3100
0000
0000
0000
0000
0000
0000
0000
0000
0000
0000
0000
0000
0000
0000
0000
0000
0000
0000
0000
0000
0010
0000
0000
,
0001
0000
0000
0000
0000
0000
0000
0000
1001
0000
0000
0000
0000
0000
0000
0000
1100
0000
0000
0000
1000
0000
0000
0000
0010
0001
0000
0000
0100
0010
0000
0000
1000
0100
0000
0000
0010
0100
0000
0000
1001
0000
0000
0000
1000
0000
0000
0000
0100
0000
0000
0000
1000
0000
0000
0000
0001
0000
0000
0000
0110
0000
0000
0000
,
0001
0000
0000
1000
0000
0000
0001
0000
0000
0100
0000
0000
0010
0000
0000
0001
0000
0000
0000
0000
0000
1100
0000
0000
0001
0000
0000
1000
0000
0100
0000
0010
0000
0002
0000
0000
0000
0000
0000
0000
0000
0000
0000
0000
0000
0000
0000
0000
,
0000
0000
0000
0000
0000
0000
0000
1100
0000
0000
0000
0000
0000
0000
0000
0000
,
0000
0000
0000
1100
0000
0000
0000
0000
0000
0000
0000
1100
0000
0000
0000
0000
,
0000
0000
0000
0010
0000
0000
0000
0000
0000
0000
0000
2000
0000
0000
0000
3200
,
0000
0000
0000
0320
0000
0000
0000
0230
0000
0000
0000
1303
0000
0010
0100
0011
,
0000
0001
1000
0020
2030
0000
0000
0000
3002
0000
0000
0000
0023
0000
0000
0000
,
0230
0000
0000
0000
1300
0000
0010
0100
0011
0000
1000
0010
0101
0000
1000
0110
,
1001
0000
0000
0000
0000
0000
0100
0000
0000
0001
0000
0000
2100
0000
0000
0000
0000
0000
0001
0000
0000
0000
0000
0000
3110
0000
0000
0000
0000
0000
0001
0000
0010
0000
0100
0000
1000
0000
0100
0000
0010
0000
0001
0000
0010
0000
0100
0000
,
1000
0100
0010
0001
0000
0000
1100
0000
0000
0000
0000
0000
0001
0000
0000
0000
0000
0000
0010
0000
0000
0000
0000
0000
,
1001
0000
0000
0000
0000
0000
0000
0000
0010
0000
0000
0000
0000
0000
0000
0000
0100
0000
0000
0000
0000
0000
0000
0000
1000
1000
1000
0000
1000
0000
1000
1000
,
0020
0032
0203
2300
,
3011
0100
0000
1010
0000
0100
0011
1000
0100
0010
1001
0000
1100
0010
0100
0010
,
0101
0000
1000
0110
0000
1001
0000
0110
0001
1000
0010
0100
0020
0000
1000
0100
,
0001
0000
0001
0100
0000
0100
1000
0100
0031
1000
0100
0010
0001
1000
0100
0010
,
1001
0000
1000
0010
1000
0000
0100
0010
0001
0000
1000
0100
0022
0000
0000
0000
,
1130
0000
0100
1000
0000
0010
1000
0000
1103
0000
0010
0100
2020
0000
0000
0000
,
3101
0000
0001
0100
0000
0100
1000
0100
0031
0000
0100
1000
0220
0000
0000
0000
,
1031
0000
1000
0010
1000
0000
0010
0001
1000
0001
0310
0000
2002
0000
0000
0000
,
0113
0000
0010
0001
0000
0000
0110
0000
3101
0000
0111
0000
1000
0000
0201
0000
,
0000
0011
0000
0011
0000
1000
0010
1000
,
0000
0000
0010
0000
1000
0000
0000
0000
0010
0000
0001
0000
0310
0000
1012
1010
,
1010
0000
0000
0000
1000
0010
1000
0010
0000
1010
0003
0000
2101
0000
0101
0000
0101
0000
0000
0000
0001
0100
0001
3100
0010
0001
0010
0200
1001
0000
1001
0000
,
1001
0000
0000
0000
0010
0000
1001
0000
0000
0000
1001
0000
0010
0000
1001
0000
0010
0000
1301
0000
0100
0000
0002
0020
2000
0000
0000
0000
0000
0000
0000
0000
0000
0000
0000
0000
0000
0000
3133
0000
0220
0000
0000
0000
0000
0000
0000
0000
0000
0000
0000
0000
0000
0000
0000
0000
0000
0000
0000
0000
0000
0000
0000
0000
,
0330
2002
0000
0000
3003
0220
0000
0000
,
0330
0000
2002
0000
0000
0000
0010
0000
3003
0000
0100
0010
1100
1000
0011
0001
,
0100
0010
2000
0100
0010
0002
0000
0100
3013
0000
0110
0100
0010
0000
1000
0100
,
0010
0001
0020
0200
0002
2000
0000
0000
3333
0000
1100
0000
0011
0000
1001
0000
,
0100
0010
1000
0001
0100
0010
0110
1001
0000
1001
0110
0000
1100
0000
0011
0000
,
1000
0000
0001
0010
1100
0000
1100
0000
0010
0000
1000
0100
0011
0000
0011
0000
,
0200
0000
0000
0000
0000
0000
0000
0000
0000
0000
0000
0000
0000
0000
0000
0000
0000
0000
0000
0000
0000
0000
0000
0000
0020
0000
0000
0000
0000
0000
0000
0000
0000
0000
0000
0000
0000
0000
0000
0000
0000
0000
0000
0000
0000
0000
0000
0000
2332
3003
0000
0000
0000
0000
0000
0000
0000
0000
0000
0000
0000
0000
0000
0000
0000
0000
0000
0000
0000
0000
0000
0000
0000
0000
0000
0000
0000
0000
0000
0000
0000
0000
0000
0000
0000
0000
0000
0000
0000
0000
0000
0000
0000
0000
0000
0000
0000
0000
0000
0000
0000
0000
0000
0000
0000
0000
0000
0000
0000
0000
0000
0000
0000
0000
0000
0000
0000
0000
0000
0000
0000
0000
0000
0000
0000
0000
0000
0000
0000
0000
0000
0000
0000
0000
0000
0000
0000
0000
0000
0000
0000
0000
0000
0000
0000
0000
0000
0000
0000
0000
0000
0000
0000
0000
0000
0000
0000
0000
0000
0000
0000
0000
0000
0000
0000
0000
0000
0000
0000
0000
0000
0000
0000
0000
0000
0000
0000
0000
0000
0000
0000
0000
0000
0000
0000
0000
0000
0000
0000
0000
0000
0000
;

//--------------- dance-double - Copied from ----------------
#NOTES:
     dance-double:
     Copied from:
     Challenge:
     1:
     0,0,0,0,0:
00000000
00000000
00000000
00000000
,
00000000
00MMMM00
0M0000M0
0M0000M0
M0M00M0M
M0M00M0M
M0M00M0M
M0M00M0M
,
M0M00M0M
M0M00M0M
M0M00M0M
M000000M
MM0000MM
MM0000MM
M0M00M0M
M00MMM0M
,
0M0000M0
0M0000M0
00MMMM00
00000000
00000000
00000000
00000000
00000000
,
00MMMM00
00MMMM00
00MMMM00
00MMMM00
00MMMM00
00MMMM00
00MMMM00
00MMMM00
,
MMMMMMMM
MMMMMMMM
0MMMMMM0
0MMMMMM0
00MMMM00
00MMMM00
000MM000
000MM000
,
11000000
00000000
00000011
00000000
00100000
00000000
00000100
00100000
,
00000011
11000000
00011000
00000000
,
00100200
00010000
00001000
00000010
00000301
00001000
00010000
10000000
00010000
10000000
01000000
00100000
00001000
00010000
00000100
00000020
,
00000001
00000100
00001000
00010000
02000030
00100000
00010000
00001000
03000100
00010000
00001000
00100000
01000000
10000000
01000000
00120000
,
00001000
00100000
02030000
10000000
00100000
03020000
00001000
00000100
00030020
00000001
00000100
00002030
00000001
00000100
00003010
00000110
,
00000100
00000000
00001000
00000000
00010000
00000000
01000000
00000000
00010000
00000000
00001000
00000000
00100000
00000000
01000000
00000000
10000000
00010000
10000000
01000000
00100000
00000000
00001000
00010000
00000100
00001000
00000010
00000000
00000110
00000000
00000100
00000000
,
00000002
00000010
00001000
00000000
00020103
00000000
00130000
00000000
10000000
00100000
00010000
00000200
00001000
00001000
00000000
00001300
,
20000000
00100000
00010000
00000000
31002000
00000000
00003010
00000000
00000001
00000010
00001000
02000000
00010000
00010000
00000000
03010000
,
10100000
00000000
00011000
00000000
00000101
00000000
00001001
10010000
00000000
00011000
00100000
00011000
00000100
00011000
00000000
00000010
,
00011000
00000000
00000000
00000000
01000000
00000000
00000000
00000000
00011000
00000000
00000000
00000000
00000000
00000000
00000000
00000000
01000010
00000000
00000000
00000000
00000000
00000000
00000000
00000000
00100100
00000000
00000000
00000000
00000000
00000000
00000000
00000000
00002002
00000000
00003000
00000000
00010000
00000000
00000000
00000000
00000000
00000000
00001000
00000000
00000003
00000000
00000000
00000000
00001020
00000000
00000000
00000000
00000000
00000000
00000000
00100000
00000000
00000000
00000000
00000000
00000000
00000000
02000000
00000000
,
00000000
00000000
00000000
00000000
00000000
00000000
00000000
00000000
00000000
00000000
03000000
00000000
00100030
00000000
00010000
00000000
00001200
00000000
00000000
00000000
00000000
00010000
00000000
00000000
00000000
00000000
00000000
00100000
00000000
00000000
00000000
00000000
01000000
00000000
00000000
00000000
00000000
10000000
00000000
00000000
00000000
00000000
00000000
00000000
01000300
00000000
00000000
00000000
00001000
00000000
00000000
00000000
00010000
00000000
00000000
00000000
01000000
00000000
00000000
00000000
10000000
00000000
00000000
00000000
,
01000000
00010000
00001000
00000100
00000001
00000000
00001001
00000000
00001000
00000100
00010000
00000000
00011000
00000000
11000000
10000000
,
01000000
00000000
00100000
00000000
00001000
00000000
00010000
00000000
00000100
00000010
00000000
00000000
00000001
00000000
00000100
00000000
00000001
00000000
00001000
00000000
00000110
00000002
00011003
00000000
01000000
00000000
00001000
00000000
01000000
00000000
00100000
00000000
,
10000000
00100000
01100000
02200000
00000000
03300000
00000110
00000000
00000100
00000010
00001000
00000100
00000010
00000000
00000001
00000000
,
00001000
00000000
00000000
00000000
00000000
00000000
00000001
00000000
00000000
00000000
00000000
00000000
00000000
00000000
00000000
00000000
00000000
00000000
00000000
00000000
00000000
00000000
00000000
00000000
00000000
00000000
00000000
00000000
00000000
00000000
00000000
00000000
00000000
00000000
00000000
00000000
00010000
00000000
00000000
00000000
00000000
00000000
00000000
00000000
00000000
00000000
00000000
00000000
00001000
00000000
00000000
00000000
00000000
00000000
00000000
00000000
00000000
00000000
00000000
00000000
00000000
00000000
00000000
00000000
00000000
00000000
00000000
00000000
00000000
00000000
00000000
00000000
02000110
03000000
01000000
00000000
00000000
00000000
00000000
00000000
00000000
00000000
00000000
00000000
00000000
00000000
00000000
00000000
00000000
00000000
00000000
00000000
00000000
00000000
00000000
00000000
00002100
00000000
00000000
00000000
00000000
00000000
00000000
00000000
00000000
00000000
00000000
00000000
00000000
00000000
00000000
00000000
00000000
00000000
00000000
00000000
00000000
00000000
00000000
00000000
00000000
00000000
00000000
00000000
00000000
00000000
00000000
00000000
00000000
00000000
00000000
00000000
00000000
00000000
00000000
00000000
00000000
00000000
00000000
00000000
00000000
00000000
00000000
00000000
00003000
00000000
00000000
00000000
00000000
00000000
00000000
00000000
00000000
00000000
00000000
00000000
00000000
00000000
00000000
00000000
00000000
00000000
00000000
00000000
00000000
00000000
00000000
00000000
00110000
00000000
00000000
00000000
00000000
00000000
00000000
00000000
00000000
00000000
00000000
00000000
00000000
00000000
00000000
00000000
00000000
00000000
00000000
00000000
00000000
00000000
00000000
00000000
,
00000000
00000000
00001000
00000000
00020200
00000000
00030300
00000000
00001000
00000000
00100000
00000000
12000000
00000000
00010000
03001000
,
00000000
00000001
00000110
00000000
10010000
00000000
01000000
00100000
01000000
00000100
00000010
00000100
00022000
00000000
00033001
00000110
,
00000000
00001000
00010000
00000000
01100000
00000000
10000000
01000000
00010000
00000110
00000000
01100000
00002000
00000000
00000001
00023200
,
00000000
00000000
10030300
00000000
01100000
00000000
00011000
00000100
00000002
00000000
00000100
00001000
01100000
00000000
10000000
00010000
,
00000000
00001000
01000010
00000100
00010003
00001000
20010000
00100000
01000000
00000000
00010000
00001000
00000110
00000000
00000001
00000100
,
30002000
00000000
00000000
00013000
00100100
00000000
01000010
00000000
00020201
00000000
00001000
00000001
00001300
00000000
00000010
00000100
,
00001000
00100000
00100000
00001000
00030100
00000000
10000000
00000000
01000000
00000000
00010000
00000000
00000001
00000000
00000010
00000000
,
00001000
00100000
00000100
00010000
00001000
00000100
00000011
00100100
,
11000000
11000000
00011000
00000002
00000000
00000203
00000000
00200300
,
00000000
00000000
20300000
00000000
00000000
00000000
30012000
00000000
01000000
00100000
00003102
00000000
00000010
00001000
00000100
00000100
,
00100000
00001000
00120003
00000000
00000110
00000000
00001001
00000000
00000100
00100000
21030000
00000000
01000000
00010000
00100000
00001000
,
00010000
00000100
30000011
00000000
00011000
00000000
10000000
00100000
01000000
00010000
00100000
00001000
00010000
00000100
00001000
00000010
,
00000100
00000000
00000000
00000000
00000001
00000000
00000000
00000000
00000010
00000000
00000000
00000000
00000100
00000000
00000000
00000000
00001000
00000000
00000000
00000000
00010000
00000000
00000000
00000000
00100000
00000000
00000000
00000000
01000000
00000000
00000000
00000000
10000000
00000000
00000000
00000000
01100000
00000000
00000000
00000000
00000000
00000000
00000000
00000000
00010000
00000000
00000000
00000000
00001000
00000000
00000000
00000000
00000120
00000000
00000000
00000000
00000031
00000000
00000000
00000000
00000000
00000000
00000000
00001000
,
00010000
00000000
00000000
00000000
00000000
00000000
00000000
00000000
10000000
00000000
00000000
00000000
00000000
00000000
00000000
00000000
11000000
00000000
00000000
00000000
00100000
00000000
00000000
00000000
00000100
00000010
00000000
00000000
00010000
00001000
00000000
00000000
01000000
00100000
00000000
00000000
10000000
00010000
00000000
00000000
00001001
00000000
00000000
00000000
00000010
00000000
00000000
00000000
00000100
00000000
00000000
00000000
00001000
00000000
00000000
00000000
00010000
00000000
00000000
00000000
01100000
00000000
00000000
00000000
,
00001000
00000000
00000000
00010000
00000000
00000000
00001000
00000000
00000000
01000000
00000000
00000000
00100000
00000000
00000000
01000000
00000000
00000000
00000000
00000000
00000000
10010000
00000000
00000000
00100000
00000000
00000000
00010000
00000000
00001000
00000000
00000100
00000000
00000022
00000000
00000000
00000000
00000000
00000000
00000000
00000000
00000000
00000000
00000000
00000000
00000000
00000000
00000000
,
00000000
00000000
00000000
00000000
00000000
00000000
00000000
11000000
00000000
00000000
00000000
00000000
00000000
00000000
00000000
00000000
,
00000000
00000000
00000000
00001100
00000000
00000000
00000000
00000000
00000000
00000000
00000000
00110000
00000000
00000000
00000000
00000000
,
00000000
00000000
00000000
01001000
00000000
00000000
00000000
00000000
00000000
00000000
00000000
00000200
00000000
00000000
00000000
20000300
,
00000000
00000000
00000000
30002000
00000000
00000000
00000000
02003000
00000000
00000000
00000000
03110033
00000000
00001000
00010000
00000110
,
00000000
00000001
00001000
00000200
00000320
00000000
00000000
00000000
00000032
00000000
00000000
00000000
00000203
00000000
00000000
00000000
,
00002300
00000000
00000000
00000000
01003000
00000000
00100000
01000000
00011000
00000000
00000100
00000010
00000001
00000100
00000010
01100000
,
00011000
00000000
00000000
00000000
00000000
00000000
10000000
00000000
00000000
01000000
00000000
00000000
00012000
00000000
00000000
00000000
00000000
00000000
00000001
00000000
00000000
00000000
00000000
00000000
00003110
00000000
00000000
00000000
00000000
00000000
00000001
00000000
00000010
00000000
00000100
00000000
00001000
00000000
00010000
00000000
00100000
00000000
01000000
00000000
10000000
00000000
01000000
00000000
,
00100000
00010000
00001000
00000100
00000010
00000001
11000000
00000000
00000000
00000000
00000000
00000000
00000200
00000000
00000000
00000000
00000000
00000000
00200000
00000000
00000000
00000000
00000000
00000000
,
00311300
00000000
00000000
00000000
00000000
00000000
00000000
00000000
00000020
00000000
00000000
00000000
00000000
00000000
00000000
00000000
02000000
00000000
00000000
00000000
00000000
00000000
00000000
00000000
03000130
00000100
00000100
00000000
00000100
00000000
00000100
00000100
,
00000002
00020003
00032000
20003000
,
30110000
01000000
00000000
00001100
00000000
00000010
00000101
00000000
00001000
00010000
01100000
00000000
00011000
00100000
00000100
00001000
,
00000011
00000000
00010000
00000110
00000000
01100000
00000000
00000110
00001000
00010000
00100000
01000000
00200000
00000000
00000000
00010000
,
00000101
00010000
00000010
00011000
00000000
00010100
00000010
00010000
00000100
00020000
00000010
00000000
01330000
00000000
10000000
00000000
,
01000000
00010000
01000000
10000000
01000000
00010000
00001202
00000000
,
00010300
00000000
00100000
00010000
00000000
01000000
10000000
01000000
00010000
00000000
10000013
00000100
01100020
00000000
00010000
00000000
,
00001000
00010000
00100000
01000000
00000000
10000000
01000000
00100000
00010000
00000000
01100130
00001000
10010200
00000000
10000000
00100000
,
10000000
00000000
01000000
00100000
00000000
01000000
10000000
00100000
01000000
00000000
10001300
00010000
01002000
00000000
00100000
00000000
,
00010000
00000000
10000000
00010000
00000000
01000000
00100000
00000000
00013001
00000000
00002110
00000000
00010000
00000000
00000001
00000000
,
00000000
00000110
00000000
00000001
00000000
00023000
00100000
00001000
,
00000000
00000000
00000010
00000000
00000001
00000000
00000000
00000000
00000100
00000000
00001000
00000000
00130000
00000000
02001100
00000100
,
00000100
00000000
00000000
00000000
00001000
00000100
00001000
00000100
03000000
10001100
00010000
00000020
00110000
00000000
00100000
00000000
00100000
00000000
00000000
00000000
00010000
00100000
00010000
00100000
00000031
00000100
00010000
22000000
00001000
00000000
00010000
00000000
,
33001000
00000000
00000100
00000000
00000010
00000000
00000002
00000000
00000000
00000000
00000010
00000000
00001100
00000000
00010000
00000000
01100000
00000000
10000003
00000000
00001000
00000000
00020000
00000200
00000002
00000000
00000000
00000000
00000010
00000000
00001000
00000000
00000000
00000000
00000010
00000000
00001000
00000000
01030303
00000000
00202000
00000000
00000000
00000000
00000000
00000000
00000000
00000000
00000000
00000000
00000000
00000000
00000000
00000000
00000000
00000000
00000000
00000000
00000000
00000000
00000000
00000000
00000000
00000000
,
00303000
00000202
00000000
00000010
00000303
20020000
00000000
00000000
,
30030000
00000000
00200200
00000000
00000000
00000000
00011000
00000000
00300300
00000000
00000010
00000001
00001100
00010000
01100000
10000000
,
01000000
00010000
00002000
00000100
00000010
00000002
00000000
00000100
00003013
00000000
00000110
00001000
00010000
00000000
01100000
00010000
,
00001000
00000100
00000020
00000200
02000000
00200000
00000000
00000000
03311330
00000000
00001010
00000000
01010000
00000000
00100100
00000000
,
00001000
00000010
00010000
01000000
00001000
00010000
00011000
00000110
00000000
00011000
01100000
00000000
10010000
00000000
00001001
00000000
,
00000100
00000000
00100000
00000100
00010000
00000000
01001000
00000000
01000000
00000000
00000100
00100000
00001000
00000000
00010010
00000000
,
00100100
00000000
00000000
00000000
00000000
00000000
00000000
00000000
00000000
00000000
00000000
00000000
00000000
00000000
00000000
00000000
00000000
00000000
00000000
00000000
00000000
00000000
00000000
00000000
01000010
00000000
00000000
00000000
00000000
00000000
00000000
00000000
00000000
00000000
00000000
00000000
00000000
00000000
00000000
00000000
00000000
00000000
00000000
00000000
00000000
00000000
00000000
00000000
20000002
30000003
00000000
00000000
00000000
00000000
00000000
00000000
00000000
00000000
00000000
00000000
00000000
00000000
00000000
00000000
00000000
00000000
00000000
00000000
00000000
00000000
00000000
00000000
00000000
00000000
00000000
00000000
00000000
00000000
00000000
00000000
00000000
00000000
00000000
00000000
00000000
00000000
00000000
00000000
00000000
00000000
00000000
00000000
00000000
00000000
00000000
00000000
00000000
00000000
00000000
00000000
00000000
00000000
00000000
00000000
00000000
00000000
00000000
00000000
00000000
00000000
00000000
00000000
00000000
00000000
00000000
00000000
00000000
00000000
00000000
00000000
00000000
00000000
00000000
00000000
00000000
00000000
00000000
00000000
00000000
00000000
00000000
00000000
00000000
00000000
00000000
00000000
00000000
00000000
00000000
00000000
00000000
00000000
00000000
00000000
00000000
00000000
00000000
00000000
00000000
00000000
00000000
00000000
00000000
00000000
00000000
00000000
00000000
00000000
00000000
00000000
00000000
00000000
00000000
00000000
00000000
00000000
00000000
00000000
00000000
00000000
00000000
00000000
00000000
00000000
00000000
00000000
00000000
00000000
00000000
00000000
00000000
00000000
00000000
00000000
00000000
00000000
00000000
00000000
00000000
00000000
00000000
00000000
;
