#TITLE:Blind (To No Avail);
#SUBTITLE:;
#ARTIST:Bill Wurtz;
#TITLETRANSLIT:;
#SUBTITLETRANSLIT:;
#ARTISTTRANSLIT:;
#GENRE:;
#CREDIT:;
#MUSIC:Blind (To No Avail).ogg;
#BANNER:;
#BACKGROUND:;
#CDTITLE:;
#SAMPLESTART:21.700;
#SAMPLELENGTH:15.000;
#SELECTABLE:YES;
#OFFSET:-0.200;
#BPMS:0.000=99.000;
#STOPS:;
#ORIGIN:;
#PREVIEWVID:;
#JACKET:;
#CDIMAGE:;
#DISCIMAGE:;
#BGCHANGES:;
#FGCHANGES:;

//--------------- dance-single - ----------------
#NOTES:
     dance-single:
     :
     Beginner:
     1:
     0.101802,0.137759,0,0,0,43,43,0,0,0,0,0,0,0,0.101802,0.137759,0,0,0,43,43,0,0,0,0,0,0,0:
0000
0000
0000
0000
,
0001
0000
0001
0000
,
1000
0000
1000
0000
,
0010
0000
0010
0000
,
0100
0000
0100
0000
,
0001
0000
0000
0000
,
0001
0000
0010
0000
,
1000
0000
0000
0000
,
1000
0000
0010
0000
,
0100
0000
0100
0000
,
0100
0100
0100
0000
,
0010
0000
0010
0000
,
0010
0010
0010
0000
,
0001
0001
0001
0000
,
0001
0000
1000
0000
,
1000
1000
1000
0000
,
1000
0000
0001
0000
,
0010
0000
0000
0000
,
0000
0000
0000
0000
,
0010
0000
0000
0000
,
0000
0000
0000
0000
,
1000
0000
0100
0000
,
0010
0000
0001
0000
,
0100
0000
0010
0010
;

//--------------- dance-single - ----------------
#NOTES:
     dance-single:
     :
     Easy:
     3:
     0.144417,0.158681,0.016572,0.381167,0.008286,61,60,1,23,0,0,0,0,0,0.144417,0.158681,0.016572,0.381167,0.008286,61,60,1,23,0,0,0,0,0:
0000
0000
0000
0000
,
1000
0010
2000
3000
,
0001
0010
0002
0003
,
0100
0010
0100
0010
,
0100
0200
0020
0330
,
1000
1000
0200
0300
,
0010
0002
2000
3003
,
0001
0001
0200
0300
,
0010
0010
0020
0030
,
1000
0100
2000
3000
,
0100
0010
0002
0003
,
0001
0100
0002
0003
,
0010
0100
2000
3000
,
0001
0010
0200
0000
,
0310
0001
2000
3000
,
1000
0100
0020
0000
,
0130
1000
0002
0003
,
0200
0000
0000
0000
,
0300
0000
0000
0000
,
0200
0000
0000
0000
,
0300
0000
0000
0000
,
2000
3000
1000
0002
,
0003
0010
0002
0003
,
1000
0000
0000
0000
0200
0000
0000
0000
0300
0000
0000
0000
0010
0000
0000
0110
;

//--------------- dance-single - ----------------
#NOTES:
     dance-single:
     :
     Medium:
     4:
     0.20834,0.238022,0.049717,0.182297,0.024859,88,85,3,11,0,0,0,0,0,0.20834,0.238022,0.049717,0.182297,0.024859,88,85,3,11,0,0,0,0,0:
0000
0000
0000
0000
,
1000
0000
0001
0010
0002
0000
0013
0000
,
1000
0000
0001
1000
0200
0000
0310
0000
,
1000
0010
0001
0000
0010
0000
0100
0000
,
1000
0000
0001
0000
0100
0000
0000
0010
0000
0000
0000
0000
0000
0000
0000
0000
,
1000
0100
1000
0001
,
0010
0001
1000
0000
0010
0100
0000
0000
,
1000
0100
0001
0100
,
0010
0000
0010
0000
0100
0000
0000
0010
0000
0000
0000
0000
0000
0000
0000
0000
,
0020
0001
0230
0000
,
1300
0000
0001
0000
0100
0010
1000
0000
,
0200
0001
2300
0000
,
3001
0010
0001
0000
0200
0000
0300
0000
,
0001
0000
0101
0000
0010
0001
0100
0000
,
0010
1000
0001
0000
,
1000
0000
1100
0000
0100
0010
0001
0000
,
1000
0010
0200
0300
,
0020
0000
0000
0000
,
0000
0000
0030
0000
,
0020
0000
0000
0000
,
0000
0000
0030
0000
,
1000
0000
0100
1000
0001
0000
0100
0001
,
0010
0100
0020
0130
,
1000
0000
0000
0000
0010
0000
0100
0000
0001
0000
0000
0000
1000
0000
0000
1001
;

//--------------- dance-single - ----------------
#NOTES:
     dance-single:
     :
     Hard:
     6:
     0.310142,0.317363,0.13258,0.116007,0.13258,131,123,8,7,0,0,0,0,0,0.310142,0.317363,0.13258,0.116007,0.13258,131,123,8,7,0,0,0,0,0:
0000
0000
0000
0000
,
0001
0010
0010
0001
0020
0000
0130
0000
,
1000
0010
0010
0100
0020
0000
0130
0000
,
0001
0100
1000
0100
0002
0000
1003
0000
,
1010
0000
0000
0000
0101
0000
0000
1001
0000
0000
0000
0000
0000
0000
0000
0000
,
1000
1000
0100
1000
0100
0010
0100
0010
,
0001
1000
0001
1000
0001
1000
0000
0000
,
0100
0000
1000
0000
0100
0000
0010
0000
0001
0000
0000
0100
0000
0000
0001
0000
,
1000
0000
0000
0000
0010
0000
0000
0101
0000
0000
0000
0000
0000
0000
0000
0000
,
0010
0000
0100
0000
0010
0000
0010
0000
0100
0000
0000
0001
0000
0000
0100
0000
,
0001
0000
0010
0000
0001
0000
0000
1100
0000
0000
1000
0000
0001
0000
0000
0000
,
1000
0000
0010
0000
1000
0000
0010
0000
0100
0000
0000
0010
0000
0000
0100
0000
,
0010
0000
0010
0000
1000
0000
0000
0101
0000
0000
0001
0000
1000
0000
0000
0000
,
1000
0000
0100
0000
0001
0000
0100
0000
1000
0000
0000
0010
0000
0000
0001
0000
,
0010
0000
0100
0000
1000
0000
0100
0000
0010
0000
0000
0001
0000
0000
0010
0000
,
0001
0000
0100
0000
1000
0000
0100
0000
0001
0000
0000
0010
0000
0000
1000
0000
,
0010
0000
0001
0000
0010
0000
1000
0000
0010
0000
0000
0001
0000
0000
1000
0000
,
2002
0000
0000
0000
,
0000
0000
0000
3003
,
2002
0000
0000
0000
,
0000
0000
0000
3003
,
0001
0100
0000
0000
0001
0000
0100
0000
0010
0000
0000
0000
0010
0000
0010
0000
,
0000
0000
0010
0000
1000
0000
0001
1000
0000
0000
0100
0000
1000
0100
0000
0000
,
1000
0010
0000
0000
0100
0000
0001
0000
0000
0000
0001
0000
0010
0000
0100
0010
;

//--------------- dance-single - ----------------
#NOTES:
     dance-single:
     :
     Challenge:
     8:
     0.551627,0.57522,0.33145,0.099435,0.563464,233,213,20,6,0,0,0,0,0,0.551627,0.57522,0.33145,0.099435,0.563464,233,213,20,6,0,0,0,0,0:
0000
0000
0000
0000
,
0001
0000
0010
0001
0100
0000
0010
1000
0010
1000
0000
1000
0001
0000
1000
0000
,
0100
0000
1000
0010
0100
0000
0001
0010
0001
0010
0000
0100
1000
0000
0001
0000
,
1000
0100
0010
0000
0001
0010
0100
0000
0010
0001
0000
0010
0001
0000
1000
0000
,
0101
0000
0010
0000
1000
0100
0000
0202
0000
0000
0000
0000
0303
0000
0000
0000
,
0001
0000
0010
0001
0010
0000
0100
0000
1100
0000
1000
0000
0100
0010
0100
0000
,
1000
0010
0100
0000
0001
0000
0100
0000
0101
0000
1100
0000
0000
0000
0010
0100
,
0010
0100
0000
0000
0001
0000
0010
0001
0010
0001
0000
0001
1000
0000
0100
0000
,
1100
0000
0010
0100
0001
0010
0000
2002
0000
0000
0000
0000
3003
0000
0000
0000
,
0010
0100
0010
0000
0010
0100
0001
0000
0010
0100
0010
0000
0010
0100
1000
0000
,
0001
0100
1000
0000
0100
0001
0010
0100
0000
0000
0110
0000
1001
0000
0000
0000
,
0001
0010
0100
0000
0010
0100
1000
0000
1000
0010
0100
0000
0010
0100
0001
0000
,
0010
0100
1000
0100
0010
0000
0001
0010
0000
0000
0001
0000
1100
0000
0000
0000
,
1010
0000
1000
0010
0100
0000
0001
0010
0001
0000
1000
0010
0100
0000
0010
0001
,
0010
0000
1000
0100
0010
0000
0100
1000
0001
0000
1100
0000
0101
0000
1100
0000
,
0101
0000
0010
0001
0100
0000
0001
0010
0100
0000
1000
0010
1000
0000
0100
0010
,
0001
0010
0100
0010
0001
0000
1000
0100
0010
0100
1000
0100
0010
0100
1000
0000
,
0102
1000
1000
1000
,
0010
0000
1000
0000
0100
0000
1003
0010
,
2100
0001
0001
0001
,
0010
0000
0001
0000
0100
0001
3001
1000
,
0100
1000
0000
0000
0100
0010
0100
1000
0001
0000
1000
0000
0001
1000
0001
0000
,
0000
0000
1000
0000
0010
0000
0100
0010
0000
0100
0010
0000
0100
0001
0000
0100
,
0100
0001
0000
0001
0010
0100
1000
0000
0101
0000
1010
0000
0100
0010
0000
1001
;

//--------------- dance-solo - ----------------
#NOTES:
     dance-solo:
     :
     Beginner:
     1:
     0,0,0,0,0:
000000
000000
000000
000000
,
100001
000000
000000
000000
,
010010
000000
000000
000000
,
001100
000000
000000
000000
,
000100
000000
001000
000000
,
100000
000000
000100
000000
,
010000
000000
010000
000000
,
000001
000000
000100
000000
,
000010
000000
000010
000000
,
100000
000000
000000
000000
,
001000
000000
000100
000000
,
000001
000000
000000
000000
,
001000
000000
000100
000000
,
010010
000000
000000
000000
,
000010
000000
010000
000000
,
010010
000000
000000
000000
,
010000
000000
000010
000000
,
000100
000000
000000
000000
,
000000
000000
000000
000000
,
001000
000000
000000
000000
,
000000
000000
000000
000000
,
100000
000000
010000
000000
,
000100
000000
001000
000000
,
000010
000000
000000
000000
000000
000000
000000
000000
000001
000000
000000
000000
000000
000000
000000
100001
;
