#VERSION:0.83;
#TITLE:Blast Processing;
#SUBTITLE:;
#ARTIST:Waterflame;
#TITLETRANSLIT:;
#SUBTITLETRANSLIT:;
#ARTISTTRANSLIT:;
#GENRE:;
#CREDIT:;
#MUSIC:Blast Processing.ogg;
#BANNER:BLAST PROCESSING.png;
#BACKGROUND:;
#CDTITLE:;
#SAMPLESTART:44.648;
#SAMPLELENGTH:12.000;
#SELECTABLE:YES;
#OFFSET:-0.204;
#BPMS:0.000=135.000;
#STOPS:172.000=0.889
,298.000=0.889
,300.000=1.778
;
#SPEEDS:0.000=1.000=0.000=0;
#SCROLLS:0.000=1.000;
#TICKCOUNTS:0.000=4;
#TIMESIGNATURES:0.000=4=4;
#LABELS:0.000=Song Start;
#COMBOS:0.000=1;
#ORIGIN:;
#PREVIEWVID:;
#JACKET:;
#CDIMAGE:;
#DISCIMAGE:;
#BGCHANGES:;
#FGCHANGES:;

//--------------- dance-single - Autogenerated from Single BASIC, no proper chart data exists. ----------------
#NOTEDATA:;
#STEPSTYPE:dance-single;
#DESCRIPTION:Autogenerated from Single BASIC, no proper chart data exists.;
#DIFFICULTY:Beginner;
#METER:1;
#RADARVALUES:0,0,0,0,0;
#NOTES:
0000
0000
0000
0000
,
0000
0000
0000
0000
,
1001
0000
0001
0000
,
1001
0000
1000
0000
,
0010
0000
0001
0000
,
0100
0000
0000
0110
,
0000
0100
0000
0010
,
0000
0100
0000
0110
,
0000
0100
0000
0010
,
0000
1000
0000
1001
,
0000
0100
0000
0010
,
0000
0001
0000
0000
,
1001
0000
1000
0000
,
0100
0000
0000
0010
,
0000
0100
0000
0001
,
0000
0001
0000
0000
,
0000
0000
0000
0000
,
1000
0000
0100
0000
,
0010
0000
1000
0000
,
0010
0000
0100
0000
,
1001
0000
0001
0000
,
0110
0000
0100
0000
,
1001
0000
1000
0000
,
0010
0000
0010
0000
,
0110
0000
0010
0000
,
1000
0000
0001
0000
,
0110
0000
0100
0000
,
0001
0000
1000
0000
,
0010
0010
0010
0000
,
1000
0000
0001
0000
,
0100
0100
0100
0000
,
1000
0000
0000
0000
,
0001
0000
0010
0000
,
0001
0000
1000
0000
,
0010
0000
1000
0000
,
0010
0000
0110
0000
,
0001
0000
0000
0000
,
1001
0000
0000
0100
,
0000
1000
0000
0000
,
0110
0000
0100
0000
,
0001
0001
0001
0000
,
1000
1000
1000
0000
,
0110
0000
0000
0000
,
0010
0000
1000
0000
,
0001
0000
0010
0000
,
0100
0000
1000
0000
,
0100
0000
0001
0000
,
1000
0000
1000
0000
,
0001
0000
0010
0000
,
0000
0000
0010
0000
,
0100
0000
0010
0000
,
0001
0000
1000
0000
,
0100
0000
0001
0000
,
0100
0000
0010
0000
,
0100
0000
1000
0000
,
0010
0000
1000
0000
,
0001
0000
0100
0000
,
0010
0000
0000
1000
,
0000
0100
0000
0001
,
0000
0000
0100
0000
,
0001
0000
1000
0000
,
0110
0000
0100
0000
,
1000
0000
0000
0001
,
0000
0110
0000
1000
,
0000
1000
0000
0001
,
0000
0001
0000
0100
,
0000
0100
0000
1000
,
0000
0110
0000
0000
,
0000
1000
0000
1001
,
0000
0000
0100
0000
,
0001
0000
1000
0000
,
0000
0000
1000
0000
,
0010
0000
0001
0000
,
0010
0000
1001
0000
,
0000
0000
0010
0000
,
0100
0000
0000
0000
,
1001
0000
0000
0000
;

//--------------- dance-single - ----------------
#NOTEDATA:;
#STEPSTYPE:dance-single;
#DESCRIPTION:;
#DIFFICULTY:Easy;
#METER:4;
#RADARVALUES:0.262382,0.286466,0.233011,0,0,268,234,34,0,0,0,0,0,0,0.262382,0.286466,0.233011,0,0,268,234,34,0,0,0,0,0,0;
#CHARTNAME:;
#CHARTSTYLE:;
#CREDIT:;
#NOTES:
0000
0000
0000
0000
,
0000
0000
0000
0000
,
1001
0000
0001
0100
,
1001
0000
1000
0100
,
0010
0010
0001
1000
,
0100
0010
0000
0110
,
1000
0100
0001
0010
,
0001
0100
1000
0110
,
0001
0100
1000
0010
,
0000
1000
0001
1001
,
1000
0100
0001
0010
,
0001
0001
1000
1000
,
1001
0000
1000
0001
,
0100
0010
0000
0010
,
1000
0100
1000
0001
,
0100
0001
0010
0000
,
0011
0000
1100
0000
,
1000
0001
0100
0000
,
0010
0010
1000
0001
,
0010
0100
0100
0000
,
1001
0001
0001
0000
,
0110
0000
0100
0000
,
1001
1000
1000
0000
,
0010
0100
0010
0000
,
0110
0010
0010
0000
,
1000
0100
0001
0000
,
0110
0100
0100
0000
,
0001
0000
0000
0000
1000
0001
1000
0000
,
0010
0010
0010
0000
,
1000
0010
0001
0010
,
0100
0100
0100
0000
,
1000
0011
0000
1010
,
0001
0100
0010
1000
,
0001
0001
1000
1000
,
0010
0010
1000
0001
,
0010
0100
0110
0000
,
0001
0000
0000
1000
,
1001
0000
0000
0100
,
0001
1000
0000
0010
,
0110
0000
0100
0000
,
0001
0001
0001
0010
,
1000
1000
1000
0100
,
0110
0000
0000
0000
,
0010
0000
1000
0100
,
0001
0000
0010
0010
,
0100
0100
1000
0001
,
0100
0000
0001
0100
,
1000
0110
1000
0000
,
0001
0000
0010
0000
,
0011
1100
0010
0000
,
0100
0000
0010
1000
,
0001
1001
1000
1000
,
0100
0100
0001
0001
,
0100
0100
0010
1001
,
0100
0001
1000
0010
,
0010
0010
1000
0100
,
0001
0010
0100
1000
,
0010
0001
1010
1000
,
0000
0100
0011
0001
,
1001
0000
0100
0001
,
0001
0000
1000
0010
,
0110
0000
0100
1000
,
1000
0000
0000
0001
,
1000
0110
0100
1000
,
0100
1000
0100
0001
,
0100
0001
0010
0100
,
0000
0100
0000
1000
,
0001
0110
0010
0000
,
0000
1000
0001
1001
,
0000
0000
0100
0000
,
0001
0000
1000
0110
,
0000
0000
1000
1000
,
0010
0100
0001
0001
,
0010
0100
1001
0000
,
0000
0000
0010
0000
,
0100
0000
0000
0100
,
1001
0000
0000
0000
;

//--------------- dance-single - ----------------
#NOTEDATA:;
#STEPSTYPE:dance-single;
#DESCRIPTION:;
#DIFFICULTY:Medium;
#METER:6;
#RADARVALUES:0.405321,0.416678,0.212451,0,0.006853,414,383,31,0,0,0,0,0,0,0.405321,0.416678,0.212451,0,0.006853,414,383,31,0,0,0,0,0,0;
#CHARTNAME:;
#CHARTSTYLE:;
#CREDIT:;
#NOTES:
0000
0000
0000
0000
,
0000
0000
0000
0000
,
0001
0000
0000
0001
0000
0000
0001
0000
0000
0000
0010
0000
0001
0000
0100
0000
,
1000
0000
0000
1000
0000
0000
1000
0000
0000
0000
0010
0000
0100
0000
0000
0000
,
1001
0000
0001
0000
1000
0100
0001
0000
,
0010
0000
0001
0000
1000
0010
0100
0010
,
0100
0000
0001
0000
0001
1000
0100
0000
,
0001
0100
1000
0000
0001
0010
1000
0000
,
0010
0000
0110
0000
0010
0001
1000
0000
,
0010
0000
0010
0000
1000
0100
0001
0000
,
1000
0000
0001
0000
0010
0001
0100
1000
,
0000
0100
0010
0000
0110
0000
1001
0000
,
1000
0010
0100
0010
1000
0100
0001
0000
,
0010
0000
0101
0000
1000
1000
0100
0100
,
1000
0001
0010
0000
0001
0000
0100
0000
,
1000
0010
0100
1000
0100
0001
0010
0000
,
0001
0000
1000
0000
0010
1000
0100
0010
,
0001
0100
0010
0000
0010
1000
0001
0000
,
0100
0000
0001
0000
1000
0100
0010
0000
,
0001
1000
0001
0010
0001
1000
0010
0100
,
0010
0000
1000
0001
1001
0000
0000
0000
,
1000
0100
0011
0000
,
0001
0000
1000
0010
0110
0000
0000
0000
,
0010
1000
0010
0100
0001
0010
0100
0000
,
0100
0000
1000
0001
1001
0000
0000
0000
,
0001
0010
1100
0000
,
0001
0000
1000
0010
0110
0000
0000
0000
,
0100
0001
1000
0100
0010
0000
1001
0000
,
0001
0000
0001
0000
0010
0000
0000
0001
,
1000
0010
0100
0100
1000
0000
0100
0000
,
0001
1000
0100
0000
0010
0000
0001
0000
,
1000
0100
0001
0100
0110
0000
0010
0000
,
0001
0100
1000
1000
0110
0000
0001
0000
,
1000
0000
0100
0000
0001
0010
0010
0000
,
0100
1000
0001
0100
,
0100
0000
0010
1000
0001
0010
0100
0010
,
0100
1000
0001
0000
0100
0000
0100
0000
,
0001
1000
0010
0000
0100
0000
1001
0000
,
1000
0100
0001
0000
0010
0001
0100
0000
,
0010
1001
0100
0100
,
1000
1000
0100
0000
0001
0001
0100
0000
,
1000
1000
0010
0000
0001
0001
0010
0000
,
0110
0000
0000
0001
,
1000
0000
0000
0000
0010
0010
1000
0001
,
0010
0000
0100
0000
1000
0001
0100
0001
,
0010
0000
0100
0000
0010
0010
0100
1000
,
0010
0000
0100
0000
0001
0001
1000
0100
,
0010
0001
1100
0101
,
0010
1000
0001
0000
0100
0100
0001
0000
,
1000
0010
0100
0000
1010
0000
0101
0000
,
0110
0000
0100
0000
0001
1000
0100
0010
,
0100
1000
0010
0000
1000
1001
0000
0100
,
0000
0001
1000
1000
0001
0010
0000
0010
,
0000
0100
0100
0100
1000
0001
0100
0000
,
0001
0000
1000
0000
0001
0010
0000
0010
,
0000
0010
1001
0000
0100
0010
1000
0000
,
0100
1000
0001
0010
0000
0010
0100
0000
,
0100
1000
0001
0100
0010
0000
1001
0000
,
0100
0000
1000
0000
0001
0010
1000
0000
,
0010
0000
0100
0000
0010
0010
0100
0000
,
0000
1000
0100
0000
0001
0000
0010
0000
,
0001
0100
1000
0000
0010
1000
1001
0000
,
0000
0001
0100
0000
0010
0000
1000
0000
,
0100
0000
0001
0000
1000
0010
0001
0000
,
0100
0001
0010
0000
0100
0000
1000
0000
,
0001
0100
1000
0000
0010
1000
0001
0000
,
0010
0000
0010
0010
0100
1000
0001
0000
,
1000
0000
1001
0000
0010
0000
0000
1000
,
0001
0000
0100
0000
0100
0001
1000
0000
,
0010
0010
1000
1100
,
0000
0000
0101
0000
0001
0010
0100
0000
,
0000
0001
1000
0000
0010
1000
1000
0000
,
0001
0100
0100
0000
0010
1000
0001
0000
,
0010
0100
0010
0000
1001
0000
0000
0000
,
0000
1000
0001
0000
,
0100
0000
0000
0000
0000
0000
0100
0010
,
1001
0000
0000
0000
;

//--------------- dance-single - ----------------
#NOTEDATA:;
#STEPSTYPE:dance-single;
#DESCRIPTION:;
#DIFFICULTY:Hard;
#METER:9;
#RADARVALUES:0.696095,0.729187,0.431755,0,0.58938,711,648,63,0,0,0,0,0,0,0.696095,0.729187,0.431755,0,0.58938,711,648,63,0,0,0,0,0,0;
#CHARTNAME:;
#CHARTSTYLE:;
#CREDIT:;
#NOTES:
0000
0000
0000
0000
,
0000
0000
0000
0000
,
0101
0000
0000
0101
0000
0000
1001
0000
0000
0000
0010
0000
1000
0001
0000
0000
,
1010
0000
0000
1010
0000
0000
0110
0000
0000
0000
1000
0000
0001
0010
0001
0000
,
0010
1000
0000
0001
0100
0000
0010
1000
0100
0000
0010
0000
0001
0100
0010
0000
,
0100
1000
0000
0100
0001
0000
0010
0001
0010
0000
0100
0000
1000
0001
0100
0000
,
0010
1000
0000
0100
0001
0000
0100
1000
0001
0000
0100
0000
0100
0010
1000
0000
,
0001
0010
0000
0100
1000
0000
0001
0100
0001
0000
0011
0000
0001
1000
0010
1000
,
0100
0010
0000
0100
0010
0000
0100
1000
0001
0000
0100
0000
0010
1000
0001
0000
,
0001
1000
0000
0010
0100
0000
1000
0100
0001
0000
1000
0000
0100
0010
0001
0000
,
0010
0001
0000
0010
0100
0000
1000
0001
0100
0000
0010
0000
0010
1000
0010
0000
,
0100
0001
0000
0010
0100
0000
1000
0001
0100
0000
0110
0000
1001
0000
0000
0000
,
1000
0010
1000
0010
0100
0000
0001
0000
0010
0001
1000
0010
0100
0000
0100
0000
,
0001
0000
0011
0000
1000
0000
0010
0000
0100
0010
0100
1000
0100
0001
0010
0000
,
0100
0000
1000
0100
0010
0000
0001
0000
1001
0000
0001
0100
1000
0000
0100
0000
,
0010
0000
1010
0000
0001
0000
0101
0000
0001
1000
0010
0100
1000
0100
0001
0000
,
1000
0010
0100
0001
1000
0000
0001
0000
0010
0001
1000
0100
0010
0000
0100
0000
,
0100
1000
0010
0000
0101
0000
0001
0000
0001
1000
0010
1000
0100
0010
0100
0000
,
0010
0001
0010
0000
0010
0100
1000
0000
1000
0001
0100
0000
0010
1000
0001
0000
,
0100
0000
0110
0000
1000
0000
1001
0000
1000
0001
0010
0001
0100
0010
1000
0001
,
0010
0000
0011
0000
1100
0000
1000
0001
0000
0000
0000
0000
0100
0000
0110
0000
,
0001
0000
0001
0000
1000
0010
0100
1000
0000
0100
0001
0000
1000
0000
0100
0010
,
0100
0000
1100
0000
0011
0000
1000
0001
0000
0000
0000
0000
0100
0000
0100
0000
,
1000
0100
0000
0001
0100
0000
0010
1000
0000
0001
0010
0001
1000
0010
0100
0001
,
0100
0000
0101
0000
1010
0000
1000
0010
0000
0100
0001
0000
0010
0000
0100
0000
,
1001
0000
1000
0001
0010
0001
0100
0010
0000
0000
0000
0000
0001
0000
0001
1000
,
0010
0000
1010
0000
0101
0000
0010
1000
0000
0001
0010
0000
0100
0000
0110
0000
,
0001
0010
0001
0100
0010
0100
0001
0000
1001
0000
0000
0000
1000
0010
0100
0001
,
0100
0000
0010
0000
0010
1000
0000
0001
0000
0000
1000
0000
0101
0000
0001
0000
,
1000
0010
0100
0000
0001
0010
0000
0010
0000
0000
0100
0000
1001
0000
1000
0000
,
0110
0000
0100
0000
0001
1000
0000
0100
0000
0000
0010
0001
1000
0000
0001
0000
,
0101
0000
1100
0000
1000
0001
0010
0100
0000
0010
0100
0000
0010
0100
0010
0100
,
0010
0000
0001
0000
1000
0100
0001
0100
0000
0100
1000
0001
0100
0000
0010
0000
,
1001
0000
1000
0010
0100
0000
0001
0100
0000
0010
1000
0001
0100
0000
0110
0000
,
1000
0000
0000
0000
1000
0001
0010
0001
0000
0100
0000
0000
0011
0000
1100
0000
,
0100
0010
0001
0010
0100
0000
1000
0001
0100
0001
0000
1001
0000
0000
1000
0001
,
0010
0010
0001
1000
0010
0010
1000
0100
,
1000
1000
0001
0010
0001
0001
0110
0000
,
1000
1000
0010
0100
0001
0001
0010
0010
,
0100
0000
0100
0000
1000
0001
0100
0000
0010
0000
0000
0000
1001
0000
0000
0000
,
1000
0100
0000
0000
1000
0100
0000
0000
0010
0001
0000
0000
0010
0001
0000
0000
,
0001
0100
0000
0000
0001
0100
0000
0000
0010
1000
0000
0000
0010
1000
0000
0000
,
0110
1000
0000
0001
,
0100
0000
0000
0000
0110
0000
0000
0000
1000
0000
1000
0000
0001
0000
0010
0001
,
0000
0010
0100
0000
1000
0000
0001
0000
0100
0000
0100
0000
0010
0000
1000
0001
,
0000
0010
0100
0000
1000
0000
0001
0000
1001
0000
1000
0000
0010
0000
0100
1000
,
0000
0100
0001
0000
1000
0000
0100
0000
0010
0000
0100
0000
0110
0000
0100
0010
,
0000
0100
1000
0000
0001
0000
0000
0000
1001
0000
1000
0000
1010
0000
0000
0000
,
0110
0000
0100
0001
0000
0000
0001
0000
1000
0000
0100
0000
1100
0000
0000
0000
,
0010
0000
0001
0010
0000
0000
0001
0000
0100
0000
0010
0000
1000
0000
0101
0000
,
0000
0000
1000
0000
0000
0000
0001
0000
0100
0000
0001
0000
1000
0010
0000
0010
,
0000
0000
0000
0000
1000
0001
1000
0001
0100
0000
0010
0000
1100
0000
1000
0000
,
0100
0000
0001
0000
0010
0000
0010
0001
0000
0001
1000
0000
0010
0000
0100
0000
,
0001
0000
0010
0000
0100
0000
1000
0000
0001
0010
0001
0000
1000
0100
1000
0000
,
0010
0000
0010
0000
1000
0000
0001
0100
0000
0000
0010
0000
1000
0000
0000
0000
,
0001
0100
1000
1000
0110
0100
0001
1000
,
0100
0010
0011
0010
0100
0010
0100
1000
,
0001
0000
0100
0000
0010
1000
0001
0100
0000
0000
0000
0000
0100
0000
0001
0000
,
1000
0000
0100
0000
0001
0000
0010
0100
0000
0010
0100
0000
0010
0000
0001
0000
,
1000
0010
1001
0000
1000
1000
0010
0000
,
0100
0100
0001
0000
0001
0010
0001
1000
,
0010
0100
1001
0000
1000
0010
0100
1000
,
0100
0000
0001
0000
1000
0000
0100
0000
0010
0001
0010
0000
0100
0000
1000
0001
,
0100
0000
0010
0000
1010
0000
0000
0000
0101
0000
0001
0000
0010
0001
0010
0000
,
0100
0000
1000
0000
0001
1000
0001
0000
0100
0000
0010
0000
1000
0000
0100
0000
,
0010
0000
0010
0000
0010
0000
0001
1000
0010
0000
0100
0000
1001
0000
0000
0000
,
0001
0000
0010
0000
1000
0000
0010
0100
0000
0010
0100
0000
0010
0000
0001
0000
,
1000
0010
1001
0000
0001
0000
0101
0000
,
0000
0000
0010
1000
0010
0000
0000
0000
0100
0000
0100
0000
0110
0000
0000
0000
,
0000
0000
1000
0001
1000
0000
0000
0000
0001
0000
0010
0000
1000
0000
0000
0000
,
0000
0000
0010
0001
1000
0000
0000
0000
0001
0000
0100
0000
1000
0000
0000
0000
,
0000
0000
0100
0001
1000
0000
0000
0000
0010
1000
0000
0000
0010
1000
0000
0000
,
0001
0100
0000
0000
0001
0100
0000
0000
0010
0001
0000
0000
0010
0001
0000
0000
,
1000
0100
0000
0000
1000
0100
0000
0000
0110
0000
0000
0000
0000
0000
0010
0000
,
0001
0000
1000
1000
0001
1100
0010
0100
,
0010
0000
0000
0000
0000
0000
0000
0000
0000
0000
0000
0010
1000
0000
0001
0000
,
0110
0000
0000
0000
;

//--------------- dance-double - Autogenerated from Double BASIC, no proper chart data exists. ----------------
#NOTEDATA:;
#STEPSTYPE:dance-double;
#DESCRIPTION:Autogenerated from Double BASIC, no proper chart data exists.;
#DIFFICULTY:Beginner;
#METER:1;
#RADARVALUES:0,0,0,0,0;
#NOTES:
00000000
00000000
00000000
00000000
,
00000000
00000000
00000000
00000000
,
00011000
00000000
00001000
00000000
,
00000110
00000000
00001000
00000000
,
01000000
00000000
00010000
00000000
,
00100000
00000000
00000000
01000000
,
00000000
00010000
00000000
00000001
,
00000000
00001000
00000000
00000100
,
00000000
00000001
00000000
00001000
,
00000000
00010000
00000000
00011000
,
00000000
10000000
00000000
00100000
,
00000000
01000000
00000000
00001000
,
00000000
00000000
00010000
00000000
,
00000010
00000000
00000000
00001000
,
00000000
00000100
00000000
00000010
,
00000000
00000100
00000000
00000000
,
00000000
00000000
00000000
00000000
,
00100000
00000000
10000000
00000000
,
00010000
00000000
00001000
00000000
,
00000100
00000000
00000001
00000000
,
00001001
00000000
00001000
00000000
,
00000110
00000000
00011000
00000000
,
10010000
00000000
00010000
00000000
,
00100000
00000000
00010000
00000000
,
00011000
00000000
00010000
00000000
,
00000100
00000000
00010000
00000000
,
00011000
00000000
00001000
00000000
,
00010000
00000000
00000010
00000000
,
00001000
00000000
00001000
00000000
,
00000100
00000000
00010000
00000000
,
00100000
00000000
10000000
00000000
,
01000000
00000000
00000000
00000000
,
00010000
00000000
00001000
00000000
,
00000001
00000000
00001000
00000000
,
01000000
00000000
00100000
00000000
,
00001000
00000000
00011000
00000000
,
00000100
00000000
00000000
00000000
,
00000010
00000000
00000000
00000000
,
00100000
00000000
00000000
00000000
,
01000000
00000000
00000000
00000000
,
00010000
00000000
00010000
00000000
,
00001000
00000000
00001000
00000000
,
00000110
00000000
00000000
00000000
,
00001001
00000000
00000100
00000000
,
00010000
00000000
00100000
00000000
,
01000000
00000000
00100000
00000000
,
00010000
00000000
00001000
00000000
,
00000100
00000000
00001000
00000000
,
00000010
00000000
00000100
00000000
,
00001001
00000000
00000100
00000000
,
00001000
00000000
00100000
00000000
,
10000000
00000000
00100000
00000000
,
00001000
00000000
00010000
00000000
,
00000100
00000000
00001000
00000000
,
00000001
00000000
00000010
00000000
,
00000100
00000000
00001000
00000000
,
00000001
00000000
00000010
00000000
,
00000100
00000000
00001000
00000000
,
00000000
00000000
01100000
00000000
,
10010000
00000000
00100000
00000000
,
01000000
00000000
00010000
00000000
,
00011000
00000000
00000100
00000000
,
00000010
00000000
00000100
00000000
,
00001000
00000000
00100000
00000000
,
00010000
00000000
01000000
00000000
,
01000000
00000000
10000000
00000000
,
00010000
00000000
00000100
00000000
,
00000010
00000000
00000001
00000000
,
00000000
00000000
00001000
00000000
,
00000000
00000000
00000100
00000000
,
00000000
00000000
00000001
00000000
,
00000000
00000000
00001000
00000000
,
00001000
00000000
01000000
00000000
,
00100000
00000000
10010000
00000000
,
00000000
00000000
00011000
00000000
,
00000100
00000000
00000000
00000000
,
00001001
00000000
00000000
00000000
;

//--------------- dance-double - ----------------
#NOTEDATA:;
#STEPSTYPE:dance-double;
#DESCRIPTION:;
#DIFFICULTY:Easy;
#METER:4;
#RADARVALUES:0.27413,0.286466,0.246717,0,0,280,244,36,0,0,0,0,0,0,0.27413,0.286466,0.246717,0,0,280,244,36,0,0,0,0,0,0;
#CHARTNAME:;
#CHARTSTYLE:;
#CREDIT:;
#NOTES:
00000000
00000000
00000000
00000000
,
00000000
00000000
00000000
00000000
,
00011000
00000000
00001000
00000100
,
00000110
00000000
00001000
00010000
,
01000000
10000000
00010000
01000000
,
00100000
10010000
00000000
01000000
,
00001000
00010000
00000100
00000001
,
00000100
00001000
00000010
00000100
,
00000001
00000001
00001000
00001000
,
00000100
00010000
00001000
00011000
,
01000000
10000000
01000000
00100000
,
10000000
01000000
00010000
00001000
,
00011000
00000000
00010000
00000100
,
00000010
00100001
00000000
00001000
,
00000001
00000100
00000100
00000010
,
00001000
00000100
00000001
00000000
,
00010100
00000000
00101000
00000000
,
00100000
01000000
10000000
00000000
,
00010000
00100000
00001000
00010000
,
00000100
00000010
00000001
00001000
,
00001001
00001000
00001000
00000000
,
00000110
00000000
00011000
00000000
,
10010000
00010000
00010000
00000000
,
00100000
00001000
00010000
00001000
,
00011000
00010000
00010000
00000000
,
00000100
00001000
00010000
00000000
,
00011000
00001000
00001000
00000000
,
00010000
00000000
00000100
00000000
00000010
00000100
00000010
00000100
,
00001000
00000001
00001000
00000001
,
00000100
00001000
00010000
00011000
,
00100000
01000000
10000000
00100000
,
01000000
01001000
00000000
00010010
,
00010000
00000100
00001000
00000010
,
00000001
00000001
00001000
00001000
,
01000000
10000000
00100000
00010000
,
00001000
00010000
00011000
00000000
,
00000100
00000000
00000000
00000000
,
00000010
00000100
00000000
00000000
00000000
00000000
00001000
00000000
,
00100000
00000000
00000000
00000000
,
01000000
00100000
00000000
00000000
00000000
00000000
10000000
00000000
,
00010000
00010000
00010000
00100000
,
00001000
00001000
00001000
00000100
,
00000110
00000000
00000000
00000000
,
00001001
00000000
00000100
00001000
,
00010000
01000000
00100000
00100000
,
01000000
10000000
00100000
01000000
,
00010000
00100000
00001000
00010000
,
00000100
00000100
00001000
00000000
,
00000010
00000000
00000100
00000000
,
00001001
00000110
00000100
00000000
,
00001000
00000000
00100000
00010000
,
10000000
10010000
00100000
00100000
,
00001000
00001000
00010000
00010000
,
00000100
00000100
00001000
00000010
,
00000001
00000100
00000010
00001001
,
00000100
00000100
00001000
00000100
,
00000001
00000100
00000010
00001000
,
00000100
00010000
00001000
00011000
,
00000000
00000000
01100000
00000000
,
10010000
00000000
00100000
00010000
,
01000000
00100000
00010000
00001000
,
00011000
00000000
00000100
00000001
,
00000010
00000000
00000100
00010000
,
00001000
00011000
00100000
00100000
,
00010000
10000000
01000000
01000000
,
01000000
10010000
10000000
01000000
,
00010000
00001000
00000100
00000001
,
00000010
00000110
00000001
00000000
,
00000000
00000000
00000000
00000000
00001000
00000001
00000000
00000000
,
00000000
00000000
00000100
00000000
,
00000000
00000000
00000000
00000000
00000001
00001000
00000000
00000000
,
00000000
00000110
00001000
00000100
,
00001000
00010000
01000000
00010000
,
00100000
01100000
10010000
00000000
,
00000000
00100000
00011000
00000000
,
00000100
00000000
00000000
00000010
,
00001001
00000000
00000000
00000000
;

//--------------- dance-double - ----------------
#NOTEDATA:;
#STEPSTYPE:dance-double;
#DESCRIPTION:;
#DIFFICULTY:Medium;
#METER:7;
#RADARVALUES:0.475812,0.44272,0.198744,0,0.085666,486,457,29,0,0,0,0,0,0,0.475812,0.44272,0.198744,0,0.085666,486,457,29,0,0,0,0,0,0;
#CHARTNAME:;
#CHARTSTYLE:;
#CREDIT:;
#NOTES:
00000000
00000000
00000000
00000000
,
00000000
00000000
00000000
00000000
,
00100000
00000000
00000000
00100000
00000000
00000000
00100000
00000000
00000000
00000000
00001000
00000000
00010000
00000000
00000100
00000000
,
00000010
00000000
00000000
00000010
00000000
00000000
00000010
00000000
00000000
00000000
00001000
00000000
00000001
00000000
00000100
00000000
,
00000110
00000000
00000000
00000010
00000000
00000000
00001000
00000000
00000100
00000000
00000100
00000000
00000010
00000000
00000001
00000000
,
00001000
00000000
00000000
00000100
00000000
00000000
00000100
00000000
00010000
00000000
00001000
00000000
01000000
00000000
00010000
00000000
,
10000000
00000000
00000000
10000000
00000000
00000000
10000000
00000000
00100000
00000000
00010000
00000000
00001000
00000000
00000100
00000000
,
00000001
00000000
00000000
00000001
00000000
00000000
00000001
00000000
00001000
00000000
00000100
00000000
00000001
00000000
00000000
00000000
,
00000100
00000000
00000000
00010000
00000000
00000000
00001000
00000000
00010000
00000000
00010000
00000000
01000000
00000000
10000000
00000000
,
00010000
00000000
00000000
00100000
00000000
00000000
01000000
00000000
00010000
00000000
00001000
00000000
00000100
00000000
00000010
00000000
,
00000100
00000000
00000000
00000100
00000000
00000000
00000110
00000000
00000010
00000000
00001000
00000000
00000100
00000000
00010000
00000000
,
00100000
10000000
00010000
10010000
,
10000000
01000000
00100000
01000000
00100000
00010000
01000000
00000000
,
00010000
00100000
00001000
00010000
01000000
10000000
00100000
00000000
,
10000000
00100000
00010000
00001000
00000100
00000010
00000100
00000000
,
00001000
00000100
00000001
00000010
00000100
00001000
00001100
00000000
,
00010000
00001000
00010000
01000000
10000000
00100000
01000000
00000000
,
01000000
00010000
00100000
00010000
00100000
01000000
10000000
00000000
,
00010000
00100000
00010000
01000000
00100000
00010000
00001000
00000100
,
00000010
00000100
00000001
00000010
00000100
00001000
00001001
00000000
,
00001000
00000000
00000001
00000000
00000010
00000000
00000010
00000100
00000000
00000000
00000000
00000000
00000100
00000000
00010000
00000000
,
00001000
00000000
00010000
01000000
00100000
00000000
10010000
00000000
,
10000000
00000000
00100000
00000000
00100000
00000000
01000000
00010000
00000000
00000000
00000000
00000000
10010000
00000000
00000000
00000000
,
00100000
00000000
00000000
00100000
00000000
00000000
01000000
00000000
00100000
00000000
00001000
00000000
00010000
00000000
00000100
00000000
,
00000010
00000000
00000010
00000000
00000100
00000000
00000010
00000001
00000000
00000000
00001000
00000000
00000001
00000000
00000001
00000000
,
00001000
00000000
00000010
00000000
00000100
00000000
00000010
00000100
00000000
00000000
00000000
00000000
00000000
00000000
00000100
00000000
,
00000001
00000000
00000010
00000000
00000100
00000000
00000010
00000100
00000000
00000000
00000000
00000000
00000100
00000000
00001000
00000000
,
00001001
00000000
00000000
00000110
00000000
00000000
00001000
00000000
00000001
00000000
00000000
00000000
00000100
00000000
00000100
00000000
,
00000001
00000000
00000010
00000100
00000010
00000100
00001000
00000001
,
00000100
00001000
00000010
00001000
00000100
00000000
00010000
00001000
,
00011000
00000000
00010000
00001000
00001000
00100000
01000000
10000000
,
00010000
00100000
10000000
00100000
00010000
01000000
00100000
01000000
,
01000000
00000000
10010000
10000000
01000000
00010000
00001000
00000000
,
00010000
00000100
00001000
00000010
00000100
00000000
00001001
00000100
,
00000010
00000000
00000000
00000100
00000001
00001000
00001001
00000000
,
00000010
00001000
00000000
00000100
00000000
00001000
00001000
00001000
,
00000100
00000000
00000000
00000000
00001000
00000000
00000000
00001000
00000000
00000000
00000001
00000000
00000010
00000000
00000100
00000000
,
00000010
00000110
00000000
00001000
00000000
00000010
00000100
00000001
,
00001000
00000000
00000000
00000000
00001100
00000000
00000000
00000010
00000000
00000000
00000100
00000000
00000010
00000000
00000001
00000000
,
00000100
00000110
00000000
00000000
00000000
00000100
00000001
00000010
,
00000100
00000000
00000010
00000001
00000100
00000000
00000010
00001000
,
00000100
00000000
00010000
00001000
00010000
00000000
00001000
00000000
,
00011000
00000000
00010000
01000000
,
10000000
00000000
00000000
00000000
00100000
10000000
00010000
01000000
,
00100000
10000000
10000000
00000000
01000000
00010000
01000000
10000000
,
00100000
00100000
00100000
00000000
00100000
00010000
00001000
00010000
,
00000100
00000010
00000100
00000000
00000100
00001000
00000010
00000100
,
00000001
00000010
00000100
00000000
00001000
00000100
00000001
00000000
,
00001000
00000000
00000000
00010000
00000000
00000000
00001000
00000000
00000000
00000000
00100000
00000000
00110000
00000000
00000000
00000000
,
00100000
01000000
00100000
01000000
10000000
00100000
00000000
01010000
,
00000000
00100000
00001000
00000100
00000001
00000010
00000100
00000010
,
00000100
00001000
00000001
00000000
00000010
00000010
00000000
00001000
,
00000100
00000000
00000001
00000000
00000100
00000000
00000000
00001100
00000000
00000000
00001000
00000000
00000010
00000000
00000000
00000000
,
00000010
00000100
00000001
00000001
00001000
00000100
00000010
00000000
,
00000100
00000000
00010000
00000000
00001000
00000000
00000000
00001000
00000000
00000000
00010000
00000000
01000000
00000000
10000000
00000000
,
00100000
01000000
00010000
00000000
01100000
01000000
00100000
00000000
,
00010000
00000000
00001000
00000000
00010000
00000000
00000000
00001000
00000000
00000000
00000100
00000000
00000001
00000000
00000000
00000000
,
00000010
00000100
00001000
00000100
00000001
00000001
00000100
00000100
,
00000010
00000000
00001000
00000000
00000100
00000000
00000000
00000001
00000000
00000000
00000100
00000000
00001000
00000000
00000010
00000000
,
00000100
00000001
00001000
00000100
00000110
00000000
00000010
00000000
,
00001000
00000000
00000000
00000000
00000001
00000000
00000000
00000010
00000000
00000000
00000010
00000000
00000100
00000000
00000010
00000000
,
00000100
00000000
00001000
00000000
00000001
00000100
00000010
00001000
,
00000100
00000000
00000000
00000000
00000100
00000000
00000000
00000010
00000000
00000000
00000001
00000000
00001000
00000000
00000000
00000000
,
00000100
00010000
00001000
00010000
00100000
00000000
01100000
00000000
,
01000000
00100000
10000000
01000000
00100000
01000000
10000000
00100000
,
01000000
00001000
00010000
00000100
00000010
00000100
00000010
00000001
,
00001000
00000000
00000010
00000000
00000100
00000001
00000010
00000100
,
00001000
00000010
00000100
00000000
00001001
00000000
00001000
00000000
,
00000000
00000000
00000001
00000000
00000010
00000110
00000000
00000000
,
00000000
00000100
00000010
00000000
00000100
00000000
00010000
00000000
,
00001000
00000000
00100000
00000000
00010000
00110000
00000000
00000000
,
00000000
00100000
01000000
10000000
00100000
00000000
01000000
00100000
,
10000000
00000000
01000000
00100000
00010000
00000000
00100000
00001000
,
00010000
00001000
00011000
00000000
,
00000100
00000010
00001001
00001000
,
00000100
00000000
00000000
00000000
00000000
00000000
00010000
00001000
,
00011000
00000000
00000000
00000000
;

//--------------- dance-double - ----------------
#NOTEDATA:;
#STEPSTYPE:dance-double;
#DESCRIPTION:;
#DIFFICULTY:Hard;
#METER:10;
#RADARVALUES:0,0,0,0,0;
#NOTES:
00000000
00000000
00000000
00000000
,
00000000
00000000
00000000
00000000
,
01001000
00000000
00000000
00101000
00000000
00000000
00011000
00000000
00000000
00000000
00000100
00000000
00001000
00000010
00010000
00000000
,
00010100
00000000
00000000
00010010
00000000
00000000
00011000
00000000
00000000
00000000
00001000
00000000
00100000
00010000
01000000
00100000
,
10000000
01000000
00000000
00100000
00010000
00000000
00100000
00001000
00010000
00000000
00001000
00000000
00010000
00000100
00000010
00000000
,
00000100
00001000
00000000
00000100
00000001
00000000
00001000
00010000
01000000
00000000
10000000
00000000
00100000
01000000
00001000
00000000
,
00010000
00000100
00000000
00000010
00001000
00000000
00010000
01000000
10000000
00000000
00100000
00000000
01000000
00010000
00100000
00000000
,
00001000
00010000
00000000
00000100
00000010
00000000
00000001
00001000
00000010
00000000
00001001
00000000
00001000
00000100
00000010
00000100
,
00000001
00000100
00000000
00010000
01000000
00000000
10000000
00100000
01000000
00000000
00010000
00000000
00100000
00001000
00010000
00000000
,
00000100
00001000
00000000
00000010
00000100
00000000
00001000
00000100
00000001
00000000
00000010
00000000
00000100
00010000
00001000
00000000
,
00100000
01000000
00000000
10000000
00100000
00000000
01000000
00010000
00100000
00000000
01000000
00000000
00010000
00001000
00000100
00000000
,
00000010
00001000
00000000
00000100
00000010
00000000
00001000
00010000
01000000
00000000
00010000
00000000
00011000
00000000
00000000
00000000
,
00001000
00000100
00000001
00000010
00000100
00000000
00001000
00000000
00000001
00000010
00000001
00000100
00001000
00000000
00010000
00000000
,
00001000
00000000
00101000
00000000
00010000
00000000
01000000
00000000
10000000
00100000
00010000
00001000
00000100
00000001
00000010
00000000
,
00000001
00000000
00000100
00000010
00010000
00000000
00001000
00000000
01001000
00000000
00010000
00100000
01000000
00000000
10000000
00000000
,
00010000
00000000
00110000
00000000
00100000
00000000
01100000
00000000
00100000
00010000
01000000
00100000
00010000
00001000
00000100
00000000
,
00000001
00001000
00000010
00001000
00000100
00000000
00100000
00000000
00010000
10000000
00100000
10000000
01000000
00000000
00100000
00000000
,
00010000
00100000
00001000
00000100
00000001
00000000
00000010
00000000
00000001
00001000
00000010
00000100
00001000
00010000
00001000
00000000
,
00100000
01000000
10000000
00000000
00100000
01000000
00010000
00000000
00100000
00001000
00010000
00000000
00000100
00000010
00000001
00000000
,
00000100
00000000
00001010
00000000
00010000
00000000
00011000
00000000
00100000
00010000
10000000
01000000
00010000
00001000
00000100
00000001
,
00000020
00000000
00001000
00000000
00000031
00000100
00000010
00020000
00000000
00000000
01030000
00000000
11000000
00000000
00100000
00000000
,
00001000
00000000
00010000
00001000
00000100
00000001
00000010
00001000
00000000
00010000
00001000
00000000
00100000
00000000
10000000
00100000
,
00002000
00000000
01000000
00000000
00013000
00000000
00000100
00000010
00000000
00000001
00000100
00000000
00001000
00000000
00010000
00000000
,
01000000
10000000
00000000
00100000
01000000
00010000
00100000
00000000
00011000
00000000
00000100
00000001
00000010
00000001
00001000
00000010
,
00000200
00000000
00010000
00000000
00000310
00000000
00001000
00000100
00000000
00010000
00100000
10000000
01000000
00000000
00100000
00000000
,
00110000
00000000
00100000
00001000
00000100
00000001
00001000
00000200
00000000
00000000
00010300
00000000
01001000
00000000
00100000
00010000
,
00200000
00000000
10000000
00000000
00301000
00000000
00010000
00000200
00000000
00000000
00000310
00000000
00000101
00000000
00000100
00000000
,
00000010
00001000
00000100
00010000
01000000
10000000
00100000
00000000
00020000
00000000
00000000
00000000
00031000
00000100
00000001
00001000
,
00000020
00000000
00000001
00000000
00001030
00000100
00000000
00021000
00000000
00000000
01030000
00000000
10000000
00100000
00010000
00000000
,
00001000
00100000
00010000
00000000
10000000
01000000
00100000
10000000
00000000
00100000
00010000
00000000
01010000
00000000
00100000
00000000
,
00002000
00000000
00010000
00000000
00003100
00000010
00000000
00001000
00000000
00000001
00000010
00000100
00000010
00000000
00000011
00000000
,
00001010
00000000
00000100
00000001
00001000
00000100
00000010
00010000
00000000
00100000
01000000
00000000
00100000
00010000
10000000
00100000
,
00020000
00000000
00001000
00000000
00030100
00001000
00000010
00000001
00000000
00001000
00010000
01000000
10000000
00000000
00100000
10000000
,
01000000
00100000
00010000
00100000
00001000
00010000
00100000
00001000
00000100
00000010
00000001
00001000
00000010
00000000
00000011
00000000
,
00000100
00020000
00000000
00000000
00100000
00000000
01030000
00100000
00000000
10000000
00100000
01000000
00010000
00000000
00100000
00000000
,
01000000
10000000
00010000
00100000
00001000
00000010
00000001
00001000
00000100
00000002
00000000
00000020
00000003
00000000
00000130
00001000
,
00000010
00000000
00000100
00000000
00001001
00000000
00000010
00010000
00000000
00000010
00010000
00001000
00000010
00000000
00001000
00010000
,
01000000
00000000
11000000
00000000
00110000
00000000
00100000
00001000
00000000
00000100
00000010
00001000
00000000
00000001
00000010
00000000
,
00001100
00000000
00001000
00000000
00000001
00000000
00000100
00000010
00001000
00000000
00000100
00000010
00001000
00000000
00010000
00000000
,
01000000
20000000
00100000
00000000
30010000
00000000
00100000
00001000
00000000
00010000
00000100
00000010
00000000
00001000
00000010
00000000
,
00000001
00000100
00000000
00000000
00000001
00000100
00000000
00000000
00001000
00010000
00000000
00000000
00001000
00010000
00000000
00000000
,
01000000
10000000
00000000
00000000
01000000
10000000
00000000
00000000
00100000
00001000
00000000
00000000
00000010
00010000
00000000
00000000
,
01000100
00000000
00000000
00000000
01000000
00000000
00010000
00000000
00100000
00000000
01000000
00100000
00001000
00000000
00000200
00000000
,
00000020
00000300
00001030
00000000
00000101
00000000
00000001
00000000
00000010
00000000
00001000
00000000
00010000
00001000
00100000
01000000
,
00000000
10000000
00100000
00010000
00001000
00000000
00000100
00000000
00001000
00010000
00000010
00000000
00000001
00000010
00001000
00000100
,
00000000
00000010
00001000
00010000
01000000
00000000
11000000
00000000
00100000
00000000
00010000
00100000
00001000
00000000
00000010
00000001
,
00000000
00000100
00001000
00010000
00100000
00000000
10000000
01000000
00010000
00000000
01000000
00000000
11000000
00000000
00100000
00010000
,
00000000
00001000
00000010
00010000
00100000
00000000
01000000
00000000
00010000
01000000
00200000
00000000
00020000
00000000
00300000
00000000
,
00030100
00000000
00000010
00001000
00000000
00000010
00000001
00000000
00000100
00001000
00020000
00000000
02000000
00000000
00030000
00000000
,
13000000
00000000
00100000
00010000
00001000
00000000
00100000
01000000
00010000
00000000
00001000
00000000
00000100
00000000
00000101
00000000
,
00000000
00000000
00000010
00000100
00001000
00000000
00000001
00000000
00000100
00001000
00010000
00000000
01000000
00020000
00000000
00002000
,
00030000
00000000
00003100
00000000
00000010
00001000
00000100
00000001
00001000
00000000
00010000
00000000
01000000
00100000
00010000
00000000
,
01000000
00000000
00100000
00010000
00001000
00000000
00000100
00000010
00000000
00001000
00000100
00010000
01000000
00000000
10000000
00000000
,
00100000
00010000
00001000
00000000
00000010
00001000
00010000
00000000
01000000
10000000
00100000
00000000
00010000
00001000
00010000
00000000
,
00000100
00010000
00100000
00000000
10000000
00000000
01000000
00010000
00000000
00001000
00000100
00000010
00001000
00000100
00000001
00000000
,
00001000
00010000
01000000
00000000
10000000
00000000
00100000
00000000
01010000
00000000
00100000
10000000
00100000
00001000
00010000
00000000
,
00000100
00000000
00001000
00000000
00100000
00010000
10000000
01000000
00000000
00100000
00001000
00010000
00100000
10000000
00010000
00000000
,
00100000
00001000
00010000
00000000
01000000
10000000
00100000
00010000
00001000
00000000
00011000
00000000
00000100
00000001
00001000
00000000
,
00000010
00000000
00000001
00000000
00000010
00001000
00000100
00000010
00000000
00001000
00010000
00000000
01000000
10000000
01000000
00000000
,
00100000
10000000
00100000
00010000
01000000
00000000
00100000
00000000
00020000
00000000
01000000
00000000
00031000
00000000
00010000
00000000
,
00001000
00010000
00000010
00000000
00010000
00001000
01000000
00100000
00000000
10000000
00100000
00000000
01000000
00010000
00100000
00000000
,
00001000
00000010
00000001
00000000
00000100
00000010
00002000
00000000
00000100
00000000
00003010
00000000
00000100
00000001
00001000
00000000
,
00000010
00000100
00001000
00000000
00010000
00000000
01000000
10000000
00100000
00010000
00100000
00000000
00010000
00001000
00010000
00000100
,
00000010
00000000
00000001
00000000
00001000
00000010
00000200
00000000
00000001
00000000
00001300
00000000
00100000
00001000
00100000
00000000
,
01000000
10000000
00010000
00000000
00100000
00001000
00010000
00000100
00000000
00001000
00000010
00000000
00000100
00001000
00010000
00000000
,
01000000
10000000
01000000
00000000
10000000
00100000
00010000
00001000
00100000
00000000
00001000
00000000
00000100
00000010
00010000
00000000
,
00000100
00000010
00001000
00000000
00000010
00000001
00000100
00001000
00010000
00000000
01000000
00000000
10000000
00100000
10000000
00000000
,
01000000
00010000
00001000
00000000
00000100
00000000
00000001
00000000
00000020
00000000
00000001
00000000
00002030
00000000
00000000
00000000
,
00013000
00000000
00001000
01000000
00010000
00000000
10000000
00000000
00100000
00000000
01010000
00000000
11000000
00000000
00000000
10000000
,
00010000
00100000
00001000
00000000
00010000
00000000
00001000
00000000
02000000
00000000
10000000
00000000
03020000
00000000
00000000
00000000
,
00130000
00000000
01000000
00010000
00001000
00000000
00000010
00000000
00000100
00000000
00010010
00000000
00001100
00000000
00000000
00001000
,
00000100
00000010
00001000
00010000
00000000
01000000
10000000
00000000
00100000
00010000
00000000
00000000
00100000
00010000
00000000
00000000
,
00000100
00001000
00000000
00000000
00000100
00001000
00000000
00000000
00000010
00010000
00000000
00000000
00100000
00001000
00000000
00000000
,
00000100
00000010
00000000
00000000
00010000
00001000
00000000
00000000
00100010
00000000
00000000
00000000
00000010
00000000
00000000
00000001
,
00000010
00001000
00000100
00000000
00000010
00000000
00002000
00000000
00020000
00003000
01030000
00000000
10100000
00000000
01000000
00002000
,
00020000
00000000
00000000
00000000
00033000
00000000
00000000
00000000
00000000
00000000
00000000
00000100
00000001
00000010
00001000
00000000
,
00022000
00000000
00033000
00000000
;
