#TITLE:Beep, Beep, I'm A Sheep;
#SUBTITLE:;
#ARTIST:LilDeuceDeuce feat. TomSka & BlackGryph0n;
#TITLETRANSLIT:;
#SUBTITLETRANSLIT:;
#ARTISTTRANSLIT:;
#GENRE:;
#CREDIT:;
#MUSIC:Beep, Beep, I'm A Sheep.ogg;
#BANNER:;
#BACKGROUND:;
#CDTITLE:;
#SAMPLESTART:53.938;
#SAMPLELENGTH:12;
#SELECTABLE:YES;
#OFFSET:1.300;
#BPMS:0.000=126.000;
#STOPS:;
#BGCHANGES:;
#FGCHANGES:;

//--------------- dance-single - ----------------
#NOTES:
     dance-single:
     :
     Beginner:
     1:
     0,0,0,0,0:
0000
0000
0000
0000
,
0001
0001
0000
0000
,
1000
0000
0001
0000
,
1000
1000
0000
0000
,
0001
0000
1000
0000
,
0010
0010
0000
0000
,
0100
0000
0000
0000
,
0100
0100
0000
0000
,
0010
0000
0000
0000
,
1001
0000
0000
0000
,
0001
0000
0000
0000
,
1000
0000
0000
0000
,
0010
0010
0010
0010
,
0010
0000
0000
0000
,
0100
0000
0000
0100
,
0100
0000
0000
0000
,
1001
0000
0000
0001
,
0001
0000
0000
0000
,
1001
0000
0000
1000
,
1000
0000
0000
0000
,
0110
0000
0000
0000
,
0001
0001
0000
0000
,
0001
0001
0001
0000
,
1000
1000
0000
0000
,
1000
1000
1000
0000
,
0010
0010
0000
0000
,
0010
0010
0010
0000
,
0100
0100
0000
0000
,
0100
0100
0100
0000
,
0001
0000
0000
0000
,
0001
0000
0001
0000
,
1000
0000
0000
0000
,
1000
0000
1000
0000
,
1001
0000
0000
0000
,
0010
0000
0100
0000
,
0010
0000
0000
0000
,
0100
0000
0010
0000
,
0100
0000
0000
0000
,
0000
0000
0000
0000
,
0001
0000
0000
0000
,
0001
0000
0000
0000
,
1000
0000
0000
0000
,
1000
0000
0000
0100
,
0100
0000
0000
0000
,
0010
0000
0010
0010
,
0010
0000
0000
0000
,
0001
0000
1000
1000
,
1000
0000
0000
0000
,
1000
0000
0001
0001
,
0001
0000
0000
0000
,
1001
0000
0000
0000
,
0010
0010
0000
0000
,
0010
0010
0010
0000
,
0100
0100
0000
0000
,
0100
0100
0100
0000
,
0001
0000
1000
0000
,
0001
0000
0000
0000
,
1000
0000
0001
0000
,
1000
0000
0000
0000
,
1001
0000
0000
0000
,
0010
0000
0010
0000
,
0010
0000
0000
0000
,
0100
0000
0100
0000
,
0100
0000
0000
0000
,
1000
0000
0001
0000
,
1000
0000
0000
0000
,
0010
0010
0010
0000
,
1001
0000
0000
0000
,
0000
0000
0000
0000
,
1001
1001
0000
0000
;

//--------------- dance-single - ----------------
#NOTES:
     dance-single:
     :
     Easy:
     2:
     0,0,0,0,0:
0000
0000
0000
0000
,
0001
0001
1000
0000
,
0001
1000
0001
0000
,
1000
1000
0001
0000
,
1000
0001
1000
0000
,
0010
0000
0100
0000
,
0010
1000
0001
0000
,
0010
0000
0100
0000
,
0010
0001
1000
0000
,
1001
0000
0000
0000
,
1000
0000
1000
0000
,
0100
0000
0100
0000
,
0001
0000
0001
0100
,
0020
0000
0030
0000
,
0010
0010
0100
0000
,
0200
0000
0300
0000
,
0001
1000
0100
0000
,
2002
0000
3003
0000
,
0001
0000
1000
0000
,
0220
0000
0330
0000
,
0001
1000
0001
1000
,
0010
0010
0000
0000
,
1000
0001
0100
0000
,
0010
0010
0000
0000
,
0001
1000
0100
0000
,
1001
1001
0000
0000
,
1000
0001
1000
0000
,
1001
1001
0000
0000
,
0001
1000
0001
0000
,
0010
0001
0000
0000
,
0100
0000
1000
0000
,
0010
1000
0000
0000
,
0001
1000
1001
0000
,
1000
0100
0000
0000
,
0010
0100
1000
0000
,
0001
0100
0000
0000
,
0010
1000
0001
0100
,
0001
0000
1000
0000
,
0020
0000
0000
0030
,
0010
0000
0000
0000
,
0000
0000
1000
0001
,
0200
0000
0000
0000
,
0010
0010
0010
0010
,
0320
0000
0030
0000
,
0010
0010
0020
0000
,
0230
0000
0300
0000
,
0001
1000
0001
1000
,
2002
0000
3003
0000
,
1000
0001
1000
0001
,
2002
0000
3003
0000
,
0010
0010
0100
0100
,
0001
1001
0000
0000
,
0100
0001
1000
0000
,
1000
1001
0000
0000
,
0100
1000
0001
0000
,
0010
0110
0000
0000
,
0100
0100
1000
0000
,
0110
1001
0000
0000
,
0100
0100
0001
0010
,
0100
0001
0000
0000
,
1000
0000
0100
0000
,
0100
1000
0000
0000
,
0001
0000
0100
0000
,
0010
1001
0000
0000
,
1000
0000
0001
0000
,
0010
1001
0000
0000
,
0001
0000
1000
0000
,
0002
0003
2000
3000
,
0020
0000
0000
0000
,
0130
1001
0000
0000
;

//--------------- dance-single - ----------------
#NOTES:
     dance-single:
     :
     Medium:
     4:
     0,0,0,0,0:
0000
0000
0000
0000
,
0001
0001
1000
0001
,
1000
0001
1000
0000
0200
0000
0300
0000
,
1000
0001
1000
0001
,
0010
0001
1000
0000
0200
0000
0300
0000
,
1000
1000
0100
1000
,
0001
0100
0001
0000
0020
0000
0030
0000
,
0001
0001
0100
0001
,
1000
0010
1000
0000
0200
0000
0300
0000
,
1002
0000
0010
0000
,
0103
0010
0100
0000
,
2001
0000
0010
0000
,
3100
0010
0100
0000
,
1001
0000
0010
0000
,
0010
0010
0200
0000
,
0310
0000
1000
0100
,
0001
0100
0100
0000
,
2002
3003
1000
0001
,
1000
1000
0001
0001
,
0220
0330
0010
0000
,
1000
0001
0100
0000
,
0010
0010
1000
0000
,
0001
1000
0001
0000
0100
0000
0000
0000
,
0010
0010
0001
0000
,
1000
0001
0100
0000
0010
0000
0000
0000
,
1010
0101
0000
0000
,
0001
1000
0001
0000
1000
0000
0000
0000
,
0011
1100
0000
0000
,
1000
0001
1000
0000
0020
0000
0000
0000
,
0130
1001
0000
0000
,
2000
3100
0002
0103
,
0010
0010
1000
0001
,
0100
0000
0001
1000
0000
0001
2000
0000
,
3001
0110
0000
0000
,
0002
0013
2000
3010
,
1000
0001
1000
0000
0001
1000
0001
0000
,
0010
0010
1001
0100
,
0020
0000
0130
0100
,
0020
0000
0000
0030
,
2000
0100
0000
3001
,
0002
0100
0000
1003
,
0010
1000
0010
0001
,
0010
0010
0100
0100
,
1001
0000
0010
0000
,
0010
0100
0010
0000
0020
0000
0000
0000
,
0130
0000
0100
0100
,
0001
1000
0001
1000
,
2002
3003
1001
1001
,
0001
1000
0001
1000
,
0220
0000
0330
0000
1000
0010
1000
0000
,
0001
0010
0001
0000
0100
0010
0100
0000
,
1010
0011
0000
1000
,
0000
0001
1000
0000
,
1100
0101
0000
1000
,
0000
0001
0100
0000
,
0110
1001
0000
0000
,
1000
0000
0100
0000
0001
1000
0001
0000
,
0110
1001
0000
0000
,
0010
0001
1000
0000
0100
1000
0001
0100
,
0010
1001
0000
0000
,
0002
0013
2000
3010
,
1000
1000
0001
0001
,
0010
0001
0000
1000
0100
0000
0020
0000
,
0130
1001
0000
0000
,
2000
3100
0002
0103
,
0010
0010
1000
0001
,
1000
0001
0100
0000
0001
0010
0100
0000
,
2000
3002
1003
1001
,
0020
0000
0000
0000
,
0130
1001
0000
0000
;

//--------------- dance-single - ----------------
#NOTES:
     dance-single:
     :
     Hard:
     6:
     0,0,0,0,0:
0000
0000
0000
0000
,
0010
0000
1001
0000
1000
0100
0001
0000
,
1000
0010
0100
0001
2000
0000
3100
0000
,
0011
0000
1001
0000
1000
0010
0100
0000
,
0001
0100
1000
0100
0002
0000
0103
0000
,
1010
0000
1001
0000
0100
0010
1000
0000
,
0100
1000
0001
0010
0200
0000
0310
0000
,
0110
0000
1001
0000
0001
1000
0010
0000
,
1000
0100
0010
0001
0020
0000
0130
0000
,
2000
0100
0001
3100
,
0010
0001
1000
0000
0200
0000
0310
0000
,
0002
0100
1000
0103
,
0010
1100
0101
1001
,
2002
0000
3003
0000
1000
0010
1000
0000
,
0001
0010
0001
1000
0200
0000
0300
0000
,
0220
0000
0330
0000
0010
0001
0010
0000
,
0100
1000
0100
0000
0010
0010
0010
0000
,
2002
3003
0101
1100
,
0010
1000
0001
0000
0110
0000
1001
0000
,
0220
0000
0330
0000
1000
0001
1000
0000
,
0010
0010
0100
0100
0001
0010
0100
1000
,
0001
0000
1001
0000
0001
0100
0001
0000
,
0010
0001
0010
0001
0020
0000
0130
0000
,
1000
0000
1001
0000
1000
0100
1000
0000
,
0010
1000
0010
1000
0020
0000
0130
0000
,
0101
0000
1100
0000
0001
0010
1000
0000
,
0010
0100
1000
0001
0100
0000
0000
0000
,
1010
0000
0011
0000
1000
0100
0001
0000
,
0100
1000
0001
0100
0020
0000
0000
0000
,
1030
0000
0101
0000
1000
0001
0010
0000
,
0000
0100
0100
1000
0000
0100
0100
0001
,
1000
0000
1001
0000
0010
0010
0100
0000
,
0001
0010
1000
0000
0010
0100
1000
0001
,
0100
1001
0000
1001
,
0000
1000
0010
0100
0000
0001
0010
0100
,
0010
0000
0110
0000
1000
0001
0100
0000
,
0002
0000
0013
0100
2000
0000
3010
0100
,
0020
0000
1000
0000
0031
0010
1000
0100
,
0020
0000
0000
0030
,
2002
3003
1000
0100
,
0001
0000
0100
0000
0010
1000
0001
0000
,
2002
3003
0001
0100
,
1000
0100
0110
1001
,
2002
0000
3003
0000
1000
0010
1000
0000
,
0001
0010
0001
0000
0020
0000
0130
0000
,
0220
0000
0330
0000
0100
0100
0200
0000
,
1300
0001
1000
0001
,
2002
3003
0101
1100
,
0110
0000
0001
1000
0010
0000
1001
0000
,
0220
0000
0330
0000
1000
0100
0001
0000
,
0100
1000
0001
0100
0020
0100
0130
0000
,
1100
0000
0101
0000
0001
1000
0100
0000
,
1000
0001
0100
0010
0010
0000
0000
0000
,
1010
0000
0101
0000
1000
0010
0100
0000
,
1000
0100
0001
0010
0100
0000
0000
0000
,
0101
0000
1100
0000
0010
1000
0100
0000
,
0010
0001
0100
0010
2000
0000
3001
0000
,
0011
0000
1100
0000
0001
1000
0001
1000
,
0010
0010
1000
0000
0001
1000
0001
0100
,
0010
0110
0000
1000
,
0000
0001
0100
1000
0000
0100
0001
0010
,
0100
0000
0110
0000
1000
1000
0001
0000
,
0010
0001
1000
0000
0010
1000
0001
0100
,
0010
1100
0000
0101
,
0000
1000
0001
0100
0000
0001
1000
0100
,
0010
0110
1100
0101
,
0002
0000
0013
0100
2000
0000
3010
0100
,
1001
0000
0001
0001
1000
0100
0010
1000
,
0020
0000
0000
0000
,
0130
1001
0000
0000
;
