#TITLE:Barbie Girl;
#SUBTITLE:;
#ARTIST:Aqua;
#TITLETRANSLIT:;
#SUBTITLETRANSLIT:;
#ARTISTTRANSLIT:;
#GENRE:;
#CREDIT:8Chasey 2026;
#MUSIC:Barbie Girl.ogg;
#BANNER:Barbie Girl-bn.png;
#BACKGROUND:Barbie Girl-bg.png;
#CDTITLE:;
#SAMPLESTART:16.880;
#SAMPLELENGTH:12.000;
#SELECTABLE:YES;
#OFFSET:-3.975;
#BPMS:0.000=130.000;
#STOPS:;
#BGCHANGES:;
#FGCHANGES:;

//--------------- dance-single - BEGINNER ----------------
#NOTES:
     dance-single:
     BEGINNER:
     Beginner:
     1:
     0,0,0,0,0:
0000
0000
0000
0000
,
0000
0000
0000
0000
,
0001
0000
0000
0000
,
0001
0000
0000
0000
,
1000
0000
0000
0000
,
1000
0000
0000
0000
,
1001
0000
0000
0000
,
0001
0000
0001
0000
,
1000
0000
1000
0000
,
0000
0001
0001
0000
,
0000
1000
1000
0000
,
1000
0000
1000
0000
,
0001
0000
0001
0000
,
0000
1000
1000
0000
,
0000
0001
0001
0000
,
0000
0000
0000
0000
,
0001
0000
0000
0000
,
1000
0000
0001
0000
,
1000
0000
0000
0000
,
0001
0000
0000
0000
,
1000
0000
0000
0000
,
0001
0000
1000
0000
,
0001
0000
0000
0000
,
1000
0000
0000
0000
,
0001
0000
0000
0000
,
1000
0000
0000
0000
,
0001
0000
1000
0000
,
1001
0000
0000
0000
,
1000
0000
1000
0000
,
0001
0000
0001
0000
,
0000
1000
1000
0000
,
0000
0001
0001
0000
,
0001
0000
0001
0000
,
1000
0000
1000
0000
,
0000
0001
0001
0000
,
0000
1000
1000
0000
,
0001
0000
0001
0000
,
0001
0001
0001
0000
,
1000
0000
1000
0000
,
0001
0000
0001
0000
,
1000
0000
1000
0000
,
1000
1000
1000
0000
,
0001
0000
0001
0000
,
1000
0000
1000
0000
,
1001
0000
0000
0000
;

//--------------- dance-single - BASIC ----------------
#NOTES:
     dance-single:
     BASIC:
     Easy:
     3:
     0,0,0,0,0:
0000
0000
0000
0000
,
0000
0000
0000
0000
,
0001
0000
0001
0000
,
1000
0000
1000
0000
,
0001
0100
0001
0000
,
1000
0100
1000
0000
,
1001
1001
0000
0000
,
0001
0010
0001
0000
,
1000
0010
1000
0000
,
0100
0000
0100
0100
,
0010
0000
0010
0010
,
0001
0100
0001
0000
,
1000
0100
1000
0000
,
0010
0000
0010
0010
,
0100
0000
0100
0100
,
0110
0000
0000
0000
,
0001
0000
1000
0000
,
0001
1000
0001
0000
,
0100
0000
0010
0000
,
0100
0100
0010
0010
,
1000
0000
0001
0000
,
1000
0001
1000
0000
,
0010
0000
0100
0000
,
0010
0010
0100
0100
,
0110
0000
1000
0000
,
0110
0000
0001
0000
,
1000
0001
1000
0001
,
1001
0000
1000
0001
,
1000
0100
1000
0000
,
0001
0100
0001
0000
,
0010
0000
0010
0010
,
0100
0000
0100
0100
,
1000
0010
1000
0000
,
0001
0010
0001
0000
,
0100
0000
0100
0100
,
0010
0000
0010
0010
,
1000
0001
1000
0001
,
0100
0100
0110
0000
,
0010
0100
0010
0100
,
0000
0010
0000
0100
,
0001
1000
0001
1000
,
0010
0010
0110
0000
,
0100
0010
0100
0010
,
0000
0100
0000
0010
,
0110
0000
0000
0000
,
0000
0000
0000
0000
,
0010
0000
0000
0000
,
1000
0000
0001
0000
;

//--------------- dance-single - ANOTHER ----------------
#NOTES:
     dance-single:
     ANOTHER:
     Medium:
     5:
     0,0,0,0,0:
0000
0000
0000
0000
,
0000
0000
0000
0000
,
0001
0000
0000
1000
0001
0000
0000
0000
,
0100
0010
0100
0010
,
1000
0000
0000
0001
1000
0000
0000
0000
,
0100
0010
0100
0010
,
0001
1000
0000
1000
,
0001
0010
0110
0100
,
1000
0010
0110
0100
,
0001
0000
1000
0100
1000
0000
0001
0000
,
1000
0000
0001
0010
0001
0000
1000
0000
,
0010
0100
0101
0001
,
0010
0100
1100
1000
,
0010
0000
0100
0001
0100
0000
0010
0000
,
0100
0000
0010
1000
0010
0000
0100
0000
,
1001
0000
0000
0000
,
0101
1000
0101
1000
,
0001
0000
0001
0001
0000
0000
0000
0000
,
0010
0001
1000
0010
,
0100
0010
0100
0000
0010
0000
0010
0000
,
1100
0001
1100
0001
,
1000
0000
1000
1000
0000
0000
0000
0000
,
0100
1000
0001
0100
,
0010
0100
0010
0000
0100
0000
0100
0000
,
1001
0000
0000
0000
0001
0010
0001
0000
,
1100
0000
0000
0000
1000
0010
1000
0000
,
0101
0000
0000
0000
0110
0000
0010
0100
,
0010
0000
0100
0100
,
0001
0010
0110
0100
,
1000
0010
0110
0100
,
0001
0000
1000
0100
1000
0000
0001
0000
,
1000
0000
0001
0010
0001
0000
1000
0000
,
0010
0100
0101
0001
,
0010
0100
1100
1000
,
0010
0000
0100
0001
0100
0000
0010
0000
,
0100
0000
0010
1000
0010
0000
0100
0000
,
0010
1001
0100
1001
,
1100
0011
1001
0000
,
0100
1001
0010
1001
,
0000
1000
0001
0000
0000
0001
1000
0000
,
0001
0110
1000
0110
,
0101
1010
0110
0000
,
1000
0110
0001
0110
,
0000
0100
0010
0000
0000
0010
0100
0000
,
0010
0000
0010
0000
,
0100
0000
0100
0000
,
1000
0000
0001
0000
,
1000
0000
0001
0000
;

//--------------- dance-single - SSR ----------------
#NOTES:
     dance-single:
     SSR:
     Hard:
     7:
     0,0,0,0,0:
0000
0000
0000
0000
,
0000
0000
0000
0000
,
0001
0000
1000
0001
1000
0000
0001
0000
,
1000
0100
1000
0010
0100
0000
0001
0000
,
1000
0000
0001
1000
0001
0000
1000
0000
,
0001
0010
0001
0100
0010
0000
1000
0000
,
0001
0001
0001
0000
0000
0000
0000
0000
,
1000
0100
1100
0000
0001
0010
0011
0000
,
0100
0010
1000
0001
0101
0000
1010
0000
,
0010
0000
1000
0001
1000
0000
1100
0000
,
0010
0000
0001
1000
0001
0000
0101
0000
,
0010
1000
0100
0010
0011
0000
0001
0001
,
0100
0001
0010
0100
1100
0000
1000
1000
,
0000
0100
1000
0100
1000
0000
0011
0000
,
0001
0100
0001
0100
0001
0000
1010
0000
,
1001
0000
0000
0000
0000
0001
1000
0100
,
0000
1000
0001
0100
0000
0010
1000
0001
,
0000
0010
0100
0110
0000
0010
0001
1000
,
0000
0010
1000
0001
0000
0100
0010
0100
,
0000
0010
0000
0000
0000
1000
0001
0100
,
0000
0001
1000
0010
0000
0010
1000
0100
,
0000
0010
0100
1001
0000
1000
0010
0001
,
0000
0001
0010
1000
0000
1000
0001
0011
,
0000
1010
0000
0000
0000
1000
0001
0010
,
0110
0000
1000
0000
1000
0010
0100
0001
,
1001
0000
0100
0000
0100
0001
0010
0100
,
0110
0000
0010
0100
0010
0000
0001
0001
,
1001
0000
1000
1000
0001
1000
0001
0001
,
0100
0010
1000
0100
0010
0000
0110
0000
,
0010
0001
0100
0010
0100
0000
1001
0000
,
1100
0000
0100
0010
0001
0000
0011
0000
,
0101
0000
0100
0010
1000
0000
1010
0000
,
1000
0100
1000
0010
0110
0000
0100
0100
,
0001
0010
0001
1000
1001
0000
0001
0001
,
0000
0100
0001
0100
0010
0000
1010
0000
,
1000
0100
1000
0100
0010
0000
0011
0000
,
0100
0100
1000
0000
0100
0100
1000
0000
,
1010
0101
0011
1100
,
0100
0100
1000
0000
0100
0100
1000
0000
,
0000
0010
0100
0001
0000
0010
0100
1000
,
0100
0100
0001
0000
0100
0100
0001
0000
,
1100
1010
0101
0011
,
0100
0100
0001
0000
0100
0100
0001
0000
,
0000
0010
0001
0100
0000
0010
1000
0100
,
0110
0000
0001
0000
,
1000
0000
0100
0000
,
0010
0000
0001
0000
,
1000
0000
0001
0000
;

//--------------- dance-double - D-BASIC ----------------
#NOTES:
     dance-double:
     D-BASIC:
     Easy:
     3:
     0,0,0,0,0:
00000000
00000000
00000000
00000000
,
00000000
00000000
00000000
00000000
,
00001000
00000000
00001000
00000000
,
00010000
00000000
00010000
00000000
,
00000100
00001000
00000100
00000000
,
01000000
00010000
01000000
00000000
,
00011000
00011000
00000000
00000000
,
00001000
00000010
00001000
00000000
,
00000001
00000100
00000001
00000000
,
00000010
00000000
00001000
00010000
,
00100000
00000000
00010000
00001000
,
00100000
00010000
00100000
00000000
,
01000000
10000000
01000000
00000000
,
00100000
00000000
00001000
00010000
,
00000010
00000000
00000100
00000100
,
00000110
00000000
00000000
00000000
,
00000001
00000000
00001000
00000000
,
00010000
00001000
00010000
00000000
,
01000000
00000000
00100000
00000000
,
10000000
10000000
00010000
00010000
,
00001000
00000000
00000001
00000000
,
00001000
00000001
00001000
00000000
,
00010000
00000000
10000000
00000000
,
00100000
00100000
01000000
01000000
,
01100000
00000000
00001000
00000000
,
00000110
00000000
00010000
00000000
,
00001000
00010000
00001000
00010000
,
00011000
00000000
00001000
00010000
,
00100000
10000000
00100000
00000000
,
01000000
00010000
01000000
00000000
,
00100000
00000000
00010000
00010000
,
00000100
00000000
00001000
00001000
,
00000001
00000010
00000001
00000000
,
00001000
00000100
00001000
00000000
,
00000010
00000000
00001000
00001000
,
01000000
00000000
00010000
00010000
,
00001000
00010000
00001000
00010000
,
00000100
00000100
00000110
00000000
,
00010000
00001000
00010000
00001000
,
00000000
01000000
00000000
00100000
,
10000000
00010000
10000000
00010000
,
01000000
01000000
00011000
00000000
,
00001000
00000001
00001000
00000001
,
00000000
00000010
00000000
00000100
,
00000110
00000000
00000000
00000000
,
00000100
00000000
00000000
00000000
,
00000010
00000000
00000100
00000000
,
00010000
00000000
10000000
00000000
;

//--------------- dance-double - D-ANOTHER ----------------
#NOTES:
     dance-double:
     D-ANOTHER:
     Medium:
     5:
     0,0,0,0,0:
00000000
00000000
00000000
00000000
,
00000000
00000000
00000000
00000000
,
00000010
00000000
00000000
00000010
00000100
00000000
00000000
00000100
,
00001000
00000000
00010000
00001000
00010000
00000000
00001000
00000000
,
00100000
00000000
00000000
00100000
01000000
00000000
00100000
00000000
,
00001000
00010000
00001000
00000000
00010000
00000000
00001000
00000000
,
00011000
00010000
00000000
00000000
,
00000010
00001000
00001100
00000100
,
00000010
00000001
00000101
00000100
,
00001000
00000000
00100000
00010000
00100000
00000000
01000000
00000000
,
10000000
00000000
00100000
10000000
00100000
00000000
01000000
00000000
,
00100000
10000000
11000000
01000000
,
00100000
00010000
01010000
01000000
,
00001000
00000000
00010000
00001000
00010000
00000000
00000010
00000000
,
00000100
00000000
00000001
00001000
00000001
00000000
00001000
00000000
,
00011000
00000000
00000000
00000000
,
01001000
00010000
01001000
00010000
,
00001000
00000000
00001000
00001000
00000000
00000000
00000000
00000000
,
00100000
00010000
10000000
01000000
,
00100000
01000000
00100000
00000000
00001000
00000000
00010000
00000000
,
00010100
00001000
00010100
00001000
,
00010000
00000000
00010000
00010000
00000000
00000000
00000000
00000000
,
00000100
00001000
00000001
00000100
,
00000010
00000100
00000010
00000000
00001000
00000000
00000001
00000000
,
00001001
00000000
00000000
00000000
00010000
00001000
00010000
00000000
,
10010000
00000000
00000000
00000000
00001000
00010000
00001000
00000000
,
01010000
00000000
00000000
00000000
00001100
00000000
00000010
00000100
,
00000010
00000000
00000100
00000100
,
00001000
00100000
01100000
01000000
,
10000000
00010000
00011000
00001000
,
00000001
00000000
00000100
00000010
00000100
00000000
00001000
00000000
,
00010000
00000000
00100000
01000000
00100000
00000000
10000000
00000000
,
00010000
00000010
00000110
00000100
,
00000001
00001000
00011000
00010000
,
10000000
00000000
00100000
01000000
00100000
00000000
00010000
00000000
,
01000000
00000000
00001000
00010000
00001000
00000000
00010000
00000000
,
00000100
00001001
00000010
00001001
,
00010100
00101000
00011000
00000000
,
01000000
10010000
00100000
10010000
,
00000000
00010000
00001000
00000000
00000000
00001000
00010000
00000000
,
10000000
01100000
00010000
01100000
,
01001000
00010010
00011000
00000000
,
00001000
00000110
00000001
00000110
,
00000000
00001000
00010000
00000000
00000000
00010000
00001000
00000000
,
00100000
00000000
00100000
00000000
,
01000000
00000000
01000000
00000000
,
10000000
00000000
00010000
00000000
,
10000000
00000000
00010000
00000000
;

//--------------- dance-double - D-SSR ----------------
#NOTES:
     dance-double:
     D-SSR:
     Hard:
     8:
     0,0,0,0,0:
00000000
00000000
00000000
00000000
,
00000000
00000000
00000000
00000000
,
00000100
00000000
00000000
00001000
00000000
00000000
00001100
00000000
00000000
00000000
00010000
00000000
00000000
00001000
00000000
00000000
,
01000000
00000000
00000000
00010000
00000000
00000000
01010000
00000000
00000000
00000000
00001000
00000000
00000000
00010000
00000000
00000000
,
00000100
00000000
00000000
00000010
00000000
00000000
00000110
00000000
00000000
00000000
00010000
00000000
00000000
00001000
00000000
00000000
,
00100000
00000000
00000000
01000000
00000000
00000000
01100000
00000000
00000000
00000000
00001000
00000000
00000000
00000100
00000000
00000000
,
00000001
00000001
00000001
00000000
00001000
00000000
00010000
00000000
,
10000000
00100000
01100000
00000000
01000000
00001000
00011000
00000000
,
00010000
00000100
00001000
00000001
00000101
00000000
00001010
00000000
,
00001000
00000000
00000100
00010000
00001000
00000000
00011000
00000000
,
00010000
00000000
01000000
10000000
00100000
00000000
01100000
00000000
,
00100000
10000000
01000000
00100000
00011000
00000000
00010000
00000100
,
00000010
00000001
00000100
00001000
00011000
00000000
00001000
01000000
,
00000000
00001000
00100000
00001000
00100000
00000000
00010100
00000000
,
00000010
00010000
00000010
00010000
00000010
00000000
01001000
00000000
,
10010000
00000000
00000000
10000000
00000000
00000000
10000000
00000000
00000000
00000000
01000000
00000000
00100000
00000000
00010000
00000000
,
00000000
00100000
00001000
00010000
00000000
00000100
00000010
00000001
,
00000000
00000100
00000010
00000110
00000000
00000100
00001000
00010000
,
00000000
00100000
10000000
01000000
00000000
00010000
00001000
00010000
,
00000000
01000000
00000000
10000000
00000000
00100000
01000000
00001000
,
00000000
00000010
00000100
00010000
00000000
00000100
00000010
00000001
,
00000000
00001000
00000001
00000110
00000000
00000100
00001000
00010000
,
00000000
01000000
00010000
00001000
00000000
00100000
00001000
01001000
,
00000000
00010100
00000000
00000100
00000000
00000010
00000001
00001000
,
00001100
00000000
00000100
00000000
00010000
00001000
00100000
00010000
,
01010000
00000000
01000000
00000000
00010000
00100000
00001000
00010000
,
00011000
00000000
00000100
00000010
00000100
00000000
00001000
00001000
,
00001001
00000000
00000000
00000000
00000001
00000000
00000000
00000000
00000100
00000010
00000100
00000000
00000010
00000000
00001000
00000000
,
00000100
00010000
00100000
10000000
00010000
00000000
10010000
00000000
,
01000000
00001000
00000010
00000001
00001000
00000000
00001001
00000000
,
00010100
00000000
00010000
00100000
10000000
00000000
11000000
00000000
,
01001000
00000000
00001000
00000010
00000001
00000000
00000101
00000000
,
00000100
00000010
00010000
00001000
00011000
00000000
00001000
00001000
,
00100000
00010000
10000000
01000000
01100000
00000000
00010000
00010000
,
00000000
00000100
00001000
00000100
00010000
00000000
00101000
00000000
,
00010000
01000000
00010000
01000000
00001000
00000000
00010010
00000000
,
00000010
00000010
00000001
00000000
00000010
00000010
00001000
00000000
,
00001100
00011000
00110000
00011000
,
00100000
00100000
00010000
00000000
00100000
00100000
10000000
00000000
,
00000000
00010000
01000000
10000000
00000000
00010000
00100000
10000000
,
00100000
00100000
10000000
00000000
00100000
00100000
00010000
00000000
,
01010000
00011000
00001010
00011000
,
00000010
00000010
00001000
00000000
00000010
00000010
00000001
00000000
,
00000000
00001000
00000100
00000001
00000000
00000001
00000100
00001000
,
00011000
00000000
00010000
00000000
,
00001000
00100000
00001000
00000000
,
00010000
00000000
00000100
00000000
,
00000010
00000000
00001001
00000000
;

//--------------- dance-solo - 6PANEL-BASIC ----------------
#NOTES:
     dance-solo:
     6PANEL-BASIC:
     Easy:
     3:
     0,0,0,0,0:
000000
000000
000000
000000
,
000000
000000
000000
000000
,
000001
000000
000001
000000
,
100000
000000
100000
000000
,
000010
001000
000010
000000
,
010000
001000
010000
000000
,
010010
100001
000000
000000
,
000010
000100
000010
000000
,
010000
000100
010000
000000
,
001000
000000
001000
001000
,
000100
000000
000100
000100
,
000001
001000
000001
000000
,
100000
001000
100000
000000
,
000100
000000
000100
000100
,
001000
000000
001000
001000
,
001100
000000
000000
000000
,
000001
000000
100000
000000
,
000010
010000
000010
000000
,
001000
000000
000100
000000
,
001000
001000
000100
000100
,
100000
000000
000001
000000
,
010000
000010
010000
000000
,
000100
000000
001000
000000
,
000100
000100
001000
001000
,
001100
000000
100000
000000
,
001100
000000
000001
000000
,
010000
000010
010000
000010
,
100001
000000
100000
000001
,
100000
001000
100000
000000
,
000001
001000
000001
000000
,
000100
000000
000100
000100
,
001000
000000
001000
001000
,
010000
000100
010000
000000
,
000010
000100
000010
000000
,
001000
000000
001000
001000
,
000100
000000
000100
000100
,
010000
000010
100000
000001
,
001000
001000
001100
000000
,
000100
001000
000100
001000
,
000000
000100
000000
001000
,
000001
100000
000010
010000
,
000100
000100
001100
000000
,
001000
000100
001000
000100
,
000000
001000
000000
000100
,
001100
000000
000000
000000
,
100000
000000
000000
000000
,
000001
000000
000000
000000
,
010000
000000
000010
000000
;

//--------------- dance-solo - 6PANEL-TRICK ----------------
#NOTES:
     dance-solo:
     6PANEL-TRICK:
     Medium:
     5:
     0,0,0,0,0:
000000
000000
000000
000000
,
000000
000000
000000
000000
,
000001
000000
000000
100000
000010
000000
000000
000000
,
001000
000100
001000
000100
,
100000
000000
000000
000001
010000
000000
000000
000000
,
001000
000100
001000
000100
,
000001
010000
000010
100000
,
000001
000100
001100
001000
,
100000
000100
001100
001000
,
000001
000000
100000
001000
100000
000000
000010
000000
,
010000
000000
000001
000100
000001
000000
100000
000000
,
000100
001000
001001
000010
,
000100
001000
101000
010000
,
000100
000000
001000
000001
001000
000000
000100
000000
,
001000
000000
000100
100000
000100
000000
001000
000000
,
100001
000000
000000
000000
,
001001
100000
001001
100000
,
000010
000000
000010
000010
000000
000000
000000
000000
,
000100
000001
100000
000100
,
001000
000100
001000
000000
000100
000000
000100
000000
,
101000
000001
101000
000001
,
010000
000000
010000
010000
000000
000000
000000
000000
,
001000
100000
000001
001000
,
000100
001000
000100
000000
001000
000000
001000
000000
,
100001
000000
000000
000000
000010
000100
000010
000000
,
110000
000000
000000
000000
010000
000100
010000
000000
,
000011
000000
000000
000000
001100
000000
000100
001000
,
000100
000000
001000
001000
,
000001
000100
001100
001000
,
100000
000100
001100
001000
,
000001
000000
100000
001000
100000
000000
000010
000000
,
010000
000000
000001
000100
000001
000000
100000
000000
,
000100
001000
001001
000010
,
000100
001000
101000
010000
,
000100
000000
001000
000001
001000
000000
000100
000000
,
001000
000000
000100
100000
000100
000000
001000
000000
,
000100
010010
001000
100001
,
110000
000011
010010
000000
,
001000
100001
000100
010010
,
000000
010000
000010
000000
000000
000010
010000
000000
,
000001
001100
100000
001100
,
000011
110000
001100
000000
,
010000
001100
000010
001100
,
000000
100000
000001
000000
000000
000001
100000
000000
,
000100
000000
000100
000000
,
001000
000000
001000
000000
,
100000
000001
100000
000001
,
010000
000000
000010
000000
;

//--------------- dance-solo - 6PANEL-MANIAC ----------------
#NOTES:
     dance-solo:
     6PANEL-MANIAC:
     Hard:
     8:
     0,0,0,0,0:
000000
000000
000000
000000
,
000000
000000
000000
000000
,
000001
000000
000000
000010
000000
000000
000011
000000
000000
000000
000001
000000
000000
001000
000000
000000
,
000100
000000
000000
100000
000000
000000
101000
000000
000000
000000
001000
000000
000000
001000
000000
000000
,
100000
000000
000000
010000
000000
000000
110000
000000
000000
000000
100000
000000
000000
001000
000000
000000
,
000100
000000
000000
000001
000000
000000
001001
000000
000000
000000
001000
000000
000000
000100
000000
000000
,
010000
010000
010000
000000
000010
000010
000010
000000
,
100000
001000
101000
000000
000001
000100
000101
000000
,
001000
000100
100000
000001
000011
000000
110000
000000
,
000100
000000
010000
000010
010000
000000
101000
000000
,
000100
000000
000010
010000
000010
000000
001001
000000
,
000100
010000
001000
000100
000011
000000
000001
000001
,
000100
000010
001000
000100
110000
000000
100000
100000
,
000000
000000
001000
100000
001000
100000
000110
000000
,
000001
001000
000001
001000
000001
000000
010100
000000
,
100001
000000
000000
100000
000000
000000
100000
000000
000000
000000
000001
000000
100000
000000
001000
000000
,
000000
100000
000001
001000
000000
000100
010000
000010
,
000000
000100
001000
001100
000000
000100
000010
010000
,
000000
000100
100000
000001
000000
001000
000100
001000
,
000000
000100
000000
000100
000000
100000
000001
001000
,
000000
000010
010000
000100
000000
000100
100000
001000
,
000000
000100
001000
100001
000000
010000
000100
000001
,
000000
000010
000100
100000
000000
100000
000001
000110
,
000000
010100
000000
010010
000000
100000
000001
000100
,
001100
000000
100000
000000
100000
000100
001000
000001
,
100001
000000
001000
000000
001000
000010
000100
001000
,
001100
000000
000100
001000
000100
000000
000010
000010
,
010010
000000
010000
010000
000010
100000
000001
000001
,
001000
000100
010000
001000
000100
000000
001100
000000
,
000100
000010
001000
000100
001000
000000
100001
000000
,
110000
000000
001000
000100
010000
000000
010100
000000
,
000011
000000
001000
000100
000010
000000
000110
000000
,
010000
001000
100000
000100
001100
000000
001000
001000
,
000010
000100
000001
010000
100010
000000
100000
000001
,
000000
001000
000001
001000
000100
000000
010100
000000
,
100000
001000
100000
001000
000100
000000
000110
000000
,
001000
001000
100000
000000
001000
001000
010000
000000
,
110000
100100
001001
000011
,
001000
001000
010000
000000
001000
001000
100000
000000
,
000000
000100
001000
000001
000000
000100
001000
100000
,
001000
001000
000001
000000
001000
001000
000010
000000
,
000011
001001
100100
110000
,
001000
001000
000010
000000
001000
001000
000001
000000
,
000000
000100
000010
001000
000000
000100
010000
001000
,
001100
000000
000001
000000
,
000100
000010
001000
000000
,
000100
000000
010000
000000
,
001000
000000
100001
000000
;
