#TITLE:Baby One More Time;
#SUBTITLE:-Just Dance 3 Mix-;
#ARTIST:The Girly Team;
#TITLETRANSLIT:;
#SUBTITLETRANSLIT:;
#ARTISTTRANSLIT:;
#GENRE:;
#CREDIT:;
#BANNER:Baby One More Time (Just Dance 3 Mix).png;
#BACKGROUND:Baby One More Time (Just Dance 3 Mix)-bg (Upscaled).png;
#LYRICSPATH:;
#CDTITLE:;
#MUSIC:Baby One More Time (Just Dance 3 Mix).ogg;
#OFFSET:-0.950000;
#SAMPLESTART:41.369999;
#SAMPLELENGTH:15.000000;
#SELECTABLE:YES;
#DISPLAYBPM:95.000000;
#BPMS:0.000000=95.000000
,96.000000=47.500000
,104.000000=95.000000
;
#STOPS:148.000000=1.263000
;
#BGCHANGES:;
#KEYSOUNDS:;
#ATTACKS:;

//---------------dance-single - ----------------
#NOTES:
     dance-single:
     :
     Hard:
     8:
     0.288495,0.333072,0.224385,0.271132,0.042072,216.000000,192.000000,24.000000,29.000000,0.000000,0.000000,0.288495,0.333072,0.224385,0.271132,0.042072,216.000000,192.000000,24.000000,29.000000,0.000000,0.000000:
0000
0000
0000
0000
,
0000
0000
0000
0000
,
0100
0000
0001
0000
,
1000
0100
1000
0100
0000
0010
0010
0010
,
0110
0000
0010
0001
0100
0000
0110
0000
,
1000
0100
0000
0001
0100
0000
0020
0000
,
0030
0000
1000
0001
1000
0000
0000
0100
,
0001
1000
0020
0130
,
1001
0000
0001
0100
0010
0010
0000
1000
,
0100
0010
0001
0100
0010
0000
2000
0000
,
3000
0000
0001
1000
0010
0000
0000
0010
,
0200
0302
1003
1001
,
0101
0000
1100
0000
0010
0010
0010
0000
,
0011
0000
1010
0000
0100
0100
0100
0000
,
0002
0000
2003
0000
3010
0000
0100
0001
,
2000
3002
0003
1001
,
0010
0100
0001
0000
1100
0000
0000
0010
,
0010
0000
0001
0000
1000
0000
0000
0000
0010
0000
0100
0001
0100
0000
0000
0000
,
0110
0000
1000
0100
0010
0000
0100
0000
,
1000
0000
0001
0000
0100
0000
0001
0000
0010
0000
0100
0010
0100
0000
0000
0000
,
1001
0100
0001
0100
1000
0100
0010
0100
,
0020
0030
2000
3002
,
0023
0000
0000
0100
0200
0000
0330
0000
,
0010
1000
0100
0001
0010
0010
0010
0000
,
1001
0000
0000
0010
0020
0000
0000
0000
1030
0000
0001
0000
1000
0000
0001
0100
,
0020
0000
0000
1000
1030
0000
0001
0000
1100
0000
0010
0100
0002
0000
0003
0000
,
2000
0000
0010
0000
3000
0001
0002
0000
,
0103
0000
0110
0000
1000
0001
0010
0010
,
1000
0001
0100
0001
0010
0001
0002
0000
,
2003
0000
3010
0110
,
1001
0000
0000
0000
0001
0000
0100
0010
0100
0000
0010
0000
0010
0000
0000
0000
,
2000
3001
0020
0000
0100
0100
0130
0000
,
0101
0000
0000
0000
1000
0000
0010
0000
0100
0001
0100
0000
0010
0000
0000
0000
,
2000
0000
3002
0000
0013
0000
0100
0010
,
0110
0000
0000
0000
0100
0000
0001
0000
0010
1000
0010
0000
0001
0000
0000
0000
,
1100
0010
0010
0000
0101
0010
0010
0000
,
1002
0203
0020
0330
,
0210
0001
0301
0000
1001
0000
0000
0000
;

//---------------dance-single - ----------------
#NOTES:
     dance-single:
     :
     Beginner:
     1:
     0.081473,0.140241,0.084144,0.000000,0.000000,61.000000,52.000000,9.000000,0.000000,0.000000,0.000000,0.081473,0.140241,0.084144,0.000000,0.000000,61.000000,52.000000,9.000000,0.000000,0.000000,0.000000:
0000
0000
0000
0000
,
0000
0000
0000
0000
,
0010
0000
0000
0000
,
0010
0000
0000
1000
,
1000
0000
0000
0000
,
0001
0000
0000
0000
,
0010
0010
0010
0000
,
0010
0000
0000
0001
,
0001
0000
0000
0000
,
1000
0000
0000
0000
,
0100
0100
0100
0000
,
0100
0000
0000
0000
,
0010
0010
0000
0000
,
0100
0100
0000
0000
,
0110
0110
0000
0000
,
0001
0000
1000
0000
,
1001
0000
0000
0000
,
0010
0000
0100
0000
,
0010
0000
0000
0000
,
1000
0000
0000
0000
,
0001
0000
0000
0000
,
0000
0000
0000
0000
,
1001
0000
0000
0000
,
1001
0000
0000
0000
,
0010
0010
0010
0000
,
1000
0000
0001
0000
,
0100
0000
0000
0000
,
0001
0000
0000
0000
,
0100
0000
0000
0000
,
1000
0000
0000
0000
,
0110
0000
0000
0000
,
0001
0000
1000
0000
,
0010
0000
0000
0000
,
1000
0000
0001
0000
,
0010
0000
0000
0000
,
0100
0000
0000
0000
,
0110
0000
0000
0000
,
1001
0000
1001
0000
;

//---------------dance-single - ----------------
#NOTES:
     dance-single:
     :
     Easy:
     2:
     0.128220,0.157771,0.056096,0.158939,0.000000,96.000000,90.000000,6.000000,17.000000,0.000000,0.000000,0.128220,0.157771,0.056096,0.158939,0.000000,96.000000,90.000000,6.000000,17.000000,0.000000,0.000000:
0000
0000
0000
0000
,
0000
0000
0000
0000
,
0000
0001
0001
0000
,
1000
1000
0001
0001
,
0000
1000
1000
0000
,
0001
0000
1000
0000
,
0200
0000
0300
0000
,
1000
0001
1000
0001
,
0000
1000
1000
0000
,
0001
0000
1000
0000
,
0020
0000
0030
0000
,
1000
0001
1000
0001
,
0100
0200
0000
0300
,
0010
0020
0000
0030
,
1000
2000
0000
3000
,
0001
0002
0000
0003
,
1001
0000
0100
0000
,
0001
0001
1000
1000
,
0000
0001
1000
0000
,
0001
0002
1003
2000
,
3001
0000
0010
0000
,
1000
0001
0000
0100
,
2002
0000
3003
0000
,
0001
1000
0001
1000
,
2002
0000
3003
0000
,
0200
0000
0310
0010
,
0100
0010
0000
0010
,
0100
0010
0000
0010
,
0001
1000
0000
1000
,
0001
1000
0001
1000
,
1001
0000
0010
0000
,
1000
0001
0000
1000
,
0001
0000
0001
0000
,
1000
1000
0000
0000
,
0001
1000
0001
1000
,
0020
0030
0200
0300
,
0220
0000
0330
0000
,
1000
0001
1001
0000
;

//---------------dance-single - ----------------
#NOTES:
     dance-single:
     :
     Medium:
     5:
     0.208358,0.210361,0.149590,0.224385,0.000000,156.000000,140.000000,16.000000,24.000000,0.000000,0.000000,0.208358,0.210361,0.149590,0.224385,0.000000,156.000000,140.000000,16.000000,24.000000,0.000000,0.000000:
0000
0000
0000
0000
,
0000
0000
0000
0000
,
0100
0001
0100
1000
,
0020
0000
0000
0000
0030
1000
0001
0010
,
1001
0000
0100
0000
0100
0000
0000
1000
,
0100
0001
0010
1100
,
0101
0000
0010
0100
,
1000
0001
0001
0000
0020
0000
0130
0000
,
0000
1000
0100
0000
0001
0000
0010
0000
,
0100
0001
1000
0001
,
2000
0000
0010
0000
3100
0000
0010
0001
,
0100
0001
1000
1001
,
0010
0020
1000
0130
,
0001
0002
0010
1003
,
0100
0200
1000
0310
,
1000
0000
2000
0000
3000
0001
1001
0000
,
0100
0010
1001
0000
,
0010
1000
0100
0000
0001
0001
0001
0000
,
0002
0000
0013
0000
0100
1000
0100
0000
,
1000
0010
2000
0000
0001
0000
3100
0000
,
0101
0000
0020
0000
1030
0100
0010
0000
,
0001
1000
0010
0100
,
0220
0000
0000
0330
,
1000
0100
0001
0100
,
0020
0000
1030
0000
0100
1000
0001
0000
,
0020
0000
0030
0000
0001
0000
1000
0010
,
1001
0000
0000
0000
1000
0100
1000
0000
,
0010
0010
0100
0001
,
2000
0010
0001
3200
,
0320
0000
0030
0000
0000
0001
1000
0000
,
1001
0000
2100
0010
,
0020
0000
3030
0000
0100
0001
1000
0000
,
0002
0010
0100
0013
,
0001
1000
0100
0110
,
1001
0000
0000
1000
0010
0000
0020
0000
,
2000
0000
0030
0000
0100
0100
3100
0000
,
0202
0000
0303
0000
,
0110
0000
1001
0000
;

//---------------dance-double - ----------------
#NOTES:
     dance-double:
     :
     Easy:
     1:
     0.086816,0.140241,0.093494,0.093494,0.000000,65.000000,55.000000,10.000000,10.000000,0.000000,0.000000,0.086816,0.140241,0.093494,0.093494,0.000000,65.000000,55.000000,10.000000,10.000000,0.000000,0.000000:
// measure 0
00000000
00000000
00000000
00000000
,  // measure 1
00000000
00000000
00000000
00000000
,  // measure 2
00001000
00000000
00010000
00000000
,  // measure 3
00001000
00000000
00010000
00000000
,  // measure 4
00011000
00000000
00000000
00000000
,  // measure 5
00010000
00000000
00000000
00000000
,  // measure 6
00002000
00000000
00003000
00000000
,  // measure 7
00010000
00000000
00010000
00000000
,  // measure 8
00001000
00000000
00000000
00000000
,  // measure 9
00010000
00000000
00000000
00000000
,  // measure 10
00002000
00000000
00003000
00000000
,  // measure 11
00010000
00000000
00001000
00000000
,  // measure 12
00011000
00000000
00000000
00000000
,  // measure 13
00011000
00000000
00000000
00000000
,  // measure 14
00010000
00000000
00001000
00000000
,  // measure 15
00022000
00000000
00033000
00000000
,  // measure 16
00011000
00000000
00000000
00000000
,  // measure 17
00010000
00000000
00001000
00000000
,  // measure 18
00010000
00000000
00000000
00000000
,  // measure 19
00001000
00000000
00010000
00000000
,  // measure 20
00001000
00000000
00000000
00000000
,  // measure 21
00010000
00000000
00001000
00000000
,  // measure 22
00022000
00000000
00033000
00000000
,  // measure 23
00001000
00010000
00001000
00010000
,  // measure 24
00001000
00000000
00001000
00000000
,  // measure 25
00010000
00000000
00010000
00000000
,  // measure 26
00001000
00010000
00001000
00000000
,  // measure 27
00010000
00001000
00010000
00000000
,  // measure 28
00022000
00000000
00000000
00000000
,  // measure 29
00033000
00000000
00000000
00000000
,  // measure 30
00011000
00000000
00000000
00000000
,  // measure 31
00001000
00000000
00010000
00000000
,  // measure 32
00001000
00000000
00000000
00000000
,  // measure 33
00010000
00000000
00001000
00000000
,  // measure 34
00010000
00000000
00000000
00000000
,  // measure 35
00001000
00000000
00010000
00000000
,  // measure 36
00022000
00000000
00033000
00000000
,  // measure 37
00000000
00000000
00011000
00000000
;
