#TITLE:BRILLIANT 2U MEGAMIX;
#SUBTITLE:;
#ARTIST:NAOKI;
#TITLETRANSLIT:;
#SUBTITLETRANSLIT:;
#ARTISTTRANSLIT:;
#GENRE:;
#CREDIT:8Chasey 2025;
#MUSIC:BRILLIANT 2U MEGAMIX.ogg;
#BANNER:BRILLIANT 2U MEGAMIX-bn.png;
#BACKGROUND:BRILLIANT 2U MEGAMIX-bg.png;
#CDTITLE:;
#SAMPLESTART:27.25;
#SAMPLELENGTH:15;
#SELECTABLE:YES;
#OFFSET:-8.06;
#BPMS:0.000=150.06;
#STOPS:;
#DISPLAYBPM:150.00;
#LASTBEAT:190;
#BGCHANGES:;
#FGCHANGES:;

//--------------- dance-single - Custom Beginner ----------------
#NOTES:
     dance-single:
     Custom Beginner:
     Beginner:
     2:
     0,0,0,0,0:
0000
0000
0000
0000
,
0000
0000
0000
0000
,
0001
0000
1000
0000
,
0001
0001
0000
1000
,
1000
0000
0001
0000
,
0010
0000
1001
0000
,
0010
0000
0010
0000
,
0100
0000
1000
1000
,
1000
0000
0010
0000
,
0010
0000
0001
0001
,
0001
0000
0010
0000
,
0100
0000
1001
0000
,
0010
0010
0000
1001
,
0000
0000
0000
0000
,
0100
0100
0000
1001
,
0000
0000
0000
0000
,
0100
0100
0000
0110
,
0000
0000
0000
0000
,
0010
0010
0000
1001
,
0000
0010
0010
0010
,
0000
0001
0000
0010
,
0000
1000
0000
1001
,
0000
1000
0000
0100
,
0000
0001
0001
0001
,
0000
1000
0000
0100
,
0000
0001
0000
1001
,
0000
1000
0000
0100
,
0100
0100
0100
0000
,
1000
0000
1000
0000
,
0001
0000
0001
0000
,
1000
0000
1000
0000
,
0001
0000
0001
0000
,
0001
0000
1000
0000
,
0010
0000
1001
0000
,
0010
0000
0010
0000
,
0100
0000
1001
0000
,
0000
0001
0001
0000
,
0100
0100
0100
0000
,
0000
1000
1000
0000
,
0100
0100
0100
0000
,
0000
0001
0001
0000
,
0010
0010
0010
0000
,
0000
1000
1000
0000
,
0010
0000
1001
0000
,
1000
1000
1000
0000
,
0001
0001
0001
0000
,
1001
0000
0000
0000
;

//--------------- dance-single - Wii Basic ----------------
#NOTES:
     dance-single:
     Wii Basic:
     Easy:
     4:
     0,0,0,0,0:
0000
0000
0000
0000
,
0000
0000
0000
0000
,
0010
0010
0010
0000
,
1000
1000
0001
0001
,
0010
0000
0010
0100
,
0110
0000
1001
0001
,
0010
0000
0010
0100
,
0100
0000
1000
0001
,
0100
0100
0100
0010
,
0110
0000
1001
1000
,
0100
0100
0100
0010
,
0100
0000
1001
1001
,
0000
0001
0001
0001
,
0100
1000
0100
1000
,
0000
1000
1000
1000
,
0100
0001
0100
0001
,
0000
0001
1000
0001
,
0010
1000
0010
1000
,
0000
1000
0001
1000
,
1000
0100
0010
0001
,
0000
1000
0000
0100
,
0000
0001
0010
0100
,
0000
0001
0000
0010
,
0000
1000
0001
0100
,
1000
1000
1000
0100
,
1000
0001
0010
0100
,
0001
0001
0001
0010
,
0100
0100
0010
0010
,
0010
0000
0010
0100
,
0110
0000
1001
0001
,
0010
0000
0010
0100
,
0100
0000
1000
0001
,
0100
0100
0100
0010
,
0110
0000
1001
1000
,
0100
0100
0100
0010
,
0100
0000
1001
1001
,
0000
0001
0001
0001
,
0100
1000
0100
1000
,
0000
1000
1000
1000
,
0100
0001
0100
0001
,
0000
0001
1000
0001
,
0010
1000
0010
1000
,
0000
1000
0001
1000
,
1000
0100
0010
0001
,
0100
0100
0100
0100
,
0100
1001
0010
1001
,
0100
0000
0000
0000
;

//--------------- dance-single - Orchestra Groove Difficult ----------------
#NOTES:
     dance-single:
     Orchestra Groove Difficult:
     Medium:
     6:
     0,0,0,0,0:
0000
0000
0000
0000
,
0000
0000
0000
0000
,
0001
0010
1000
0010
,
0001
0000
0000
0001
0000
0000
0001
0000
0000
0000
1000
0000
0001
0000
0000
0000
,
0000
0010
0000
0010
,
0011
0000
1100
0000
0010
0001
1000
0000
,
0010
0001
1100
0010
,
0001
0100
1000
0101
,
0010
0000
0000
0000
0000
0010
0000
0010
,
0001
0000
1000
0000
0100
0000
0000
0000
1000
0100
0000
0000
1000
0100
0000
0000
,
0001
0101
1000
1100
,
0010
0000
0100
0000
0010
0001
1000
0000
,
0010
0100
0010
0110
,
0001
1100
1000
0101
,
0010
0000
0000
0100
0000
0000
0010
0000
0000
1000
0000
0000
0001
0000
0100
0000
,
0000
0100
0010
0100
,
0010
0001
0010
0110
,
0010
0001
0100
1000
,
0010
0000
0000
0100
0000
0000
0010
0000
0000
1000
0000
0000
0001
0000
0100
0000
,
0000
1000
1000
1000
,
0100
0010
1100
0101
,
0010
0100
1001
0100
,
0010
1010
0100
1100
,
0001
0100
1000
0100
,
0010
0100
0101
1100
,
1000
0100
1001
0100
,
1000
0001
1010
0101
,
0001
0010
0101
1010
,
0010
0000
0010
0000
,
0011
0000
1100
0000
0001
1000
0100
0000
,
0010
0001
1100
0010
,
0001
0100
1000
0101
,
0010
0000
0010
0000
,
0001
0000
1000
0000
0100
0000
0000
0000
1000
0100
0000
0000
1000
0100
0000
0000
,
0011
0001
1010
1000
,
0010
0000
0100
0000
0001
1000
0100
0000
,
0010
0100
0010
0110
,
1000
0101
0001
1100
,
0010
0000
0000
0100
0000
0000
0010
0000
0000
1000
0000
0000
0001
0000
0100
0000
,
0000
0101
0001
1100
,
0010
0001
0010
0110
,
0010
0001
0100
1000
,
0010
0000
0000
0100
0000
0000
0010
0000
0000
1000
0000
0000
0001
0000
0100
0000
,
0000
1000
1000
1000
,
0100
1000
0000
0000
0000
0000
0000
0100
,
1000
0010
0000
1000
0100
1000
0010
1000
,
0001
0000
0000
0000
;

//--------------- dance-single - Original Challenge ----------------
#NOTES:
     dance-single:
     Original Challenge:
     Hard:
     7:
     0,0,0,0,0:
0000
0000
0000
0000
,
0000
0000
0000
0000
,
0010
0000
0010
0000
0001
1000
0100
0000
,
1000
0001
0100
0010
1000
0001
0100
0000
,
0011
0000
1100
0000
0001
1000
0100
0000
,
1000
0000
0001
0000
1000
0001
0100
0000
,
0010
0000
0010
0000
0010
1000
0100
0000
,
1000
0001
0100
0000
1000
0100
0001
0000
,
1001
0000
0101
0000
0010
0010
0010
0000
,
1000
0001
0100
0000
0110
0000
0101
0000
,
0010
1000
0001
0100
0010
1000
0001
0100
,
0010
0010
0010
0000
1000
0001
0100
0000
,
1001
0000
0110
0000
0001
1000
0100
0000
,
0010
1000
0100
0001
0100
1000
0001
0001
,
0001
0000
1001
0000
0010
1000
0100
0000
,
0001
0100
0010
1000
0100
0010
0001
0001
,
0001
0000
1100
0000
0010
1000
0100
0000
,
0010
0100
0001
1000
0100
0010
0001
1000
,
0100
0000
0101
0000
0010
1000
0100
0000
,
0001
1000
0100
0001
0100
1000
0001
0000
,
0001
0000
1000
0000
0010
0100
0000
0001
0000
1000
0000
0000
0000
0000
0000
0000
,
0001
0000
1000
0000
1000
0100
0000
0010
0000
0000
0000
0000
0000
0000
0000
0000
,
1000
0000
0001
0000
0001
1000
0000
0010
0000
0100
0000
0000
0000
0000
0000
0000
,
1000
0000
0010
0000
1000
0100
0000
0010
0000
0000
0000
0000
0000
0000
0000
0000
,
0001
0000
1000
0000
0100
0010
0000
0001
0000
0100
0000
0000
0000
0000
0000
0000
,
0010
0000
0010
0000
0001
1000
0000
0001
0000
0000
0000
0000
0000
0000
0000
0000
,
0010
0000
0010
0000
0001
1000
0000
0001
0000
1000
0000
0000
0000
0000
0000
0000
,
0010
0100
1000
0001
0100
0010
1000
0100
,
0110
0000
1001
0000
0010
0010
0010
0000
,
0100
0000
1001
0000
0001
1000
0100
0000
,
0010
1000
0010
1000
0001
0101
0101
0000
,
0010
1000
0100
0000
1001
0100
0010
0000
,
0010
0001
0010
0001
1000
1100
1100
0000
,
0001
1000
0100
0000
1001
0000
0101
0000
,
1001
0110
1001
0010
,
1001
0100
0010
0000
1001
0100
0010
0000
,
0001
0100
0001
0100
0010
1000
0100
0000
,
0001
0000
1000
0000
0001
0000
0110
0001
,
1000
0100
1000
0100
0010
0001
0100
0000
,
0001
0000
1000
0000
0001
0000
1001
0100
,
0010
0001
0010
0001
1000
0010
0100
0000
,
1001
0000
0110
0000
1001
0100
0010
0000
,
0001
1000
0100
0010
0001
0001
0100
0000
,
1000
0001
0100
1001
,
0010
1000
0100
0001
0100
0001
0100
1000
,
0001
0100
0001
0100
0010
1000
0100
1000
,
0010
0000
0000
0000
;

//--------------- dance-single - STREAM Special ----------------
#NOTES:
     dance-single:
     STREAM Special:
     Challenge:
     9:
     0,0,0,0,0:
0000
0000
0000
0000
,
0000
0010
0000
0010
,
0000
0000
0000
0000
0010
0000
0000
0000
0000
0000
0000
0000
0010
0000
0000
0100
,
1000
0000
0000
0010
0001
0000
0000
0100
1000
0000
0000
0000
0001
1000
0001
0100
,
0010
0000
0000
0100
0010
0000
0100
0000
0001
1000
0000
0000
0101
0000
0000
0000
,
0010
0000
0001
0010
0000
0100
0010
0000
0001
0000
1000
0000
0001
0000
1000
0000
,
0100
0000
0000
0010
0100
0000
0010
0000
0001
1000
0000
0000
0001
0000
0000
0000
,
0010
0000
0001
0010
0000
0100
0010
0000
0001
0100
0000
0100
0001
0000
1000
0000
,
0010
0000
0000
0100
0010
0000
0100
0000
1000
0001
0000
0000
1100
0000
0000
0000
,
0100
0000
1000
0100
0000
0001
0100
0000
1000
0000
0001
0000
1000
0000
0001
0000
,
0100
0000
0000
0010
0100
0000
0010
0000
0001
0010
0000
0000
0100
0000
0001
0000
,
0010
0001
0100
1000
0100
0001
0100
0010
,
1000
0001
1000
0100
1000
0010
0001
0000
,
0010
1000
0000
0000
1000
0100
0000
0000
0100
0001
0000
0000
0100
0000
0001
0000
,
1100
0000
1000
0100
0010
0001
1000
0000
,
0100
0001
0000
0000
0001
0010
0000
0000
0010
1000
0000
0000
0010
0000
0001
0000
,
1100
0000
0001
0010
0001
1000
0100
1000
,
0010
0001
0000
0000
0001
0100
0000
0000
0100
1000
0000
0000
0100
0000
1000
0000
,
0101
0000
0010
0001
0010
0100
0010
1000
,
0010
1000
0100
0001
0100
1000
0100
0010
,
0001
0000
0100
0000
0001
0010
0000
0001
0000
0200
0000
0000
0000
0310
1000
0001
,
1000
0000
0100
0000
1000
0200
0000
0000
1000
0000
0000
0000
1300
0000
0000
0000
,
0001
0000
0100
0000
0001
0010
0000
0001
0000
0200
0000
0000
0000
0310
1000
0001
,
1000
0100
1000
0100
0010
0001
0100
0001
,
1000
0000
0100
0000
1000
0010
0000
1000
0000
0200
0000
0000
0000
0310
0001
1000
,
0001
0000
0100
0000
0001
0200
0000
0000
0001
0000
0000
0000
0301
0000
0000
0000
,
1000
0000
0100
0000
1000
0010
0000
1000
0000
0200
0000
0000
0010
0300
0010
0000
,
0001
0100
0010
1000
0010
0100
0001
1000
,
0010
0000
0000
0100
0010
0000
0100
0000
1000
0001
0000
0000
1100
0000
0000
0000
,
0010
0000
1000
0010
0000
0100
0010
0000
1000
0000
0001
0000
1000
0000
0001
0000
,
0100
0000
0000
0010
0100
0000
0010
0000
1000
0001
0000
0000
1000
0000
0000
0000
,
0010
0000
1000
0010
0000
0100
0010
0000
1000
0100
0000
0100
1000
0000
0001
0000
,
0010
0000
0000
0100
0010
0000
0100
0000
0001
1000
0000
0000
0101
0000
0000
0000
,
0100
0000
0001
0100
0000
1000
0100
0000
0001
0000
1000
0000
0001
0000
1000
0000
,
0100
0000
0000
0010
0100
0000
0010
0000
1000
0001
0000
0000
0110
0000
0000
0000
,
0010
1000
0100
0001
0100
1000
0100
0010
,
0001
1000
0001
0100
0001
0010
1000
0000
,
0010
0001
0000
0000
0001
0100
0000
0000
0100
1000
0000
0000
0100
0000
1100
0000
,
0101
0000
0001
0100
0010
1000
0001
0010
,
0100
1000
0000
0000
1000
0010
0000
0000
0010
0001
0000
0000
1000
0000
0001
0000
,
0101
0000
1000
0010
1000
0001
0100
0001
,
0010
1000
0000
0000
1000
0100
0000
0000
0100
0001
0000
0000
1100
0000
0101
0000
,
1100
0000
0010
1000
0010
0100
0010
0001
,
0010
0001
0100
1000
0100
0001
0100
0010
,
1000
0100
0100
0000
0100
0000
0100
0100
,
1000
0100
0100
1000
0001
0010
0001
0010
,
1100
0000
0000
0000
;

//--------------- dance-double - CLUB D-Basic ----------------
#NOTES:
     dance-double:
     CLUB D-Basic:
     Easy:
     5:
     0,0,0,0,0:
00000000
00000000
00000000
00000000
,
00000000
00000000
00000000
00000000
,
00100000
00100000
00010000
00010000
,
00001000
00001000
00000001
00000001
,
00000010
00000000
00000010
00000000
,
00000100
00000000
00001000
00000000
00010000
01000000
10000000
00000000
,
00100000
00000000
00100000
00000000
,
01000000
00010000
00001000
00000100
,
00000010
00000000
00000010
00000000
,
00000001
00000000
00001000
00000000
00010000
01000000
10000000
00000000
,
00100000
00000000
00100000
00000000
,
10000000
01000000
00010000
00001000
,
00000010
00000000
00000010
00000000
,
00001001
00001001
00001001
00001001
,
00000100
00000000
00000100
00000000
,
00011000
00011000
00011000
00011000
,
00100000
00000000
00100000
00000000
,
10010000
10010000
10010000
10010000
,
01000000
00000000
01000000
00000000
,
00010000
00001000
00010000
00001000
,
00000010
00000000
00000010
00000000
,
00001000
00010000
01100000
00000000
,
00100000
00000000
00100000
00000000
,
00010000
00001000
00001001
00000000
,
00000010
00000100
00001000
00010000
,
10000000
01000000
10010000
00000000
,
00100000
01000000
00010000
00001000
,
00000010
00000001
00000010
00000001
,
00000100
00000000
00000100
00000000
,
00000010
00000000
00000100
00000000
00001000
00010000
00000100
00000000
,
00001000
00010000
01000000
10000000
,
00010000
00100000
10000000
00010000
,
01000000
00000000
01000000
00000000
,
00001000
00000000
00010000
00000000
00000100
00001000
00000001
00000000
,
00000010
00000100
00001000
00010000
,
01000000
00100000
10000000
00010000
,
00001000
00000000
00000010
00000000
,
00000100
00001000
00010000
00100000
,
10000000
01000000
00010000
00001000
,
10010000
10010000
00011000
00011000
,
00000100
00000001
00001000
00000110
,
00001000
00001000
00001000
00001000
,
00010000
00010000
00010000
01100000
,
10000000
10000000
10000000
10000000
,
01000000
01000000
00000000
00000000
00000000
00000000
00000000
00010000
,
10000000
00010000
00000000
00010000
00001000
00010000
00001000
00010000
,
00001000
00000000
00000000
00000000
;

//--------------- dance-double - Orchestra Groove D-Difficult ----------------
#NOTES:
     dance-double:
     Orchestra Groove D-Difficult:
     Medium:
     6:
     0,0,0,0,0:
00000000
00000000
00000000
00000000
,
00000000
00000000
00000000
00000000
,
00010000
00100000
10000000
01000000
,
10000000
00000000
00000000
01000000
00000000
00000000
00010000
00000000
00000000
00000000
00001000
00000000
00000100
00000000
00000000
00000000
,
00000000
00000010
00000000
00000010
,
00000011
00000000
00001100
00000000
00000100
00001000
00010000
00000000
,
00100000
00010000
11000000
01010000
,
00010000
00110000
10000000
11000000
,
00100000
00000000
00000000
00000000
00000000
00100000
00000000
00100000
,
01000000
00000000
00010000
00000000
00001000
00000000
00000000
00000000
00000100
00001000
00000000
00000000
00000100
00001000
00000000
00000000
,
00000001
00000101
00001000
00001100
,
00000010
00000000
00000001
00000000
00000100
00001000
00010000
00000000
,
01010000
00001000
00010000
00011000
,
00000010
00001100
00000010
00000101
,
00000010
00000000
00000000
00000100
00000000
00000000
00000010
00000000
00000000
00000100
00000000
00000000
00001000
00000000
00010000
00000000
,
00000000
01000000
00100000
00010000
,
00100000
01000000
00010000
00011000
,
00001000
01000000
00010000
00000100
,
00000010
00000000
00000000
00000100
00000000
00000000
00000010
00000000
00000000
00000100
00000000
00000000
00001000
00000000
00010000
00000000
,
00000000
00001000
00010000
01000000
,
00100000
01000000
11000000
01010000
,
00001000
00010000
01010000
10000000
,
00010000
00001000
00010000
10000000
,
00001000
00000001
00001000
00010000
,
00100000
01000000
00110000
01010000
,
00001010
00001100
00000010
00000100
,
00110000
01010000
00100000
01000000
,
00001010
00001100
00000010
00000100
,
00000000
00000010
00000000
00000010
,
00000011
00000000
00001100
00000000
00000100
00001000
00010000
00000000
,
00100000
00010000
11000000
01010000
,
00010000
00110000
10000000
11000000
,
00100000
00000000
00100000
00000000
,
01000000
00000000
00010000
00000000
00001000
00000000
00000000
00000000
00000100
00001000
00000000
00000000
00000100
00001000
00000000
00000000
,
00000001
00000101
00001000
00001100
,
00000010
00000000
00000001
00000000
00000100
00001000
00010000
00000000
,
00100000
01000000
10000000
01100000
,
00010000
00001000
00000010
00000001
,
00000010
00000000
00000000
00000100
00000000
00000000
00000010
00000000
00000000
00000100
00000000
00000000
00001000
00000000
00010000
00000000
,
00000000
01010000
00010000
11000000
,
00100000
01000000
00010000
00011000
,
00001000
01000000
00010000
00000100
,
00000010
00000000
00000000
00000100
00000000
00000000
00000010
00000000
00000000
00000100
00000000
00000000
00001000
00000000
00010000
00000000
,
00000000
10000000
10000000
10000000
,
01000000
01000000
00000000
00000000
00000000
00000000
00000000
10000000
,
01000000
00010000
00000000
00001000
00000010
00000001
00000100
00001000
,
00010000
00000000
00000000
00000000
;

//--------------- dance-double - Original D-Expert ----------------
#NOTES:
     dance-double:
     Original D-Expert:
     Hard:
     7:
     0,0,0,0,0:
00000000
00000000
00000000
00000000
,
00000000
00000000
00000000
00000000
,
00100000
00000000
00100000
00000000
10000000
00010000
01000000
00000000
,
00001000
00010000
00000100
00000010
00000001
00000000
00001100
00000000
,
00010000
00000000
00001000
00000000
01000000
00010000
00100000
00000000
,
00001000
00010000
00000100
00000010
00000001
00001000
00000100
00000000
,
00010000
00000000
00001000
00000000
00100000
00010000
01000000
00000000
,
00100000
10000000
01000000
00100000
00010000
01000000
00100000
00000000
,
10000000
00000000
01000000
00000000
00100000
00001000
00010000
00000000
,
00000100
00000010
00000001
00000100
00000010
00001000
00000100
00000000
,
00011000
00110000
11000000
00100000
,
00011000
00001010
00000101
00000010
,
00001000
00000100
00010000
00001000
,
00110000
00000000
11000000
00000000
01010000
00000000
00100000
00001000
,
00010000
00000100
00000010
00000001
,
00001100
00000000
00011000
00000000
00110000
00000000
00001000
00010000
,
00000100
00010000
00001000
00100000
,
01010000
00000000
10100000
00000000
00110000
00000000
00001000
00010000
,
00000100
00000010
00000001
00000100
,
00000010
00001000
00000100
00010000
00001000
01000000
00010000
10000000
,
01000000
00000000
00100000
00001000
00010000
00000100
00000010
00000000
,
00000001
00000000
00000100
00000010
00001000
00000000
00011000
00000000
,
00000100
00000000
00001000
00000010
00010000
00001000
00100000
00000000
,
01000000
00000000
10000000
00100000
01000000
00000000
00011000
00000000
,
00000010
00000000
00000100
00000001
00001000
00000100
00010000
00000000
,
00001000
00000000
01000000
00100000
10000000
00000000
01010000
00000000
,
00100000
00000000
00001000
00010000
00000100
00000010
00000001
00000000
,
00001000
00000100
00010000
00001000
00100000
00010000
10000000
00100000
,
01000000
00000000
00001000
00000000
00010000
00000100
00001000
00000000
,
00000001
00000000
00000100
00000000
00000010
00010000
00001000
00000000
,
00100000
00000000
01000000
00000000
10000000
00010000
01000000
00000000
,
00001000
00000000
00010000
00000000
00000100
00000010
00000001
00000000
,
00000100
00000000
00000010
00000000
00001000
00000100
00010000
00000000
,
00101000
00000000
00010100
00000000
00000010
00001000
00000001
00000000
,
00011000
10010000
01100000
00011000
,
00000100
00000000
00000010
00000000
00000001
00000100
00000010
00000000
,
00010000
00001000
01000000
00010000
,
11000000
00000000
01001000
00000000
00010010
00000000
00000100
00000010
,
00000001
00000100
00000010
00001000
,
00010100
00000000
00101000
00000000
10010000
00000000
01000000
00100000
,
00010000
01000000
00001000
00010000
,
00001100
00000000
00000011
00000000
00001010
00000000
00000100
00010000
,
00001000
00000000
00100000
00000000
01001000
10000000
00010000
00000000
,
00011000
00001001
00000110
00011000
,
00000010
00000100
00000000
00000000
00000000
00000000
00000000
00000001
,
00001000
00000100
00000000
00010000
01000000
10000000
00100000
00010000
,
00001000
00000000
00000000
00000000
;

//--------------- dance-double - STREAM Special ----------------
#NOTES:
     dance-double:
     STREAM Special:
     Challenge:
     9:
     0,0,0,0,0:
00000000
00000000
00000000
00000000
,
00000000
00000001
00000000
00001000
,
00010000
00100000
11000000
00000000
01000000
00100000
00110000
00000000
,
00011000
00000000
00000000
00000000
00001100
00000000
00000000
00000000
00011000
00000000
00000000
00000000
00001000
00010000
01000000
10000000
,
00010000
00000000
00000000
01000000
00000000
00000000
10000000
00000000
01000000
00100000
00000000
00000000
10000000
00000000
00000000
00000000
,
01000000
00000000
00010000
01000000
00000000
00100000
01000000
00000000
10000000
00000000
01000000
00000000
00010000
00000000
00001000
00000000
,
00000100
00000000
00000000
00000010
00000000
00000000
00000001
00000000
00000000
00000100
00000000
00000000
00001000
00000000
00000000
00000000
,
00000100
00000000
00000001
00000100
00000000
00000010
00000100
00000000
00000001
00000010
00000000
00000100
00000010
00000000
00001000
00000000
,
00010000
00000000
00000000
01000000
00000000
00000000
10000000
00000000
01000000
00100000
00000000
00000000
10000000
00000000
00000000
00000000
,
01000000
00000000
00010000
01000000
00100000
00000000
00000000
00000000
00010000
01000000
00000000
00000000
10000000
01000000
00000000
00000000
,
00100000
00001000
00010000
00001000
00010000
01000000
00010000
00000010
,
00001000
00000010
00001000
00010000
00001000
00000100
00000001
00000000
,
00001000
00000001
00001000
00000100
00001000
00000010
00000001
00000000
,
00000010
00000001
00000000
00000000
00001000
00000100
00000000
00000000
00010000
00001000
00000000
00000000
01000000
00000000
00010000
00000000
,
11000000
00000000
10000000
01000000
00100000
00010000
10000000
01000000
,
00100000
10000000
00000000
00000000
00010000
01000000
00000000
00000000
00001000
00010000
00000000
00000000
00000100
00000000
00000001
00000000
,
00001100
00000001
00001000
00000100
00001000
00000010
00000001
00000000
,
00000010
00000001
00000000
00000000
00001000
00000100
00000000
00000000
00010000
00001000
00000000
00000000
01000000
00000000
00010000
00000000
,
11000000
00000000
10000000
01000000
00100000
00010000
10000000
01000000
,
10000000
01000000
00010000
00001000
00000100
00000001
00001000
00000000
,
00000001
00000000
00000100
00000000
00000001
00000010
00000000
00000001
00000100
00000000
00000001
00000000
00000010
00000000
00001000
00000000
,
00010000
00000000
00001000
00000000
00010000
00000010
00000000
00000000
00011000
00000000
00000000
00000000
01010000
00000000
00000000
00000000
,
10000000
00000000
01000000
00000000
10000000
00100000
00000000
10000000
01000000
00000000
10000000
00000000
00100000
00000000
00000000
00000000
,
10000000
01000000
00010000
00000000
00001000
00000100
00000001
00000010
,
00000001
00000000
00000100
00000000
00000001
00000010
00000000
00000001
00000100
00000000
00000001
00000000
00000010
00000000
00001000
00000000
,
00010000
00000000
00001000
00000000
00010000
00000010
00000000
00000000
00011000
00000000
00000000
00000000
01010000
00000000
00000000
00000000
,
10000000
00000000
01000000
00000000
10000000
00100000
00000000
10000000
01000000
00000000
10000000
00000000
00100000
00000000
00000000
00000000
,
01000000
10000000
01000000
00010000
00001000
00000100
00000001
00000010
,
00001000
00000000
00000000
00000100
00000000
00000000
00000001
00000000
00000100
00000010
00000000
00000000
00000001
00000000
00000000
00000000
,
00000100
00000000
00001000
00000100
00000000
00000010
00000100
00000000
00000001
00000000
00000100
00000000
00001000
00000000
00010000
00000000
,
01000000
00000000
00000000
00100000
00000000
00000000
10000000
00000000
00000000
01000000
00000000
00000000
00010000
00000000
00000000
00000000
,
01000000
00000000
10000000
01000000
00000000
00100000
01000000
00000000
10000000
00100000
00000000
01000000
00100000
00000000
00010000
00000000
,
00001000
00000000
00000000
00000100
00000000
00000000
00000001
00000000
00000100
00000010
00000000
00000000
00000001
00000000
00000000
00000000
,
00000100
00000000
00001000
00000100
00000010
00000000
00000000
00000000
00001000
00000100
00000000
00000000
00000001
00000100
00000000
00000000
,
00000010
00010000
00001000
00010000
00001000
00000100
00001000
00100000
,
00010000
00100000
00010000
00001000
00010000
01000000
10000000
00000000
,
00010000
10000000
00010000
01000000
00010000
00100000
10000000
00000000
,
00100000
10000000
00000000
00000000
00010000
01000000
00000000
00000000
00001000
00010000
00000000
00000000
00000100
00000000
00001000
00000000
,
00000101
00000000
00000001
00000100
00000010
00001000
00000001
00000100
,
00000010
00000001
00000000
00000000
00001000
00000100
00000000
00000000
00010000
00001000
00000000
00000000
01000000
00000000
10000000
00000000
,
01010000
10000000
00010000
01000000
00010000
00100000
10000000
00000000
,
00100000
10000000
00000000
00000000
00010000
01000000
00000000
00000000
00001000
00010000
00000000
00000000
00000100
00000000
00001000
00000000
,
00000101
00000000
00000001
00000100
00000010
00001000
00000001
00000100
,
00000001
00000100
00001000
00010000
01000000
10000000
00010000
00000000
,
11000000
01100000
00000000
10000000
00000000
10000000
00000000
00100000
,
00010000
00001000
00000000
00000100
00001000
00010000
00001000
00000100
,
00011000
00000000
00000000
00000000
;

//--------------- dance-couple - Original Couple-Basic ----------------
#NOTES:
     dance-couple:
     Original Couple-Basic:
     Easy:
     4:
     0,0,0,0,0:
00000000
00000000
00000000
00000000
,
00000000
00000000
00000000
00000000
,
00100010
00000010
00100001
00000001
,
00100100
00000100
00101000
00001000
,
10000010
00000000
10000010
00000000
,
00100010
00000000
01000100
00000000
10000001
00001000
01000100
00000000
,
00010000
00000010
00010000
00000100
,
00100010
10000001
00100010
00011000
,
00100010
00000000
01000100
00000000
10000001
00001000
01000100
00000000
,
00100000
00000010
00100000
00000100
,
00100010
10000001
00100010
00011000
,
00100010
00000000
01000100
00000000
00100010
00000001
00011000
00000000
,
10000010
01000100
00010010
00100110
,
00000000
01000100
00000000
01000100
,
00100010
01000000
00100010
01001001
,
10000000
00000100
10000100
00000100
,
00100100
00010001
01000010
10000110
,
00000000
00100010
00000010
00100010
,
00000010
01000100
00100010
10011001
,
00000000
00011000
00001000
00001000
,
00100010
00000000
00100010
00000000
,
00100010
01000100
01100110
00000000
,
00100010
00000000
00100010
00000000
,
10000001
01000100
00011000
00000000
,
00100010
01000100
10000001
01000100
,
00011000
01000100
10011001
00000000
,
00100010
01000100
00011000
00100010
,
10000001
00100010
10000001
01000100
,
00100001
00000000
00100001
00000000
,
00100010
00000000
01000100
00000000
10000001
00010000
01000100
00000000
,
00101000
10000000
01001000
00010000
,
00100010
10000001
00100010
00011000
,
00100010
00000000
01000100
00000000
10000001
00010000
01000100
00000000
,
00100010
10000000
01000010
00010000
,
00100010
10000001
00100010
00011000
,
00100010
00000000
01000100
00000000
00100010
10000000
00011000
00000000
,
00100001
01000100
00101000
01100010
,
00000000
01000100
10000000
01000100
,
00100010
01000100
00100010
10010100
,
00000001
00010000
01000001
10000000
,
00100010
10001000
00100100
01100001
,
00000000
10000010
01000000
00010010
,
00100000
01000100
00100010
10011001
,
00000000
00011000
00011000
00011000
,
01000100
01000100
00000000
00000000
00000000
00000000
00000000
10000001
,
10000001
10000001
00000000
10000001
10000001
10000001
10000001
10000001
,
10000001
00000000
00000000
00000000
;

//--------------- dance-couple - Orchestra Groove Couple-Difficult ----------------
#NOTES:
     dance-couple:
     Orchestra Groove Couple-Difficult:
     Medium:
     6:
     0,0,0,0,0:
00000000
00000000
00000000
00000000
,
00000000
00000000
00000000
00000000
,
00011000
00100010
10000001
00100010
,
00011000
00000000
00000000
00001000
00000000
00000000
00001000
00000000
00000000
00000000
00000001
00000000
00000000
00011000
00000000
00000000
,
00100010
00000000
00100010
00000000
,
00101010
00000000
01000101
00000000
00100010
00011000
10000001
00000000
,
00100010
00011000
10000101
00100010
,
00001000
01000100
00000001
01010100
,
00100010
00000000
00000000
00000000
00000000
00100010
00000000
00100000
,
00011000
00000000
10000001
00000000
01000100
00000000
00000000
00000000
10000100
01000000
00000000
00000000
10000100
01000000
00000000
00000000
,
00011000
01011000
10000001
01010001
,
00100010
00000000
01000100
00000000
00100010
00011000
10000001
00000000
,
00100010
01000100
00100010
01100110
,
00011000
01000101
10000001
01001100
,
00100010
00000000
00000000
01000100
00000000
00000000
00000000
00100010
00000000
00001000
00000000
00000000
10010001
00000000
00000100
00000000
,
10000000
01001100
00011000
10000101
,
00100010
00011000
00100010
01100110
,
00100010
00011000
01000100
10000001
,
00100010
00000000
00000000
01000100
00000000
00000000
00000000
00100010
00000000
10000000
00000000
00000000
00011001
00000000
01000000
00000000
,
00000000
10000001
10000001
10000001
,
01000100
00100010
11000001
01011000
,
00100010
01000100
10011001
00000000
,
11000101
00000000
10100011
01000000
,
00011000
01000100
10011001
00000000
,
00100010
01000100
00011100
10000101
,
10000001
01000100
10011001
00000000
,
10000001
00011000
10100010
01010100
,
00011000
00100010
01010100
10100001
,
00100010
00000000
00100010
00000000
,
00101010
00000000
01000101
00000000
00011000
10000001
01000100
00000000
,
00100010
00011000
11000101
00100010
,
00011000
01000100
10000001
01011000
,
00100010
00000000
00100010
00000000
,
00011000
00000000
10000001
00000000
01000100
00000000
00000000
00000000
10000001
01000100
00000000
00000000
10000001
01000100
00000000
00000000
,
00100010
00011000
01000011
10000001
,
00100010
00000000
01000100
00000000
00011000
10000001
01000100
00000000
,
00100010
01000100
00100010
01100110
,
10000001
01010100
00011000
11000100
,
00100010
00000000
00000000
01000100
00000000
00000000
00000000
00100010
00000000
00001000
00000000
00000000
10010001
00000000
00000100
00000000
,
00000000
01001100
00011000
01000101
,
00100010
00011000
00100010
01100110
,
00100010
00011000
01000100
10000001
,
00100010
00000000
00000000
01000100
00000000
00000000
00000000
00100010
00000000
10000000
00000000
00000000
00011001
00000000
01000000
00000000
,
00000000
10000001
10000001
10000001
,
01000100
10000001
00000000
00000000
00000000
00000000
00000000
01000100
,
10000001
00100010
00000000
10000001
01000100
10000001
00100010
10000001
,
00011000
00000000
00000000
00000000
;

//--------------- dance-couple - Original Couple-Expert ----------------
#NOTES:
     dance-couple:
     Original Couple-Expert:
     Hard:
     6:
     0,0,0,0,0:
00000000
00000000
00000000
00000000
,
00000000
00000000
00000000
00000000
,
00100010
00000000
00100010
00000000
00011000
01000100
00011000
00000000
,
10000001
00000000
10000001
00000000
01000100
10000001
00011000
00000000
,
00100010
00000000
01000100
00000000
00100010
00100010
00100010
00000000
,
00111010
00000000
11000101
00000000
00011000
10000001
01000100
00000000
,
00100010
00000000
00100010
00000000
00100010
10000001
01000100
00000000
,
00100010
00000000
10000001
00000000
00011000
00011000
10000001
00000000
,
10100011
00000000
01011100
00000000
11000101
01011100
11000101
00000000
,
00100010
00100010
10000001
00000000
10011001
00000000
11000101
00000000
,
00100010
00011000
00100010
10000001
,
00100010
10000001
01000100
00000000
00011000
01000100
10000001
00000000
,
00011000
10000001
10000001
10000001
,
00011000
11000101
01011100
11000101
,
00011000
01000100
01000100
01000100
,
11000101
01011100
11000101
01011100
,
01000100
00100010
01000100
00100010
,
10100011
00111010
10100011
00111010
,
01000100
10000001
01000100
00011000
,
10000001
10000001
10000001
10000001
,
00100010
00000000
01000100
00000000
00100010
10000001
00011000
00000000
01000100
00000000
00000000
00000000
00011000
00000000
00000000
00000000
,
00100010
00000000
01000100
00000000
00100010
10000001
00011000
00000000
01000100
00000000
00000000
00000000
00100010
00000000
00000000
00000000
,
00011000
00000000
10000001
00000000
00011000
10000001
01000100
00000000
00011000
00000000
00000000
00000000
01000100
00000000
00000000
00000000
,
10000001
00000000
00011000
00000000
10000001
00011000
01000100
00000000
10000001
00000000
00000000
00000000
01000100
00000000
00000000
00000000
,
00100010
00000000
01000100
00000000
00100010
10000001
00011000
00000000
01000100
00000000
00000000
00000000
00011000
00000000
00000000
00000000
,
00100010
00000000
01000100
00000000
00100010
10000001
00011000
00000000
01000100
00000000
00000000
00000000
00100010
00000000
00000000
00000000
,
00011000
00000000
10000001
00000000
00011000
10000001
01000100
00000000
00011000
00000000
00000000
00000000
01000100
00000000
00000000
00000000
,
00100010
00011000
01000100
10000001
00100010
00011000
01000100
10000001
,
00100010
00000000
01000100
00000000
00100010
00100010
00100010
00000000
,
00111010
00000000
11000101
00000000
00011000
10000001
01000100
00000000
,
00100010
00000000
00100010
00000000
00100010
10000001
01000100
00000000
,
00100010
00000000
10000001
00000000
00011000
00011000
10000001
00000000
,
10100011
00000000
01011100
00000000
11000101
01011100
11000101
00000000
,
00100010
00100010
10000001
00000000
10011001
00000000
11000101
00000000
,
01100110
00000000
10011001
00000000
01100110
00000000
00100010
01000100
,
00100010
01000100
00100010
10000001
,
00011000
01000100
10000001
01000100
,
00011000
00000000
11000101
00000000
01011100
00000000
10000001
01000100
,
00011000
01011100
11000101
01011100
,
10000001
00000000
00111010
00000000
10100011
00000000
00011000
00100010
,
10000001
01000100
00100010
01100110
,
00100010
00100010
01000100
10000001
,
00100010
00011000
01000100
10000001
,
00100010
00011000
01000100
10000001
,
01000100
10000001
01000100
00000000
10000001
00000000
01000100
00000000
,
10000001
00100010
01000100
00000000
01000100
10000001
00100010
10000001
,
00011000
00000000
00000000
00000000
;

//--------------- dance-couple - Orchestra Groove Couple-Expert ----------------
#NOTES:
     dance-couple:
     Orchestra Groove Couple-Expert:
     Challenge:
     7:
     0,0,0,0,0:
00000000
00000000
00000000
00000000
,
00000000
00000000
00000000
00000000
,
10000000
00000000
00000010
00000001
10000000
00000000
00001000
00001000
,
00100000
00000000
00000000
00100000
00000000
00000000
00010000
00000000
00000000
00000000
00000100
00000000
00000000
00001000
00000000
00000000
,
00100000
00000001
00100000
00000100
,
00100010
00010000
01000100
00000000
00100010
00000001
10001000
00000000
,
00100010
01000000
00010001
00000000
10001000
00000100
00100010
00000000
,
00010001
01000100
01000100
00000000
10001000
01000100
01000100
00000000
,
00100010
00010000
01000100
00000000
00010001
00000010
01000100
00000000
,
00010001
10001000
01000100
00000000
10001000
00000000
01000100
00000000
,
00010001
00100010
00010001
00000000
10001000
01000100
00010001
00000000
,
00100010
00010001
01000100
00000000
00100010
00010001
10001000
00000000
,
10101010
00000000
01000100
00000000
00100010
00010001
01000100
00000000
,
00010001
11001100
10001000
01010101
,
00100010
01000100
00100010
00000000
10001000
00000000
00010001
00000000
,
10001000
00000000
01010101
00000000
00010001
00000000
10001000
01000100
,
00100010
10101010
00100010
01100110
,
00100010
00010001
01000100
10001000
,
01000100
00000000
10011001
00000000
01000100
00010001
10011001
00000000
,
00100010
00000000
10001000
01000100
00010001
01000100
00100010
00000000
,
01000100
00010000
00100010
00000000
11000100
00000001
01010010
00000000
,
00101100
00010000
01000101
00000000
10100010
00001000
01000100
00000000
,
11001100
00100010
00110011
01100110
,
00010001
01000100
00100010
10001000
00010001
00000000
00000000
00000000
,
00100010
00000000
00000000
00000000
00100010
00000000
00000000
00000000
00100010
10001000
00000000
00000000
01000100
00000000
00000000
00000000
,
00100010
00000000
00000000
00000000
00100010
00000000
00000000
00000000
00100010
00010001
00000000
00000000
01000100
00000000
00000000
00000000
,
00100010
00000000
00000000
00000000
00100010
00000000
00000000
00000000
00100010
10001000
00000000
00000000
00010001
00000000
00000000
00000000
,
01000100
00000000
00000000
00000000
01000100
00000000
00000000
00000000
01000100
10001000
00000000
00000000
00010001
00000000
00000000
00000000
,
00100010
01010101
00100010
11001100
,
00100010
00000000
01000100
00000000
00100010
00010001
10001000
00000000
,
00100010
00010001
11001100
00100010
,
00010001
01000100
01000100
00000000
10001000
01000100
00010001
00000000
,
00100010
00000000
01000100
00000000
10011001
01000100
01000100
00000000
,
00010001
10001000
01000100
00000000
10001000
01000100
01010101
00000000
,
00010001
00100010
00010001
00000000
10001000
01000100
00010001
00000000
,
00100010
00010001
10001000
01000100
00100010
00010001
10001000
00000000
,
00100010
00000000
00000000
00000000
01000100
00000000
00000000
00000000
00100010
10001000
00000000
00000000
01000100
00000000
00000000
00000000
,
00100010
00000000
00000000
00000000
01000100
00000000
00000000
00000000
00100010
10001000
00000000
00000000
01000100
00000000
00000000
00000000
,
00100010
00000000
00000000
00000000
00100010
00000000
00000000
00000000
00100010
01000100
00000000
00000000
00100010
00000000
00000000
00000000
,
10001000
00000000
00000000
00000000
10001000
00000000
00000000
00000000
10001000
00010001
00000000
00000000
00100010
00000000
00000000
00000000
,
00100010
00000000
00000000
00000000
10001000
00000000
00000000
00000000
00100010
10001000
00000000
00000000
00010001
00000000
00000000
00000000
,
00100010
00000000
00000000
00000000
00010001
00000000
00000000
00000000
00100010
00010001
00000000
00000000
10001000
00000000
00000000
00000000
,
00100010
01000100
00100010
00000000
10001000
00000000
00010001
00000000
,
00100010
10001000
00010001
00000000
10001000
00000000
01000100
00000000
,
01000100
01000100
00000000
00000000
00000000
00000000
00000000
00010001
,
01000100
10001000
00000000
00100010
00010001
01000100
10001000
00100010
,
01000100
00000000
00000000
00000000
;

//--------------- dance-solo - Original 6PANEL-Basic ----------------
#NOTES:
     dance-solo:
     Original 6PANEL-Basic:
     Easy:
     4:
     0,0,0,0,0:
000000
000000
000000
000000
,
000000
000000
000000
000000
,
000010
000010
100000
100000
,
000001
000001
010000
010000
,
000100
000000
000100
000000
,
000100
000000
001000
000000
000001
100000
001000
000000
,
010000
000000
000001
001000
,
000100
100000
000010
010000
,
000001
000000
000100
000000
001000
100000
001000
000000
,
000100
000000
010000
001000
,
000100
000001
000010
001000
,
000100
000000
000001
000000
010000
000010
100000
000000
,
000100
001000
000100
001100
,
000000
001000
000000
001000
,
000010
000000
010000
100001
,
000000
001000
001000
001000
,
001000
000010
000100
001100
,
000000
000100
000100
000100
,
000100
001000
000010
100001
,
000000
010000
010000
010000
,
000010
000000
000010
000000
,
000100
001000
001100
000000
,
000010
000000
000010
000000
,
000001
001000
100000
000000
,
000100
001000
000001
100000
,
000010
001000
100001
000000
,
000100
001000
100000
000100
,
010000
000010
001000
000001
,
000100
000000
000100
000000
,
000100
000000
001000
000000
010000
000001
001000
000000
,
000100
100000
001000
010000
,
000100
000001
000100
100000
,
000010
000000
001000
000000
000100
100000
001000
000000
,
010000
000001
001000
000010
,
100000
000100
001000
000001
,
100000
000000
001000
000000
010000
000001
001000
000000
,
000100
100000
000001
001100
,
000000
001000
000001
001000
,
000010
001000
000100
100001
,
000000
010000
001000
000100
,
000001
010000
000100
100001
,
000000
000010
001000
000100
,
100000
001000
000100
100001
,
000000
010000
010000
010000
,
000010
000000
000100
000000
,
001000
001000
001000
001000
,
001000
000000
000000
000000
;

//--------------- dance-solo - Orchestra Groove 6PANEL-Difficult ----------------
#NOTES:
     dance-solo:
     Orchestra Groove 6PANEL-Difficult:
     Medium:
     6:
     0,0,0,0,0:
000000
000000
000000
000000
,
000000
000000
000000
000000
,
000001
000100
100000
000100
,
000010
000000
000000
000010
000000
000000
000010
000000
000000
000000
010000
000000
000000
000001
000000
000000
,
000000
000100
000000
000100
,
010010
000000
100100
000000
001000
000010
100000
000000
,
001000
000001
101000
010000
,
000001
001000
000100
100010
,
001000
000000
000000
000000
000000
000100
000000
000100
,
000001
010000
001000
000000
100000
000000
100000
000000
,
000001
001010
100000
001100
,
010000
000000
000001
000000
000100
001000
100000
000000
,
000100
001000
000010
100001
,
001000
010001
000100
001010
,
100000
000000
000000
000001
000000
000000
000100
000000
000000
001000
000000
000000
010000
000000
000001
000000
,
000000
001000
000100
001000
,
000100
100000
000010
001100
,
100000
001000
010000
000001
,
000100
000000
000000
001000
000000
000000
010000
000000
000000
000001
000000
000000
001000
000000
000100
000000
,
000000
100000
100000
100000
,
001000
010000
100001
001010
,
100000
001000
100001
001000
,
000100
100001
010000
001100
,
000001
001000
000010
100000
,
000100
010000
000110
100001
,
001000
000100
100001
001000
,
010000
000001
100010
010100
,
000010
000100
100001
011000
,
000100
000000
000100
000000
,
010001
000000
100010
000000
010000
001000
000100
000000
,
000001
100000
001100
000010
,
100000
001000
010000
000101
,
001000
000000
001000
000000
,
000100
100000
001000
000000
010000
000000
010000
000000
,
000101
100000
001010
000001
,
000100
000000
001000
000000
100000
000001
001000
000000
,
000010
100000
001000
000101
,
100000
001010
100000
011000
,
000001
000000
000000
001000
000000
000000
000100
000000
000000
100000
000000
000000
000001
000000
001000
000000
,
000000
100010
000001
011000
,
100000
000001
000100
101000
,
000100
000001
001000
000010
,
000100
000000
000000
001000
000000
000000
010000
000000
000000
000001
000000
000000
100000
000000
000100
000000
,
000000
010000
010000
010000
,
001000
000100
000000
000000
000000
000000
000000
000001
,
100000
000100
000000
010000
001000
000100
000001
010000
,
001000
000000
000000
000000
;

//--------------- dance-solo - Orchestra Groove 6PANEL-Expert ----------------
#NOTES:
     dance-solo:
     Orchestra Groove 6PANEL-Expert:
     Hard:
     7:
     0,0,0,0,0:
000000
000000
000000
000000
,
000000
000000
000000
000000
,
010000
000000
000100
001000
000001
000000
100000
100000
,
000010
000000
000000
001000
000000
000000
000100
000000
000000
000000
100000
000000
000000
001000
000000
000000
,
000000
000001
000100
001000
,
010000
000001
001000
000000
000100
100000
001000
000000
,
010000
001000
000010
000000
000100
001000
100000
000000
,
000001
001000
001000
000000
100000
001000
001000
000000
,
000100
000001
001000
000000
000010
000100
001000
000000
,
010000
000100
001000
000000
000001
000000
100000
000000
,
000010
000100
000010
000000
010000
001000
000001
000000
,
000100
000001
001000
000000
100000
000010
010000
000000
,
000101
000000
001000
000000
000100
100000
001000
000000
,
010000
100001
001000
100010
,
010000
001000
010000
000000
000001
000000
001000
000000
,
100000
000000
011000
000000
000001
000000
001000
000010
,
100000
101000
000100
010001
,
001000
000100
100000
001000
,
000100
000000
100001
000000
001000
000010
100000
000000
,
000100
000000
010000
001000
000010
001000
000100
000000
,
000001
100000
000100
000000
011000
000000
100001
000000
,
001000
000010
100000
000000
010001
000000
001000
000000
,
100100
000010
011000
001001
,
000100
001000
010000
000001
001000
000000
000000
000000
,
000100
000000
000000
000000
000100
000000
000000
000000
000100
100000
000000
000000
001000
000000
000000
000000
,
010000
000000
000000
000000
010000
000000
000000
000000
010000
000001
000000
000000
001000
000000
000000
000000
,
000010
000000
000000
000000
000010
000000
000000
000000
000010
100000
000000
000000
000001
000000
000000
000000
,
001000
000000
000000
000000
001000
000000
000000
000000
001000
000100
000000
000000
100000
000000
000000
000000
,
000010
001001
000100
011000
,
000001
000000
001000
000000
000100
100000
000010
000000
,
010000
001000
000101
100000
,
000100
001000
001000
000000
000010
100000
001000
000000
,
000100
000000
000001
000000
100000
001000
001000
000000
,
000001
010000
001000
000000
000100
000001
000001
000000
,
010000
000010
010000
000000
001000
000100
000001
000000
,
010000
000010
100000
001000
000100
000001
100000
000000
,
000100
000000
000000
000000
001000
000000
000000
000000
000100
100000
000000
000000
001000
000000
000000
000000
,
000100
000000
000000
000000
000001
000000
000000
000000
010000
001000
000000
000000
000100
000000
000000
000000
,
000001
000000
000000
000000
010000
000000
000000
000000
000100
001000
000000
000000
000100
000000
000000
000000
,
100000
000000
000000
000000
001000
000000
000000
000000
010000
000001
000000
000000
000100
000000
000000
000000
,
001000
000000
000000
000000
100000
000000
000000
000000
000100
001000
000000
000000
000001
000000
000000
000000
,
010000
000000
000000
000000
000010
000000
000000
000000
100000
000001
000000
000000
001000
000000
000000
000000
,
000010
100000
000010
000000
010000
000000
001000
000000
,
000100
000001
001000
000000
000100
000000
010000
000000
,
001000
001000
000000
000000
000000
000000
000000
000010
,
001000
010000
000000
000100
100000
001000
010000
000001
,
000100
000000
000000
000000
;

//--------------- dance-solo - Original 6PANEL-Expert ----------------
#NOTES:
     dance-solo:
     Original 6PANEL-Expert:
     Challenge:
     7:
     0,0,0,0,0:
000000
000000
000000
000000
,
000000
000000
000000
000000
,
010000
000000
010000
000000
000001
001000
000001
000000
,
100000
000000
100000
000000
001000
010000
000001
000000
,
000100
000000
001000
000000
000100
000100
000100
000000
,
010001
000000
100100
000000
001000
000010
100000
000000
,
000100
000000
000100
000000
000100
010000
001000
000000
,
000100
000000
100000
000000
000001
000001
010000
000000
,
100010
000000
001001
000000
100000
001000
011000
000000
,
000100
000100
001000
000000
100001
000000
011000
000000
,
000100
000001
000100
001000
,
010000
000001
001000
000000
000010
001000
100000
000000
,
000001
001000
001000
001000
,
000001
101000
001010
010100
,
000001
001000
001000
001000
,
101000
010001
000110
010001
,
001000
000100
000001
000010
,
001100
110000
101000
000101
,
001000
100000
001000
000001
,
010000
010000
010000
010000
,
000100
000000
001000
000000
000100
001000
000001
000000
100000
000000
000000
000000
001000
000000
000000
000000
,
010000
000000
100000
000000
010000
100000
000100
000000
001000
000000
000000
000000
000010
000000
000000
000000
,
000001
000000
100000
000000
000001
100000
001000
000000
000100
000000
000000
000000
000001
000000
000000
000000
,
100000
000000
000001
000000
100000
000001
001000
000000
000100
000000
000000
000000
010000
000000
000000
000000
,
000010
000000
000100
000000
000010
000100
001000
000000
100000
000000
000000
000000
000001
000000
000000
000000
,
001000
000000
000010
000000
001000
000010
100000
000000
000100
000000
000000
000000
001000
000000
000000
000000
,
000001
000000
100000
000000
000001
100000
001000
000000
000100
000000
000000
000000
000010
000000
000000
000000
,
010000
000001
000100
001000
000010
001000
000100
000001
,
010000
000000
001000
000000
100000
100000
100000
000000
,
010001
000000
000110
000000
000001
010000
001000
000000
,
000100
000000
000100
000000
000100
000001
001000
000000
,
000100
000000
100000
000000
000010
000010
010000
000000
,
100100
000000
001001
000000
100000
001000
000001
000000
,
010000
010000
000001
000000
100010
000000
001100
000000
,
100001
000000
010010
000000
001100
000000
000100
001000
,
000100
001000
000100
010000
,
000010
001000
100000
001000
,
000001
000000
011000
000000
001010
000000
100000
001000
,
000010
100001
001010
000101
,
100000
000000
011000
000000
100001
000000
000010
000100
,
001000
010000
000100
001010
,
000100
000100
001000
100000
,
000100
001000
000010
100000
,
001000
000100
000001
010000
,
001000
100000
001000
000000
100000
000000
000010
000000
,
001000
000100
001000
000000
010000
100000
000100
001000
,
000010
000000
000000
000000
;
