#VERSION:0.83;
#TITLE:BDB;
#SUBTITLE:;
#ARTIST:So Far So Good & Incredible Polo;
#TITLETRANSLIT:;
#SUBTITLETRANSLIT:;
#ARTISTTRANSLIT:;
#GENRE:;
#CREDIT:8Chasey 2025;
#MUSIC:BDB.ogg;
#BANNER:BDB-bn.png;
#BACKGROUND:BDB-bg.png;
#CDTITLE:;
#SAMPLESTART:0.160;
#SAMPLELENGTH:12.000;
#SELECTABLE:YES;
#OFFSET:0.152;
#BPMS:0.000=760.000
,4.000=95.000
,16.000=190.000
,20.000=380.000
,27.000=190.000
,32.000=95.000
,33.000=190.000
,37.000=95.000
,39.000=380.000
,215.000=190.000
,222.000=380.000
,351.000=190.000
,375.000=95.000
,379.000=190.000
,503.000=95.000
,504.000=190.000
,536.000=95.000
,552.000=190.000
,576.000=380.000
,588.000=760.000
,596.000=190.000
,604.000=380.000
,620.000=190.000
,644.000=380.000
,660.000=190.000
,675.000=95.000
,683.000=380.000
,715.000=95.000
,723.000=380.000
,811.000=190.000
,815.000=47.500
,820.000=95.000
,821.000=47.500
,851.000=95.000
,865.000=380.000
,873.000=95.000
,888.000=47.500
;
#STOPS:26.000=0.158
,29.000=0.158
,29.500=0.158
,222.000=0.158
,409.000=0.316
,440.000=0.316
,674.000=0.316
,820.000=0.632
,887.000=0.316
,887.250=0.158
,887.500=0.158
;
#SPEEDS:0.000=1.000=0.000=0,
27.000=0.950=0.125=0,
27.125=1.050=0.125=0,
27.250=0.900=0.125=0,
27.375=1.100=0.125=0,
27.500=0.850=0.125=0,
27.625=1.150=0.125=0,
27.750=0.800=0.125=0,
27.875=1.200=0.125=0,
28.000=0.750=0.125=0,
28.125=1.250=0.125=0,
28.250=0.700=0.125=0,
28.375=1.300=0.125=0,
28.500=0.650=0.125=0,
28.625=1.350=0.125=0,
28.750=0.600=0.125=0,
28.875=1.400=0.125=0,
29.000=1.000=0.000=0,
37.000=0.750=1.000=0,
38.000=1.000=0.500=0,
105.000=1.500=0.500=0,
113.000=1.000=0.500=0,
121.000=1.500=0.500=0,
127.125=1.000=0.375=0,
128.500=1.200=0.125=0,
128.625=1.000=0.375=0,
130.000=1.200=0.125=0,
130.125=1.000=0.375=0,
137.000=1.500=0.500=0,
145.000=1.000=0.500=0,
169.000=1.500=0.500=0,
177.000=1.000=0.500=0,
185.000=1.500=0.500=0,
191.125=1.000=0.375=0,
192.500=1.200=0.125=0,
192.625=1.000=0.375=0,
194.000=1.200=0.125=0,
194.125=1.000=0.375=0,
201.000=1.500=0.500=0,
209.000=1.000=0.500=0,
225.000=1.500=0.500=0,
233.000=1.000=0.500=0,
241.000=1.500=0.500=0,
247.125=1.000=0.375=0,
248.500=1.200=0.125=0,
248.625=1.000=0.375=0,
250.000=1.200=0.125=0,
250.125=1.000=0.375=0,
257.000=1.500=0.500=0,
265.000=1.000=0.500=0,
289.000=1.500=0.500=0,
297.000=1.000=0.500=0,
305.000=1.500=0.500=0,
311.125=1.000=0.375=0,
312.500=1.200=0.125=0,
312.625=1.000=0.375=0,
314.000=1.200=0.125=0,
314.125=1.000=0.375=0,
445.667=1.200=0.100=0,
446.000=1.000=0.100=0,
446.667=1.200=0.100=0,
447.000=1.000=0.100=0,
447.667=1.200=0.100=0,
448.000=1.000=0.100=0,
448.667=1.200=0.100=0,
449.000=1.000=0.100=0,
453.667=1.200=0.100=0,
454.000=1.000=0.100=0,
454.667=1.200=0.100=0,
455.000=1.000=0.100=0,
455.667=1.200=0.100=0,
456.000=1.000=0.100=0,
456.667=1.200=0.100=0,
457.000=1.000=0.100=0,
461.667=1.200=0.100=0,
462.000=1.000=0.100=0,
462.667=1.200=0.100=0,
463.000=1.000=0.100=0,
463.667=1.200=0.100=0,
464.000=1.000=0.100=0,
464.667=1.200=0.100=0,
465.000=1.000=0.100=0,
465.667=1.100=0.100=0,
466.000=1.000=0.100=0,
466.667=1.090=0.100=0,
467.000=1.000=0.100=0,
467.667=1.080=0.100=0,
468.000=1.000=0.100=0,
468.667=1.070=0.100=0,
469.000=1.000=0.100=0,
469.667=1.060=0.100=0,
470.000=1.000=0.100=0,
470.667=1.050=0.100=0,
471.000=1.000=0.100=0,
471.667=1.040=0.100=0,
472.000=1.000=0.100=0,
472.667=1.030=0.100=0,
473.000=1.000=0.100=0,
473.667=1.020=0.100=0,
474.000=1.000=0.100=0,
474.667=1.010=0.100=0,
475.000=1.000=0.100=0,
811.000=1.200=0.250=0,
811.500=0.900=0.250=0,
812.500=1.100=0.250=0,
813.500=0.750=0.250=0,
814.250=1.000=0.750=0,
907.000=0.500=5.000=0
;
#SCROLLS:0.000=1.000,
32.000=0.000,
32.104=6.000,
32.125=0.000,
32.229=6.000,
32.250=0.000,
32.354=6.000,
32.375=0.000,
32.479=6.000,
32.500=0.000,
32.604=6.000,
32.625=0.000,
32.729=6.000,
32.750=0.000,
32.854=6.000,
32.875=0.000,
32.979=6.000,
33.000=1.000,
71.000=0.750,
72.000=1.250,
73.000=1.000,
105.000=0.667,
113.000=1.000,
121.000=0.667,
127.000=1.000,
137.000=0.667,
145.000=1.000,
169.000=0.667,
177.000=1.000,
185.000=0.667,
191.000=1.000,
201.000=0.667,
209.000=1.000,
225.000=0.667,
233.000=1.000,
241.000=0.667,
247.000=1.000,
257.000=0.667,
265.000=1.000,
289.000=0.667,
297.000=1.000,
305.000=0.667,
311.000=1.000,
319.000=0.950,
320.000=0.900,
321.000=0.850,
322.000=0.800,
323.000=0.750,
346.000=0.800,
346.500=0.850,
347.000=0.900,
347.500=0.950,
348.000=1.000,
348.500=1.050,
349.000=1.100,
349.500=1.075,
350.000=1.050,
350.500=1.025,
351.000=1.000,
378.000=0.000,
378.146=8.000,
378.167=0.000,
378.313=8.000,
378.333=0.000,
378.479=8.000,
378.500=0.000,
378.646=8.000,
378.667=0.000,
378.813=8.000,
378.833=0.000,
378.979=8.000,
379.000=1.000,
503.000=0.000,
503.146=8.000,
503.167=0.000,
503.313=8.000,
503.333=0.000,
503.479=8.000,
503.500=0.000,
503.646=8.000,
503.667=0.000,
503.813=8.000,
503.833=0.000,
503.979=8.000,
504.000=1.000,
604.000=0.000,
604.438=8.000,
604.500=0.000,
604.938=8.000,
605.000=0.000,
605.438=8.000,
605.500=0.000,
605.938=8.000,
606.000=0.000,
606.438=8.000,
606.500=0.000,
606.938=8.000,
607.000=0.000,
607.438=8.000,
607.500=0.000,
607.938=8.000,
608.000=0.000,
608.438=8.000,
608.500=0.000,
608.938=8.000,
609.000=0.000,
609.438=8.000,
609.500=0.000,
609.938=8.000,
610.000=0.000,
610.438=8.000,
610.500=0.000,
610.938=8.000,
611.000=0.000,
611.438=8.000,
611.500=0.000,
611.938=8.000,
612.000=0.000,
612.438=8.000,
612.500=0.000,
612.938=8.000,
613.000=0.000,
613.438=8.000,
613.500=0.000,
613.938=8.000,
614.000=0.000,
614.438=8.000,
614.500=0.000,
614.938=8.000,
615.000=0.000,
615.438=8.000,
615.500=0.000,
615.938=8.000,
616.000=0.000,
616.438=8.000,
616.500=0.000,
616.938=8.000,
617.000=0.000,
617.438=8.000,
617.500=0.000,
617.938=8.000,
618.000=0.000,
618.438=8.000,
618.500=0.000,
618.938=8.000,
619.000=0.000,
619.438=8.000,
619.500=0.000,
619.938=8.000,
620.000=1.000,
644.000=0.000,
644.438=8.000,
644.500=0.000,
644.938=8.000,
645.000=0.000,
645.438=8.000,
645.500=0.000,
645.938=8.000,
646.000=0.000,
646.438=8.000,
646.500=0.000,
646.938=8.000,
647.000=0.000,
647.438=8.000,
647.500=0.000,
647.938=8.000,
648.000=0.000,
648.438=8.000,
648.500=0.000,
648.938=8.000,
649.000=0.000,
649.438=8.000,
649.500=0.000,
649.938=8.000,
650.000=0.000,
650.438=8.000,
650.500=0.000,
650.938=8.000,
651.000=0.000,
651.438=8.000,
651.500=0.000,
651.938=8.000,
652.000=0.000,
652.438=8.000,
652.500=0.000,
652.938=8.000,
653.000=0.000,
653.438=8.000,
653.500=0.000,
653.938=8.000,
654.000=0.000,
654.438=8.000,
654.500=0.000,
654.938=8.000,
655.000=0.000,
655.438=8.000,
655.500=0.000,
655.938=8.000,
656.000=0.000,
656.438=8.000,
656.500=0.000,
656.938=8.000,
657.000=0.000,
657.438=8.000,
657.500=0.000,
657.938=8.000,
658.000=0.000,
658.438=8.000,
658.500=0.000,
658.938=8.000,
659.000=0.000,
659.438=8.000,
659.500=0.000,
659.938=8.000,
660.000=1.000,
675.000=0.750,
675.250=1.500,
675.375=1.400,
675.500=1.300,
675.625=1.200,
675.750=1.100,
675.875=1.000,
679.500=2.000,
679.625=0.750,
680.000=1.000,
680.500=2.000,
680.625=0.750,
681.000=1.000,
681.500=2.000,
681.625=0.750,
682.000=1.000,
682.500=2.000,
682.625=0.750,
683.000=1.000,
715.000=0.750,
715.250=1.500,
715.375=1.400,
715.500=1.300,
715.625=1.200,
715.750=1.100,
715.875=1.000,
815.000=1.250,
820.000=1.000,
821.000=1.250,
850.000=1.750,
850.625=1.000,
888.000=1.200,
913.813=2.000
;
#TIMESIGNATURES:0.000=4=4;
#LABELS:0.000=Song Start,
20.000=C'EST DE LA BOMBE DE BALLE!,
39.000=Full Wekiddy,
103.000=Extended Starts Here,
215.000=Break,
223.000=Back To The Action,
351.000=Time to Swing,
379.000=Swinging Beats,
407.000=C'EST DE LA BOMBE DE BALLE again,
441.000=More Swinging,
504.000=Can't Stop Swinging,
535.750=You're Not Ready,
536.000=(BRIDGE BONUS START),
595.750=Keeping The Volume Up,
596.000=(BRIDGE BONUS END),
675.000=Chillwave,
683.000=...Nevermind,
715.000=Chill Again,
723.000=...Nevermind Again,
755.000=Full Throttle Now!,
815.000=Total Slowdown,
851.000=Final Melody,
888.000=Outro,
913.750=The end...,
916.000=...or the beginning...,
918.250=...it's always been...,
920.750=...a loop.
;
#BGCHANGES:;
#FGCHANGES:;

//--------------- dance-single - 8Chasey ----------------
#NOTEDATA:;
#STEPSTYPE:dance-single;
#DESCRIPTION:8Chasey;
#DIFFICULTY:Beginner;
#METER:5;
#RADARVALUES:0,0,0,0,0;
#NOTES:
0000
0000
0000
0000
,
0001
0001
0001
0000
,
1000
1000
1000
0000
,
0010
0000
0100
0000
,
0010
0000
0000
0000
,
1001
0000
0000
0000
,
0000
0000
0000
0001
,
0000
1000
0001
0000
,
1000
0010
0000
0000
,
0000
0100
0000
0001
,
0000
1000
0000
0000
,
0000
0001
0000
1000
,
0000
1000
0000
1000
,
0000
0000
0000
0010
,
0000
0000
0000
0100
,
0000
0000
0000
0010
,
0000
0100
0000
0010
,
0000
0000
0000
1000
,
0000
0001
0000
0000
,
0000
1000
0000
0001
,
0000
0001
0000
0001
,
0000
0000
0000
0100
,
0000
0000
0000
0010
,
0000
0000
0000
0100
,
0000
0010
0000
0100
,
0000
0000
0000
0000
,
0000
1001
0000
0000
,
0000
0000
0000
0000
,
0000
0100
0000
0000
,
0000
0000
0000
0000
,
0000
1001
0000
0000
,
0000
0000
0000
0010
,
0000
0000
0000
0010
,
0000
0000
0000
0000
,
0000
1001
0000
0000
,
0000
0000
0000
0000
,
0000
0100
0000
0000
,
0000
0000
0000
0001
,
0000
0000
0000
0001
,
0000
0000
0000
1000
,
0000
0000
0000
1000
,
0000
0000
0000
0000
,
0000
0110
0000
0000
,
0000
0000
0000
0000
,
0000
0001
0000
0000
,
0000
0000
0000
0000
,
0000
0110
0000
0000
,
0000
0000
0000
0100
,
0000
0000
0000
0010
,
0000
0000
0000
0000
,
0000
0110
0000
0000
,
0000
0000
0000
0000
,
0000
1000
0000
0000
,
0000
0000
0000
0010
,
0000
0000
0000
0000
,
0000
0000
0100
0000
,
0000
1001
0000
0000
,
0000
0000
0000
0000
,
0000
1000
0000
0000
,
0000
0000
0000
0000
,
0000
1001
0000
0000
,
0000
0000
0000
0001
,
0000
1000
0000
0001
,
0000
0000
0000
0000
,
0000
1001
0000
0000
,
0000
0000
0000
0000
,
0000
0001
0000
0000
,
0000
0000
0000
0100
,
0000
0010
0000
0100
,
0000
0000
0000
0010
,
0000
0100
0000
0010
,
0000
0000
0000
0000
,
0000
0110
0000
0000
,
0000
0000
0000
0000
,
0000
1001
0000
0000
,
0000
0000
0000
0000
,
0000
0110
0000
0000
,
0000
0000
0000
1000
,
0000
0000
0000
0001
,
0000
0000
0000
0000
,
0000
0100
0000
0000
,
0000
0100
0000
0000
,
0000
0010
0000
0000
,
0000
0010
0000
0000
,
0000
1000
0000
0000
,
0000
0001
0000
0000
,
0000
0100
0000
0010
,
0000
0000
0000
0100
,
0000
0100
0000
0001
,
0000
0001
0000
0010
,
0000
0010
0000
1000
,
0000
1000
0000
0010
,
0000
0100
0000
1000
,
0000
0001
0000
0100
,
0100
0100
0000
0001
,
0000
0001
0000
1000
,
0000
0001
0000
1000
,
0000
1000
0000
0001
,
0000
1000
0000
0010
,
0000
0100
0000
0010
,
0000
0100
0000
0010
,
0010
0010
0000
0100
,
0100
0100
1001
0000
,
0001
0000
1000
0000
,
0010
0000
0110
0000
,
0100
0000
0001
0000
,
1000
0000
1001
0000
,
1000
0000
0001
0000
,
0100
0000
0010
0010
,
0100
0100
0010
0100
,
0000
0000
0001
0000
,
1000
0000
1001
0000
,
1001
0000
1000
0000
,
0001
0000
1001
0000
,
1001
0000
0100
0000
,
0010
0000
0110
0000
,
0110
0000
1000
0001
,
1000
0000
0001
1000
,
0001
0000
0100
0000
,
0100
0000
0100
0000
,
0100
0000
0010
0000
,
0010
0000
0010
0000
,
0010
0000
1000
0000
,
1000
0000
0001
0000
,
0001
0000
0100
0000
,
0010
0000
0100
0000
,
0000
0010
0000
0010
,
0000
0010
0000
0010
,
0000
0100
0000
0100
,
0000
0100
0000
0100
,
0000
0001
0000
0001
,
0000
1000
0000
1000
,
0000
0010
0000
0100
,
0000
0010
0000
0100
,
0110
0000
0000
0000
,
1001
0000
0000
0000
,
1000
0000
0001
0000
,
1000
0000
0001
0000
,
0000
0010
0000
0100
,
0000
0010
0000
0100
,
0000
1000
0000
0001
,
0000
1000
0000
0001
,
0000
0100
0000
0100
,
0000
0010
0000
0010
,
1000
0000
1000
0000
,
0001
0000
0001
0000
,
1000
0000
0001
0000
,
0100
0000
0000
0000
,
0000
0000
0000
0000
,
0010
0000
0100
0010
,
0100
0000
0010
0000
,
0110
0000
0000
0000
,
0000
0000
0000
0000
,
0000
0000
0000
0000
,
0000
0000
0000
0000
,
0100
0000
0001
0000
,
1000
0001
1000
0000
,
0100
0000
1000
0000
,
0001
1000
0001
0000
,
0010
0100
0010
0000
,
0100
0010
0100
0000
,
1001
0000
0000
0000
,
0000
0000
0000
0000
,
0000
0000
0000
0000
,
0000
0000
0000
0000
,
1000
1000
0001
0000
,
0001
0001
1000
0000
,
0010
0000
0100
0000
,
0010
0000
0000
0100
,
0000
0010
0000
0000
,
0000
0000
0000
1000
,
0000
0000
0000
0100
,
0000
0010
0000
0100
,
0000
0010
0000
0010
,
0000
0000
0000
0001
,
0000
0000
0000
0010
,
0000
0100
0000
0010
,
0000
0010
0000
0100
,
0000
0000
0000
0010
,
0000
0100
0000
0010
,
0000
0100
0000
1000
,
0000
0000
0000
0000
,
0000
0001
0000
1000
,
0000
0001
0000
1000
,
0000
0001
0000
0000
,
0000
0100
0000
0000
,
0000
0100
0000
0000
,
0000
0100
0000
0000
,
0000
0100
0000
0000
,
0000
0000
0000
0010
,
0000
0100
0000
0010
,
0000
0000
0000
1000
,
0000
0001
0000
0000
,
0000
0010
0000
0000
,
0000
0010
0000
0000
,
0000
0010
0000
0000
,
0000
0010
0000
0000
,
0000
0000
0000
0100
,
0000
0010
0000
0100
,
0000
0000
0000
0010
,
0000
0000
0000
0001
,
0000
1000
0000
0001
,
0000
1000
0000
1001
,
0000
0000
0000
0010
,
0010
0010
0000
0000
,
0000
0100
0100
0100
,
0001
0010
0010
0100
,
0100
0100
1000
0010
,
0010
0100
0000
0001
,
1000
0001
0001
1000
,
0000
0001
0000
1000
,
0001
1000
1000
0001
,
0000
0000
1001
0001
,
0000
0010
0010
0100
,
0000
1000
0000
0001
,
1000
0001
0000
1000
,
0000
1001
0000
0000
,
0000
0000
0000
0000
,
0000
0001
0000
0100
,
0100
0010
0000
1000
,
0000
0100
0010
0100
,
0000
0010
0000
0000
,
0001
1000
0001
0000
,
0000
0000
0000
0000
,
1000
0001
1000
0000
,
0000
0000
0000
0000
,
0010
0000
0100
0000
;

//--------------- dance-single - 8Chasey ----------------
#NOTEDATA:;
#STEPSTYPE:dance-single;
#DESCRIPTION:8Chasey;
#DIFFICULTY:Easy;
#METER:9;
#RADARVALUES:0,0,0,0,0;
#NOTES:
0000
0000
0000
0000
,
1000
1100
0001
0011
,
0010
0010
0100
0100
,
1000
0001
1000
0001
,
0020
0030
0200
0300
,
2002
0000
0000
0000
,
3003
0000
0000
0002
,
0000
0000
2003
3000
0020
0000
0100
0000
,
0130
0002
0000
1003
,
0000
2002
3003
0001
,
0000
1000
0000
0100
,
1000
0100
0000
1000
,
0001
1000
0000
0001
,
0000
0010
0000
0100
,
0000
0100
0000
0010
,
0000
0010
0000
0001
,
0000
1000
0000
0001
,
0000
1000
0000
1001
,
0000
0001
0000
0010
,
0100
0010
0000
0100
,
0000
1000
0000
0010
,
0100
0010
0000
0110
,
0000
0100
0000
0001
,
0010
0001
0000
0010
,
0000
0100
0000
1000
,
0010
1000
0000
0010
,
0000
0110
0000
0000
,
0100
0001
0000
1000
,
0000
0001
0000
0000
,
0000
1001
0000
1000
,
0000
1010
0000
0000
,
0010
0100
0000
0001
,
0000
0001
0000
0000
0002
0000
0000
0000
,
0003
0010
0000
0100
,
0000
0110
0000
0000
,
0100
1000
0000
0010
,
0000
0100
0000
0000
,
0100
0010
0000
0100
,
0000
0001
1000
0000
,
0001
1000
0000
0100
,
0010
0100
0000
0010
,
0000
0001
0000
1000
,
0000
1001
0000
0000
,
0001
0010
0000
0100
,
0000
0100
0000
0000
,
1000
0100
0000
1000
,
0000
1001
0000
0000
,
0001
0010
0100
1000
,
0000
1000
0000
0000
2000
0000
0000
0000
,
3000
0010
0000
0100
,
0000
0110
0000
0000
,
0100
0001
0000
0010
,
0000
0100
0000
0000
,
0100
1000
0000
0002
,
1000
0000
1000
0000
,
1003
0000
1010
0101
,
0000
1001
0000
0000
,
1000
0100
0001
0200
,
0000
0310
0000
0000
,
0010
0100
0000
1000
,
0000
1001
0000
0000
,
0001
0010
0000
0100
,
0000
0100
0000
0000
0100
0000
0000
0000
,
0000
1000
0000
1001
,
0000
0101
0000
0000
,
0001
0010
0000
0110
,
0000
1100
0000
0000
,
1000
0001
0000
0010
,
0001
0010
0000
0100
,
1000
0100
0000
1000
,
0001
1000
0001
0100
,
0010
0100
0000
0110
,
0000
1010
0000
0000
,
1000
0100
0000
1000
,
0000
0001
0000
0000
,
0100
0001
0000
0010
,
0000
0011
0000
0000
,
0001
0100
0000
0010
,
0000
0010
0000
0000
0010
0000
0000
0000
,
0000
0110
0000
1000
,
0000
1000
0000
0001
,
0000
0001
0000
1000
,
0001
1000
0002
0000
,
0000
0003
0000
0010
,
0000
0100
0000
0100
,
0000
0010
0000
0001
,
1000
0001
2000
0000
,
0000
3000
0000
1001
,
0000
0001
0010
0001
,
0000
0010
0100
0010
,
0000
0100
1000
0100
,
0000
1000
0001
1001
,
0000
1000
0010
0100
,
0001
0010
0100
2000
,
3002
0023
0130
1000
,
0001
1000
0000
0001
,
1000
0001
0001
0010
,
0100
0010
0000
0100
,
0010
0100
0100
1000
,
0010
1000
0000
0001
,
0100
0001
0000
0010
,
0010
0100
0100
1000
,
0001
1001
2000
3010
,
0200
0310
2000
3001
,
0010
0110
0200
1300
,
0002
1003
0020
1030
,
0100
0110
0001
0001
,
0100
0100
0010
0010
,
1000
1000
0100
0010
,
0001
1000
0020
0200
,
0330
0001
0010
0001
,
0010
0000
0000
0000
0000
0100
0000
0000
0100
0000
0000
0100
,
0000
0000
0100
1000
0000
0000
0010
0000
0000
1000
0000
0000
,
0010
0000
0000
0000
0000
0100
0000
0000
0100
0000
0000
0100
,
0000
0000
0100
0010
0000
0000
0100
0000
0000
0010
0000
0000
,
0100
0000
0000
0000
0000
0001
0000
0000
0001
0000
0000
1000
,
0000
0000
1000
0000
0000
0000
0101
0000
0000
0000
0000
0000
,
1010
0000
0011
0000
,
1100
1000
0010
0100
,
0100
0001
1000
0100
,
1000
0001
0010
0100
,
0100
1000
0001
0100
,
0001
0010
0100
0010
,
0000
0100
0010
0100
,
0000
1000
0100
0001
,
0100
0000
0000
0000
0000
0000
0010
0000
0100
0000
0010
0000
0100
0000
0000
0000
0000
0000
0020
0000
0000
0030
0000
0000
,
0001
0100
0001
0010
,
0100
0110
0010
0100
,
1000
0010
1000
0100
,
1000
1001
0001
0100
,
0010
1000
0100
0001
,
0100
1000
0010
0001
,
0010
0000
0010
0100
0000
0000
0010
0000
0010
0100
0000
0000
,
1000
1001
0001
1000
,
0002
0000
1000
0000
0100
0000
1003
1000
,
2000
0000
0001
0000
0100
0000
3001
0001
,
0001
0000
0000
1000
0000
0000
0000
0000
0001
0000
0000
1000
0000
0000
0000
0000
,
1000
0000
0000
0001
0000
0000
0000
0000
1000
0000
0000
0001
0000
0000
0000
0000
,
0010
0000
0000
0001
0000
0001
0000
0000
,
1000
0000
0000
0001
0000
0001
0000
1000
,
0100
0000
0000
1000
0000
1000
0000
0000
,
0001
0000
0000
1000
0000
1000
0000
0001
,
0010
0010
0100
0100
,
0010
0001
1000
0010
,
0100
0010
0100
0100
,
0010
0100
0010
0010
,
1000
0001
1000
0001
,
0200
0000
0000
0000
,
0000
0000
0300
0000
,
0010
0000
1000
0100
1000
0000
0010
0000
,
0100
0000
0001
0010
0001
0000
0100
0000
,
0020
0000
0000
0000
,
0000
0000
0000
0000
,
0230
0000
0000
0000
,
0000
0000
0000
0310
,
0100
0000
0001
0010
0001
0000
1001
0000
,
1000
0000
0010
0100
0010
0000
0110
0000
,
0100
0000
0001
0010
0001
0000
1100
0000
,
2000
0002
3003
1001
,
0001
0000
0010
0001
0000
0100
0001
0000
,
1000
0100
1000
0000
0010
0100
0010
0000
,
2000
0000
0000
0000
,
0000
0000
0000
0000
,
3002
0000
0000
0000
,
0000
0000
0000
1003
,
0001
0000
0011
0000
0010
0100
1000
0000
,
0100
1000
0010
1000
0100
0000
0010
0000
,
0001
1001
1000
0110
,
0001
0000
1000
0000
0020
0030
0200
0000
,
0300
0000
0000
0000
0001
1000
0000
0000
0000
0000
0000
0000
0000
0000
0100
0000
,
0000
0100
0000
0100
0000
0100
0010
0000
,
0000
0001
0100
0000
,
0001
1000
0000
0010
,
1000
0100
0000
0010
,
0100
0010
0000
0001
,
0010
0100
1000
0010
,
0100
0010
0000
0100
,
0000
0001
0010
0000
,
0001
0100
0000
0020
,
0030
0000
0000
0000
1000
0001
0000
0000
0000
0000
0000
0000
0010
0000
0000
0000
,
0000
0000
0000
0000
0001
1000
0000
0000
0000
0000
0000
0000
1001
0000
0000
0000
,
0000
0001
0000
0010
,
0100
0010
0000
0100
,
0000
1000
0010
0000
,
0100
0010
0000
1000
,
0010
0100
0001
0100
,
0010
0100
0000
0000
,
0000
0101
0000
0000
,
0000
1010
0000
1001
,
0000
0001
0000
1000
,
0001
1000
0000
0100
,
0000
0010
0000
0001
,
0100
0001
0100
0010
,
1000
0010
1000
0010
,
0100
0020
0000
0000
,
0030
0110
0000
0100
,
0000
0001
0000
0010
,
0100
0010
0100
0010
,
0100
1000
0001
1000
,
0000
0001
0100
0010
,
0000
0110
0000
0100
,
0010
0100
0010
0100
,
0010
0100
0000
0001
,
0000
1000
0000
0000
0000
0000
0002
0000
,
1003
2000
0000
3000
,
0001
0000
0010
0000
0100
0010
0100
0000
,
1000
0001
0100
0110
,
0010
1000
0010
0000
0100
0000
0002
0000
,
0003
1000
0001
0000
1000
0000
1001
0000
,
0001
1000
0001
0000
0010
0000
0200
0000
,
0300
0000
0000
0000
0010
0000
0000
0000
0001
1000
0001
0000
1000
0000
0000
0000
,
0100
0110
0010
0001
,
1000
0000
0000
0000
0010
0000
0000
0000
0100
0010
0100
0000
0002
0000
0000
0000
,
0003
0000
0010
0000
0100
0010
0200
0000
,
0300
0000
1000
0000
1001
0000
0001
0010
,
0001
0000
1000
0100
1000
0000
0010
0000
,
0100
0020
0000
0000
,
0000
0030
0000
0000
,
0000
2000
3000
0100
,
0010
0100
0020
0000
0030
0000
0001
0000
,
0100
0000
0010
0100
0010
0000
1000
0100
,
1000
0000
0001
1000
0001
1000
0001
0000
,
0020
0130
1000
1000
,
0001
0000
1000
0000
0010
0100
0010
0100
,
0020
0130
0001
0001
,
1000
0001
0200
0300
,
0020
0030
0200
0000
,
0000
0000
0000
0000
,
0300
0000
0000
0000
;

//--------------- dance-single - 8Chasey ----------------
#NOTEDATA:;
#STEPSTYPE:dance-single;
#DESCRIPTION:8Chasey;
#DIFFICULTY:Medium;
#METER:10;
#RADARVALUES:0,0,0,0,0;
#NOTES:
0000
0000
0000
0000
,
0001
0000
0000
1000
0001
0000
0000
0000
1000
0000
0000
0001
1000
0000
0000
0000
,
0010
0100
0010
0000
0100
0010
0100
0000
,
0001
1000
0100
0010
,
0001
1000
0001
1000
,
2002
0000
0000
0000
,
0000
0000
3003
0200
,
0000
0000
0000
0000
0000
0000
0310
0000
0000
0100
0000
0000
0001
0000
1000
0000
0001
0000
1000
0000
0001
0000
1000
0000
,
0002
0023
0100
0100
,
0130
0000
2200
0000
0000
3300
1000
0000
,
0000
0001
0010
0100
,
0000
0000
0110
0000
0000
0000
0100
1000
,
0100
0000
1000
0100
1000
0000
0001
0000
,
0100
0001
0000
0010
,
0000
0010
0000
0000
0010
0000
0100
0000
,
0000
0100
0000
0000
0100
0000
1000
0000
,
0000
0001
0000
0000
1000
0000
0001
0000
,
0000
1000
0000
0000
0001
0000
1001
0000
,
0000
1000
0100
0000
,
1000
0000
0001
0000
0000
0000
0010
0001
,
0010
0000
0001
0010
0001
0000
0100
0000
,
0010
0100
0000
0001
,
0000
0001
0000
0000
0001
0000
1000
0000
,
0000
1000
0000
0000
1000
0000
0010
0000
,
0000
0100
0000
0000
0010
0000
0100
0000
,
0000
0010
0000
0000
0100
0000
0001
0000
,
1000
1001
0000
0001
,
0010
0100
0000
0010
,
0000
0110
0000
0100
,
1000
0001
0000
0100
,
0010
0110
0000
0010
,
1000
0010
0000
1000
,
0000
0001
0000
0000
1001
0000
0000
0000
,
1000
0001
0000
0010
,
0100
1100
0000
1000
,
0001
1000
0000
0001
,
0000
0101
0000
0001
,
0010
0001
0000
0020
,
0000
0130
0000
1000
,
0001
1000
0001
0000
1000
0000
0010
0000
,
0000
0010
0000
0000
0020
0000
0000
0000
,
0000
0130
0000
1000
,
0010
1010
0000
1000
,
0100
1000
0000
0001
,
0000
0011
0000
0010
,
0100
0010
0000
0100
,
0000
1001
0000
0001
,
0010
0100
1000
0010
,
0000
0100
0000
0000
0110
0000
0000
0000
,
0001
1000
0000
0100
,
1000
1001
0000
0001
,
0010
0001
0000
0100
,
0000
0110
0000
0010
,
0100
0010
0000
0200
,
1000
0010
0001
0010
,
1000
0010
0301
0010
,
0100
0110
0000
0100
,
1000
0010
0000
0100
,
0000
0110
0000
0100
,
0001
0010
0000
0001
,
1000
1001
0000
1000
,
0100
1000
0000
0001
,
0000
1000
0000
0000
0110
0000
0000
0000
,
0100
0010
0000
0100
,
0001
1001
0000
1000
,
0010
1000
0000
0100
,
1000
1001
0000
0001
,
0010
0001
0000
0100
,
0000
0010
1000
0000
,
0100
1000
0000
0100
,
0000
0010
0001
0000
,
0100
0001
0000
0100
,
0010
0110
0000
0100
,
0001
1000
0000
0100
,
0010
0110
0000
0100
,
1000
0001
0000
0110
,
0000
1001
0000
0110
,
0000
0110
0000
0100
,
0000
0001
0000
0000
0100
0000
0000
0000
,
0001
1000
0001
0000
0000
0000
1000
0000
,
0000
0100
0000
0010
,
0000
0001
0000
0100
,
0010
0100
0010
0000
,
0000
1001
0000
0001
,
0000
0010
0000
0100
,
0000
1000
0000
0010
,
0100
0010
0100
0000
,
0000
0000
0000
1100
,
1000
0010
1000
0001
,
0010
0000
0000
0001
0000
0000
0100
0000
0010
0100
0000
0000
,
0001
0010
0001
1000
,
0100
0000
0000
1000
0000
0000
0010
0000
0010
0100
0000
0000
,
0001
0000
0001
0100
0000
0000
0010
0000
0010
1000
0000
0000
,
0100
0000
0000
0000
0100
0000
0010
0000
0000
0000
0000
0000
0001
0000
0000
0000
0001
0000
1000
0000
0000
1100
0000
0000
,
0001
0101
0100
0110
1001
0000
1000
0000
,
0100
1000
0001
0010
,
0001
0000
0000
0100
0000
0100
0010
0000
0000
0100
0000
0000
,
0001
0010
0100
1000
,
0010
0000
0000
0100
0000
0100
0010
0000
0000
1000
0000
0000
,
0001
0000
0000
1000
0000
0100
1000
0000
0000
0001
0000
0000
,
1000
0000
0000
0001
0000
0100
0001
0000
0000
0010
0000
0100
,
0010
0000
0000
0100
0000
0010
0100
0000
0000
1000
0001
1000
,
0001
1001
0001
0011
,
1000
1010
0001
0101
,
1000
1100
0100
0110
,
0010
1001
0010
0110
,
0100
0000
0000
1001
0000
0000
0001
0000
0100
0001
0000
0000
,
1000
0000
0010
1000
0000
0000
0100
0000
0010
0100
0000
0000
,
0010
0000
0100
0010
0000
0000
0001
0000
0001
0100
0000
0100
,
0010
0000
0010
1000
0000
1000
0100
0010
0100
0010
0100
0010
,
0000
0001
0101
0100
,
1100
0000
0000
1000
0000
0100
0001
0000
0100
0001
0000
0100
,
0001
0000
0100
0001
0000
0000
0011
0000
0000
0010
0000
0000
,
1010
0000
0000
1000
0000
0010
0100
0000
0010
0100
0000
0010
,
0100
0000
0010
0100
0000
0000
1001
0000
0000
0001
0000
0000
,
0110
0000
0000
1000
0000
0010
0100
0000
0010
0100
0000
0010
,
0100
0000
0010
0200
0000
0000
0001
0000
0000
0302
0000
0000
,
1000
2003
0010
3020
,
0100
0000
0000
0130
0000
0000
0001
0000
0010
0001
0000
0000
,
0010
0000
0000
0100
0000
0000
1000
0000
0010
1000
0000
0000
,
0010
0000
0000
0100
0000
0000
0001
0000
1000
0001
0000
0000
,
1000
0000
0000
0100
0000
0000
1000
0000
0001
1000
0000
0000
,
0001
0000
0000
0010
0000
0000
0001
0000
0000
0010
0000
0100
,
1000
0000
0000
0010
0000
0000
1000
0000
0000
0010
0000
0100
,
0001
0000
0000
1000
0000
1000
0100
0000
0100
0010
0000
0010
,
0001
0000
0001
1000
0001
1000
0001
0000
0000
2000
0000
0000
,
3010
0110
0100
0001
,
0010
0000
0010
0001
0000
0001
0100
0000
0100
0010
0000
0000
,
0100
0110
0010
1000
,
0100
0000
0100
1000
0000
1000
0010
0000
0010
0100
0000
0000
,
0001
0000
0000
0010
0000
0000
0001
0000
1000
0001
0000
0000
,
1000
0000
0000
0100
0000
0000
1000
0000
0001
1000
0000
0000
,
0010
0000
0010
0100
0000
0000
0010
0000
0010
0100
0000
0000
,
0001
0000
0010
0001
0000
0000
1000
0000
0100
1000
0000
0000
,
0002
0000
0100
0000
1000
1000
1003
0000
,
2000
0000
0100
0000
0001
0001
3001
0000
,
0001
0000
0000
0010
0000
0010
0000
0000
0100
0000
0000
0100
0000
0100
0000
0000
,
1000
0000
0000
0010
0000
0010
0000
0000
0100
0000
0000
0100
0000
0100
0000
0000
,
0001
0000
1000
0100
0000
1000
0010
0000
,
1000
0000
0001
0100
0000
0001
0010
0000
,
0100
0000
0010
0001
0000
0100
0001
0000
,
0100
0000
0010
1000
0000
0100
1000
0000
,
0001
0010
0001
0000
1000
0100
1000
0000
,
0010
0100
0010
0000
0100
0001
0100
0000
,
0001
0000
0010
0001
0010
0000
0001
0000
,
1000
0000
0010
1000
0010
0000
1000
0000
,
0010
0000
0100
0010
0100
0000
0010
0000
,
0200
0000
0000
0000
,
0000
0000
0300
0000
,
1001
0000
1000
0001
0000
0010
0001
0000
,
0100
0100
0001
0010
0100
1000
0010
0000
,
1000
0001
1000
0010
,
1000
0001
0010
0001
,
0100
0010
1000
0010
,
1000
0000
0100
0000
0010
0000
0001
1000
,
0002
0003
0000
0000
0010
0000
0001
0000
0000
0000
0100
0000
0001
0000
0010
0000
,
0100
0000
0000
0000
1000
0000
0010
0000
1000
0000
0000
1000
0001
0000
0000
0000
,
1000
0000
0000
0000
0010
0000
1000
0001
1000
0000
0001
0000
0100
0000
0001
0000
,
0010
0000
0100
0010
0100
0000
0110
0000
,
0010
0000
0001
1000
0000
0010
1000
0000
,
0100
0100
1000
0010
0100
0001
0010
0000
,
0001
0100
0001
1000
,
0100
0010
0001
1000
,
0100
1000
0001
1000
,
0100
0000
0010
0000
0100
0000
0010
0100
,
0010
0000
0001
0100
0000
0001
1000
0000
,
0100
0000
1000
0000
0010
0000
0000
0000
1000
0000
0000
1000
0001
0000
0000
0000
,
0010
0001
0010
0000
0100
1000
0100
0000
,
1000
0000
0001
1000
0020
0030
0200
0000
,
0300
0000
0010
0000
1000
0001
0000
0000
0000
0200
0000
0000
0000
0000
0010
0000
,
0000
0010
0000
0010
0000
0310
1001
0000
,
0000
1000
0100
1000
,
0010
0100
0000
0001
,
0100
1000
0100
0001
,
0000
0001
1000
0000
0000
0000
0010
0000
,
0000
0100
0001
0000
,
1000
0001
0000
1000
,
0100
1000
0000
0001
,
0000
1001
0000
0020
,
0030
0000
0100
0000
0001
1000
0000
0000
0000
0100
0000
0000
0200
0000
0000
0000
,
0300
0000
0000
0000
0010
0100
0000
0000
0000
0010
0000
0000
1001
0000
0000
0000
,
0000
0001
0010
0001
,
0100
0010
0000
1000
,
0000
0100
0010
0100
,
0000
0100
0010
0000
0000
0000
0001
0000
,
0000
0000
0100
0000
0001
0010
0000
0000
,
0001
1000
0000
0100
,
0010
0001
0000
0100
,
0010
1000
0000
1001
,
0000
0001
0010
0000
,
0010
0001
0000
0100
,
0010
0100
0010
1000
,
0000
1000
0001
0000
0010
0000
0001
0010
,
0001
0000
0010
0001
0010
0000
0001
0000
,
0000
1000
0002
0000
0000
0000
0000
0000
,
0003
1001
0000
0000
,
1000
0100
0010
0001
,
0000
0100
0001
0100
,
1000
0100
0000
0010
,
0100
0010
0000
0100
,
0000
0100
0010
0000
0000
0000
0001
0000
,
0010
0100
1000
0010
,
0100
0000
0001
0000
1000
0000
0001
1000
,
0000
0200
0000
0000
0300
0000
0020
0000
,
0130
0010
0200
0000
0000
0000
0300
0000
,
1001
0000
0000
0000
0110
0000
0000
0000
0001
0000
1000
0001
2000
0000
0000
0000
,
3100
0010
0002
0000
0103
0010
1001
0000
,
0100
0000
0010
0100
0020
0000
0000
0000
1030
0000
0100
0000
0020
0000
0000
0000
,
0031
1000
0002
0000
1003
0000
0200
0000
,
0310
0100
0020
0000
0031
0000
0200
0000
,
0300
0000
0100
0000
0020
0000
0000
0000
1030
1000
0001
0001
0200
0000
0000
0000
,
0301
0100
0020
0000
1030
0000
2002
0000
,
3003
0000
0000
0000
0110
0000
0000
0000
1000
0001
1001
0000
0020
0000
0000
0000
,
0130
0000
0010
0000
0200
0000
0000
0000
0310
0000
0100
0000
0001
0010
0001
0000
,
0010
0000
0100
0000
1000
0000
1000
0000
0001
0000
0001
0000
1000
0010
1000
0000
,
0010
0000
0100
0000
0010
0100
0010
0000
1000
0000
0001
0000
0100
0000
0010
0100
,
0010
0000
0000
0100
0000
0000
0001
0000
0000
0000
1000
0000
0000
0000
0001
0000
0000
0000
1000
0000
0000
0000
0001
0000
,
0000
1000
0000
0200
0000
0000
0000
0000
0000
0000
0000
0000
,
0000
0000
0310
0000
0001
0100
0010
0000
,
1000
0000
0100
0000
1000
0001
1000
0001
1000
0000
0010
0000
0200
0000
0000
0000
,
0300
0000
0000
0000
0001
0100
0001
0100
0001
0000
1000
0000
0010
1000
0010
0000
,
1000
0000
0001
0000
1000
0100
1000
0100
1000
0000
0001
0000
0010
0100
0000
0000
,
0020
0032
2003
3000
,
0200
0000
0010
0310
0100
0010
0100
0010
,
0002
0000
0000
0000
2003
0000
0000
0000
3100
0010
0100
0020
0000
0000
0000
0000
,
0130
1000
0001
0100
0010
0000
0100
0000
,
0001
0000
1000
0001
0020
0000
0000
0000
,
0000
0000
0000
0000
,
0030
0000
0000
0000
;

//--------------- dance-single - 8Chasey ----------------
#NOTEDATA:;
#STEPSTYPE:dance-single;
#DESCRIPTION:8Chasey;
#DIFFICULTY:Hard;
#METER:10;
#RADARVALUES:0,0,0,0,0;
#NOTES:
0000
0000
0000
0000
,
0001
0000
0000
0001
0010
0000
0100
0000
1000
0000
0000
1000
0100
0000
0010
0000
,
0200
1300
0020
0130
0002
1003
2000
3001
,
2000
3000
0020
0030
0200
0300
0002
0003
,
1000
0010
1000
0001
0010
0001
0100
0010
,
2002
0000
0000
0000
,
0000
0000
0000
0000
0000
0000
0000
0000
0000
0000
0000
0000
0000
0000
0000
0000
0000
0000
0000
0000
0000
0000
0000
0000
0000
0000
0000
0000
0000
0000
0000
0000
0000
3003
0000
0000
0000
0000
0000
0000
0000
0000
0000
0000
0000
0000
0000
0000
0200
0000
0000
0000
0000
0000
0000
0000
0000
0000
0000
0000
0000
0000
0000
0000
,
0000
0000
0000
0000
0000
0000
0301
0000
0000
1100
0000
0000
1000
0000
0010
0000
1000
0000
0010
0000
1000
0000
0010
0000
,
0400
0000
0000
0300
0012
0000
0000
0000
0010
0000
0000
0000
0100
0000
0000
0000
,
0103
0000
2020
0000
0000
3030
0010
0000
,
0000
0000
0100
0000
0001
0010
0001
0000
,
1000
0000
2002
0000
3003
0000
0001
0100
,
0001
0100
0001
0100
0001
0100
0000
0000
,
0010
1000
0100
0010
,
0001
0010
0000
0000
0001
0000
0100
0000
,
0010
0100
0000
0000
0010
0000
1000
0000
,
0100
1000
0000
0000
0100
0000
1000
0001
,
0000
1000
0001
0000
1000
0000
2002
0000
,
3003
0000
0001
0000
0100
0010
0100
0000
,
0001
0000
0010
0000
0100
0000
1000
0100
,
1000
0100
1000
0100
1000
0100
0000
0000
,
1000
0010
0100
0010
,
1000
0010
0000
0000
0100
0000
0001
0000
,
0100
0001
0000
0000
0010
0000
0100
0000
,
0010
0100
0000
0000
1000
0000
0001
1000
,
0000
0001
1000
0000
0001
0000
2000
0000
,
3000
0000
0101
0000
0000
0100
0000
0000
,
0001
1001
1000
0200
,
0000
0000
1300
0000
0010
1000
0000
1000
,
0001
0010
0000
0002
,
0003
0000
1100
0000
0000
0100
0000
0000
,
1000
1001
0001
0100
,
0010
0100
0000
0010
0100
0000
0001
0000
,
1000
0100
0000
0010
,
0001
0010
0001
0000
0100
0000
0010
0000
,
1000
0010
1000
0000
0100
0000
1000
0000
,
1000
0000
0001
0000
0010
0001
0000
0001
,
1000
0001
0100
0010
,
1000
0000
1001
0000
0001
0100
0001
0000
,
0010
0000
0100
1000
0100
0000
1000
0000
,
0001
0000
1000
0001
1000
0000
0010
0100
,
0000
0010
0100
0000
0001
0000
0010
0001
,
0000
1100
1000
0010
,
0100
0001
1000
0200
,
0000
0000
0310
0000
0001
0010
0001
0000
,
1000
0000
0100
0000
0000
0000
1000
0010
,
0000
0101
0001
0010
,
0100
1000
0001
0100
,
0001
0010
0000
0001
0010
0000
0000
0000
,
0100
0000
0110
0000
0000
0000
0001
1000
,
0001
0101
0100
0000
,
0010
0000
1000
0010
1000
0000
0100
0000
,
0100
0000
0110
0000
0010
0000
0001
0100
,
0001
1000
0010
0200
,
0001
0001
0000
0000
1000
1000
0000
0000
,
0310
0020
0000
0000
0130
0000
1001
0000
,
0000
0001
0010
0000
0001
0000
0100
0000
,
0010
1000
0010
0000
0100
0000
0002
0000
,
2003
3020
0230
0000
,
0300
0110
0000
1010
,
0000
1000
0100
0000
1000
0000
0001
0100
,
0001
0010
0100
1000
,
0010
0100
0000
0010
0100
0000
0000
0000
,
0001
0101
0000
0110
,
0000
0010
1000
0000
0100
0000
1000
0001
,
1000
0001
0010
0200
,
2300
3002
0023
0000
,
0030
0110
0100
1000
,
0010
0000
0100
0010
0100
0000
0000
0000
,
0001
0000
0010
0001
0010
0000
0002
0000
,
0203
0320
2030
0100
,
3100
0010
0001
0202
,
0303
0000
1010
0000
1000
0000
0100
1000
,
0100
1000
0001
0020
,
0230
2300
3002
0000
,
0003
0000
0101
0000
0001
0010
1000
0000
,
0010
0110
0100
1000
,
0010
1000
0010
0000
0100
0000
0001
0000
,
0010
0100
0000
0010
0100
0000
0000
0000
,
0000
0000
1100
0000
0000
0000
1000
0001
,
0000
0010
0000
0001
,
0100
0010
0000
2000
,
3200
0320
0032
0000
,
0000
0103
0000
0010
,
1000
0100
0000
0010
,
0001
0000
0100
0000
0000
0000
0010
0100
,
0010
0200
0020
0000
,
0000
0330
0000
1020
,
0001
0000
0000
0130
0000
0001
0010
0000
0000
0021
0000
0000
,
1000
0000
0000
0130
0000
1000
0001
0000
0000
0100
0000
0100
,
0001
0000
0000
0010
0000
0100
1000
0000
0000
0100
0000
0100
,
1000
0000
0000
0010
0000
0100
0001
0000
0000
0010
0000
0010
,
0001
0000
0001
0100
0000
0100
1000
0000
1000
0100
0000
0100
,
0001
0000
0000
0000
0001
0000
0010
0000
0000
0000
0010
0000
1000
0000
0000
0000
1000
0000
0010
0001
0010
0001
0000
0000
,
0100
0010
0100
0010
0000
0000
1000
0001
1000
0001
1000
0001
4000
0000
0000
0000
0000
0000
3001
0000
0000
0000
0001
0000
,
0100
0000
0000
0010
0000
1000
0001
0000
0000
1000
0000
1000
,
0100
0000
0000
0010
0000
0001
1000
0100
1000
0100
0000
0100
,
1000
0000
0000
0010
0000
1000
0001
0000
0000
0100
0000
0100
,
0001
0000
0000
0010
0000
0001
1000
0010
1000
0010
0000
0100
,
0001
0000
0000
0010
0000
0100
1000
0000
0000
0010
0100
0010
,
0100
0000
0000
0001
1000
0001
1000
0000
0000
0200
0000
0000
,
1300
0000
0000
0020
0000
0000
0031
0000
0000
1000
0100
0010
,
0001
0000
0000
0000
0100
0000
0000
0000
0010
0000
0000
0000
2000
0000
0000
3000
0000
0000
0000
0000
0000
0000
0000
0000
0011
0000
0000
0000
0000
0000
0000
0000
0000
0000
0000
0000
0110
0000
0000
0000
0000
0000
0000
0000
0100
0000
0000
0000
,
1000
0000
0000
1001
0000
1000
0010
0000
0000
0110
0000
0100
,
0001
0000
0000
1001
0000
1000
0100
0000
0000
1100
0000
0100
,
0010
0000
0000
0110
0000
0010
0001
0000
0000
0011
0000
0001
,
1000
0000
0000
1001
0000
1000
0010
0000
0000
0101
0000
0001
,
0010
0000
0000
0110
0000
0100
1000
0000
0000
1001
0000
1000
,
0010
0000
0000
0110
0000
0100
0001
1000
0001
1000
0000
0100
,
1000
0001
1000
0001
0000
0010
0001
0100
0010
1000
0100
0020
,
0000
0030
0000
0001
0010
0000
1100
0000
0000
1000
0010
0000
,
0101
0000
0000
0001
0000
0010
0100
0000
0010
0100
0000
0010
,
0100
0000
1000
0100
0010
0000
0011
0000
0000
0100
0010
0000
,
1010
0000
0000
1000
0000
0001
1000
0000
0001
1000
0000
0001
,
1000
0000
0001
0010
0100
0000
1100
0000
0000
0010
0100
0000
,
0101
0000
0000
1000
0000
0010
0100
0000
0010
0100
0000
0010
,
0100
0000
0010
0100
0001
0100
0001
0000
0010
0100
1000
0100
,
1000
0000
0001
0010
0100
0010
0100
0000
1000
0010
0100
0010
,
0100
0000
0001
0010
0000
0000
2100
0000
0000
3001
0000
0001
,
1000
0000
1000
0010
0000
0000
0102
0000
0000
1003
0000
1000
,
0001
0000
0001
0100
0000
0000
0110
0000
0000
0010
1000
0010
,
1000
0000
0000
0100
0000
0000
0110
0000
0000
0010
0001
0010
,
0001
0000
0100
0010
0000
0000
1100
0000
0000
0010
0000
0000
,
0101
0000
0000
0001
0010
0000
0110
0000
0000
1000
0100
0000
,
0110
0000
0000
0010
0001
0010
0001
0000
0000
0100
1000
0100
,
1000
0000
0000
0100
0010
0100
0010
0100
0010
0400
0000
0000
,
0301
0000
0000
1001
0000
0000
1000
0010
1000
0010
0000
0000
,
1000
0000
0000
1001
0000
0000
0001
0100
0001
0100
0000
0000
,
0010
0000
0000
0110
0000
0000
0100
0001
0100
0001
0000
0000
,
0010
0000
0000
0110
0000
0000
0100
1000
0100
1000
0000
0000
,
0010
0000
1000
0010
0000
0010
0100
0000
0001
0100
0000
0100
,
0001
0000
0010
0001
0000
0001
1000
0000
0100
1000
0000
1000
,
0010
0100
0010
0100
0000
0000
0001
1000
0001
1000
0000
0000
,
1000
0100
0010
0001
0000
0000
0001
0100
0010
1000
0000
0000
,
0002
0100
1000
0100
1000
0100
1000
0100
,
2003
0100
0001
0100
0001
0100
0001
0100
,
3001
0000
0000
0011
0000
0011
0000
0000
1000
0000
0000
1100
0000
1100
0000
0000
,
0010
0000
0000
0110
0000
0110
0000
0000
0100
0000
0000
1001
0000
1001
0000
0000
,
0002
0000
0103
0010
0000
1000
1100
0000
,
2000
0000
3010
0100
0000
0001
0011
0000
,
0010
0000
0100
0000
1000
0000
0010
1000
0010
0000
0100
0000
0001
0000
1000
0000
,
0010
0000
0100
0000
0001
0000
0010
0001
0010
0000
0100
0000
1000
0000
0001
0000
,
0100
0000
0001
0010
0001
0000
0000
0000
1000
0000
0010
1000
0010
0000
1000
0000
,
0100
0000
1000
0010
1000
0000
0000
0000
0001
0000
0010
0001
0010
0000
0100
0000
,
1000
0000
0010
0001
0010
0000
1000
0000
,
0001
0000
0100
1000
0100
0000
0001
0000
,
1000
0000
0001
0010
0100
0000
1000
0000
,
2002
0000
0000
0000
,
0000
0000
3003
0000
,
0001
0000
0000
0000
0010
0000
0100
1000
0100
0000
1000
0000
0001
0000
0100
0000
,
0010
0000
0010
0000
1000
0000
0001
0100
0001
0000
0100
0000
0010
0000
1000
0000
,
0001
0010
0001
1000
0010
0100
0001
0010
,
0100
1000
0010
0100
0001
1000
0100
0010
,
0001
1000
0001
1000
0001
1000
0001
1000
,
0001
1000
0001
1000
0001
1000
0010
0100
,
0020
0030
0000
0000
1000
0100
1000
0000
0001
0000
0100
0000
0110
0000
0010
0000
,
1000
0000
0100
0000
1000
0000
0001
0100
0001
0000
0000
0001
0010
0000
0100
0000
,
0010
0000
0000
0000
0001
0000
0100
0010
0100
0000
0001
0000
1000
0000
0100
1000
,
0100
0000
1000
0000
1001
0000
0001
0010
0100
0000
0010
0000
0220
0000
0330
0000
,
1001
0000
0000
1000
0010
0000
1000
0100
1000
0000
0001
0000
0011
0000
0010
0000
,
0100
0000
0100
0000
1000
0000
0010
1000
0010
0000
0100
0000
0001
0000
0001
0000
,
0010
0001
0100
0010
1000
0001
0010
0001
,
1000
0010
1000
0001
1000
0010
0100
0001
,
0010
0100
0010
0100
0010
0100
0010
0100
,
0010
0100
0010
0100
0010
0100
1000
0001
,
1000
0000
0000
0000
0100
0000
1000
0001
1000
0000
0001
0000
1001
0000
1000
0000
,
0010
0000
0100
0001
0100
0000
0001
0000
1000
0000
0000
1000
0100
0000
0000
0000
,
0010
0000
0000
0010
0001
0000
0000
0001
0100
0000
0000
0100
1000
0000
0000
1000
,
0100
0000
0010
0100
0010
0000
2000
0000
0002
0000
3003
0000
0220
0000
0000
0000
,
0330
0000
2000
0000
0001
0001
0000
0000
0000
3100
0000
0000
0020
0000
1000
0000
,
0000
0000
0001
0000
0000
0000
1000
0000
0000
0000
0031
0100
0110
0000
0000
0000
,
0000
0000
1010
0000
1000
0100
0001
0000
,
0100
1000
0010
0100
,
0001
0000
0010
0000
0001
0100
1000
0000
,
0000
0100
0010
0000
1000
0000
1001
0000
,
0000
0000
0101
0000
0001
0010
1000
0000
,
0010
0001
0100
0010
,
1000
0000
0100
0000
1000
0010
0001
0000
,
0010
0100
0001
2002
,
3003
0000
0020
0000
0100
0100
0000
0000
0000
0130
0000
0000
2000
0000
0000
0000
,
0010
0000
0000
0000
0001
0001
0000
0000
0000
3001
0000
0000
0011
0000
0000
0000
,
0000
0000
1100
0000
1000
0010
0100
0000
,
0100
0000
0001
0000
0010
0001
0010
0000
,
0001
0000
1000
0000
0001
0010
0100
0000
,
0000
0100
1000
0000
0001
0000
0101
0000
,
0000
0000
1010
0000
1000
0100
0010
0000
,
0100
0010
0001
0100
,
1000
0000
0100
0000
0001
0010
0100
0000
,
0000
0110
0000
1001
,
1000
0000
0001
0000
0010
0001
0010
0000
,
0001
0000
0100
0001
0100
0000
0001
0000
,
1000
0000
1000
0000
0010
1000
0010
0000
,
1000
0000
0100
1000
0100
0000
0010
0100
,
0010
0100
0010
0100
0010
0000
0100
1000
,
0000
0100
2000
0000
0000
0000
0000
0000
,
3000
0000
0001
0100
0000
0000
0000
0000
,
0100
0110
0010
1000
,
0100
0000
0010
0100
0010
0000
0001
0000
,
0100
0000
0010
0000
1000
0000
0100
1000
,
0100
0000
1000
0000
0001
0000
0010
0001
,
0000
0010
0001
0000
1000
0000
0010
0100
,
0010
0100
0010
0100
0010
0100
0001
1000
,
0001
1000
0001
1000
0001
1000
0100
0010
,
0000
0000
0000
0000
0011
0000
0000
0000
0000
0000
0000
1100
0000
0000
0000
0000
0000
0000
0000
0000
0000
0000
0000
0000
2002
0000
0000
0000
3003
0000
0000
0000
,
0002
0000
0000
0000
0000
0000
0000
0000
0010
0000
0000
0013
0000
0000
0100
0000
2000
0000
0000
0000
0000
0000
0000
0000
0000
0000
0000
0000
0000
0000
0000
0000
0000
0000
0000
0000
0000
0000
0000
0000
0000
0000
0000
0000
0000
0000
0000
0000
0000
0000
0000
0000
0000
0000
0000
0000
3000
0000
0000
0000
0000
0000
0000
0000
,
2002
0000
0000
0000
3003
0000
0000
0000
0000
0000
0000
0000
0000
0000
0000
0000
0110
0000
0000
0000
0000
0000
0000
0000
0000
0000
0100
0000
0000
0000
0001
0000
2000
0000
0000
0000
0000
0000
0000
0000
0010
0000
0000
3010
0000
0000
0100
0000
0002
0000
0000
0000
0000
0000
0000
0000
0000
0000
0000
0000
0000
0000
0000
0000
,
0013
0000
0000
0000
0000
0100
0000
0000
0000
0000
0010
0000
0000
0000
0000
0000
0200
0000
0000
0000
0300
0000
0000
0000
0000
0000
0100
0000
0000
0000
0000
0000
0010
0000
0000
0000
0000
0000
0000
0000
0001
0000
0000
1000
0000
0000
0000
0000
2200
0000
0000
0000
0000
0000
0000
0000
0000
0000
0000
0000
3300
0000
0000
0000
,
0011
0000
0000
0000
0000
0000
0000
0000
0001
0000
0000
0001
0000
0000
0100
0000
0002
0000
0000
0000
0000
0000
0000
0000
0000
0000
0000
0000
0000
0000
0000
0000
2003
0000
0000
0000
0000
0100
0000
0000
0000
0000
3100
0000
0000
0000
0000
0000
0020
0000
0000
0000
0000
0000
0000
0000
0000
0000
0100
0000
0000
0000
0000
0000
,
0000
0000
0000
0000
0000
0000
0000
0000
0100
0000
0000
0130
0000
0000
0000
0000
2000
0000
0000
0000
0000
0000
0000
0000
0000
0000
0000
0000
0000
0000
0000
0000
3001
0000
0000
0000
0000
0000
0000
0000
0000
0000
0000
0000
0000
0000
0000
0000
0220
0000
0000
0000
0000
0000
0000
0000
0330
0000
0000
0000
0000
0000
0000
0000
,
1001
0000
0000
0000
0000
0000
0000
0000
0001
0000
0000
1000
0000
0000
0001
0000
0020
0000
0000
0000
0000
0000
0000
0000
0000
0000
0000
0000
0000
0000
0000
0000
0130
0000
0000
0000
0000
1000
0000
0000
0000
0000
0001
0000
1000
0000
0000
0000
0002
0000
0000
0000
0000
0000
0000
0000
0000
0000
0010
0000
0000
0000
0000
0000
,
0000
0000
0000
0000
0000
0000
0000
0000
1000
0000
0000
1003
0000
0000
0000
0000
2200
0000
0000
0000
0000
0000
0000
0000
3300
0000
0000
0000
0000
0000
0000
0000
0011
0000
0000
0000
0001
0000
0000
0000
0100
0000
0010
0000
0100
0000
0010
0000
0200
0000
0000
0000
0000
0000
0000
0000
0000
0000
0000
0000
0000
0000
0000
0000
,
0301
0000
0000
0000
0000
0000
0000
0000
0010
0000
0000
0010
0000
0000
0001
0000
2000
0000
0000
0000
0000
0000
0000
0000
0000
0000
0000
0000
0000
0000
0000
0000
3100
0000
0000
0000
0000
1000
0000
0000
0000
0000
1000
0000
0000
0000
0000
0000
0020
0000
0000
0000
0000
0000
0000
0000
0000
0000
0100
0000
0000
0000
0000
0000
,
0000
0000
0000
0000
0000
0000
0000
0000
0100
0000
0000
0130
0000
0000
0000
0000
0202
0000
0000
0000
0000
0000
0000
0000
0303
0000
0000
0000
0000
0000
0000
0000
1000
0000
0010
0000
0100
0000
0001
0000
0040
0000
0130
0000
0000
0000
0000
0000
1000
0000
0000
0000
0000
0000
1000
0000
0000
0000
0000
0000
1000
0000
0000
0000
,
0010
0000
1000
0000
0100
0000
1000
0000
0001
0000
0000
0001
0000
0000
0001
0000
0010
0000
0001
0000
0100
0000
0001
0000
0010
0000
0100
0000
0010
0000
0100
0000
,
1000
0000
0100
0000
0010
0000
0100
0000
2000
0000
0000
0000
0000
0001
0000
0000
0000
0000
3001
0000
0000
0000
0000
0000
0010
0000
0001
0000
0100
0000
0010
0000
,
1000
0100
0010
0100
1000
0001
1000
0001
0010
0100
0010
0100
1000
0010
0100
0001
,
0010
0000
0000
0100
0000
0000
1000
0000
0000
0001
0000
0000
0010
0000
0000
0000
0000
0000
0000
0000
0100
0000
0000
0000
0000
0000
0000
0000
0010
0000
0000
0000
0000
0000
0000
0000
0100
0000
0000
0000
0000
0000
0000
0000
0010
0000
0000
0000
,
0000
0000
0100
0000
0000
0000
1000
0000
0000
0010
0000
0000
1000
0000
0000
0001
0000
0000
0100
0000
0000
0001
0000
0000
,
0010
0000
0000
0000
0100
0000
0000
0000
0001
0000
0000
0001
0000
0000
0001
0000
0010
0000
0001
0000
0100
0000
0001
0000
1000
0000
0000
1000
0000
0000
1000
0000
,
0010
0000
1000
0000
0100
0000
1000
0001
1000
0000
0100
0000
0010
0000
0001
0000
0100
0000
0010
0000
0100
0001
0100
0001
0010
0100
0010
0100
1000
0000
0000
0000
,
0000
0001
0000
0000
0100
0001
0010
0100
1000
0010
0100
0010
1000
0100
0010
0001
,
0100
0000
0000
0100
0000
0000
0010
0000
0100
0000
0001
0000
0010
0000
0100
0000
1000
0000
0010
0000
0100
0000
0010
0000
2000
0000
3002
0000
0203
0000
0000
0000
,
0310
0000
0000
0000
0000
0000
0000
0000
0000
0000
1000
0000
0000
0010
0000
0000
2000
0000
0000
0000
0000
0000
0000
0000
3100
0000
0000
0000
0000
0000
0010
0000
0001
0000
0000
0000
0100
0000
0000
0000
0010
0000
0000
0000
0100
0000
0010
0000
0100
0000
0010
0000
0100
0000
0000
0000
0020
0000
0000
0000
0000
0000
0000
0000
,
1030
0001
0100
0010
1000
0100
0010
0001
0100
0010
1000
0001
0010
0100
1000
0001
,
0200
0000
0310
0100
0002
0000
1003
0001
0010
0100
2000
0002
0000
0000
3003
0000
,
0010
0001
0100
0001
1000
0100
1000
0000
0010
1000
0100
1000
0001
1000
0001
0000
,
0020
0000
0000
0000
0030
0000
0100
0000
0100
0000
0000
0000
1000
0000
0001
0000
1000
0000
0000
0010
0000
0000
0100
0000
0002
0000
0000
0000
0000
0000
0000
0000
,
2000
0000
0000
0000
,
3003
0000
0000
0000
0000
0000
0000
0000
0000
0000
0000
0000
0000
0000
0000
0000
0000
0000
0000
0000
0000
0000
0000
0000
0000
0000
0000
0000
0000
0001
0000
1000
0000
0000
0000
0000
0000
0000
0000
0000
0000
0000
0000
0000
0000
0000
0000
0000
0000
0000
0000
0000
0000
0000
0000
0000
0000
0000
0000
0000
0000
0000
0000
0000
,
0000
0000
0000
0000
0000
0000
0000
0000
0000
0100
0000
0000
0000
0000
0000
0000
0000
0000
0000
0000
1000
0000
0000
0000
0100
0000
0000
0000
0000
0000
1000
0000
0000
0000
0000
0000
0001
0000
0000
0000
0000
0000
0000
0000
0000
0000
0000
0000
0000
0000
0000
0000
0000
0000
0000
0000
0000
0000
0000
0000
0000
0000
0000
0000
0000
0000
0000
0000
0000
0000
0000
0000
0000
0000
0000
0000
0000
0000
0000
0000
0000
0000
0000
0000
0000
0000
0000
0000
0000
0000
0000
0000
0000
0000
0000
0000
0000
0000
0000
0000
0000
0000
0000
0000
0000
0000
0000
0000
0000
0000
0000
0000
0000
0000
0000
0000
0000
0000
0000
0000
0010
0000
0000
0000
0000
0000
0000
0000
0001
0000
0000
0000
0000
0000
0000
0000
0000
0000
1000
0000
0000
0000
0000
0000
0000
0000
0000
0000
0000
0000
0001
0000
0000
0000
0000
0000
0000
0000
0000
0000
0000
0000
0000
0000
0000
0000
0000
0000
0000
0000
0000
0000
0000
0000
0000
0000
0000
0000
0000
0000
0000
0000
0000
0000
0000
0000
0000
0000
0000
0000
0000
0000
,
0000
0000
0000
0000
0000
0000
0000
0000
0000
0000
0000
0000
0000
0000
0000
0100
0000
0020
0000
0000
0000
0030
0000
0000
0000
0000
0000
0000
0000
0000
0000
0000
0000
0000
0000
0000
0000
0000
0000
0000
0000
0000
0000
0000
0000
0000
0000
0000
0000
0000
0000
0000
0000
0000
0000
0000
0000
0000
0000
0000
0000
0000
0000
0000
;

//--------------- dance-double - 8Chasey ----------------
#NOTEDATA:;
#STEPSTYPE:dance-double;
#DESCRIPTION:8Chasey;
#DIFFICULTY:Easy;
#METER:9;
#RADARVALUES:0,0,0,0,0;
#NOTES:
00000000
00000000
00000000
00000000
,
00010000
00010010
00001000
01001000
,
00100000
00100000
01000000
01000000
,
10000000
00010000
10000000
00010000
,
02000000
03000000
00200000
00300000
,
00022000
00000000
00000000
00000000
,
00033000
00000000
00000000
00002000
,
00000000
00000000
00023000
00030000
00000020
00000000
00000100
00000000
,
00000130
00000002
00000000
00001003
,
00000000
00022000
00033000
00010000
,
00000000
00001000
00000000
00100000
,
00010000
00100000
00000000
01000000
,
00100000
01000000
00000000
10000000
,
00000000
10010000
00000000
01000000
,
00000000
01000000
00000000
00100000
,
00000000
00100000
00000000
10000000
,
00000000
00010000
00000000
00100000
,
01000000
00100000
00000000
00011000
,
00000000
00010000
00000000
00000100
,
00000010
00000100
00000000
00001000
,
00000000
00000010
00000000
00001000
,
00000001
00001000
00000000
00001001
,
00000000
00000001
00000000
00000100
,
00000010
00000100
00000000
00000010
,
00001000
00000010
00000000
00010000
,
00000000
00001000
00000000
01000000
,
00000000
01100000
00000000
00000000
,
00100000
10000000
00000000
00010000
,
00000000
10000000
00000000
00000000
,
00000000
11000000
00000000
01000000
,
00000000
01100000
00000000
00000000
,
00100000
00001000
00000000
00010000
,
00000000
00010000
00000000
00000000
00020000
00000000
00000000
00000000
,
00030000
00000010
00000000
00000100
,
00000000
00000110
00000000
00000000
,
00000010
00001000
00000000
00000100
,
00000000
00010000
00000000
00000000
,
00010000
00100000
00000000
10000000
,
00000000
01000000
00100000
00000000
,
01000000
00100000
00000000
00001000
,
00010000
00001000
00000000
00010000
,
00000000
00000100
00000000
00000010
,
00000000
00001001
00000000
00000000
,
00000001
00000010
00000000
00000100
,
00000000
00010000
00000000
00000000
,
00010000
00001000
00000000
00100000
,
00000000
01100000
00000000
00000000
,
01000000
10000000
00000000
00010000
,
00000000
00010000
00000000
00000000
00020000
00000000
00000000
00000000
,
00030000
01000000
00000000
00100000
,
00000000
01100000
00000000
00000000
,
01000000
00001000
00000000
00010000
,
00000000
00000100
00000000
00000010
,
00000100
00000010
00000000
00000002
,
00000100
00000000
00000100
00000000
,
00000103
00000000
00010010
00101000
,
00000000
01100000
00000000
00000000
,
10000000
01000000
00010000
00002000
,
00000000
00103000
00000000
00000000
,
01000000
00100000
00000000
00001000
,
00000000
00011000
00000000
00000000
,
00010000
00000010
00000000
00000100
,
00000000
00000100
00000000
00000000
00000100
00000000
00000000
00000000
,
00000000
00000001
00000000
00001010
,
00000000
00011000
00000000
00000000
,
00010000
00000100
00000000
00000011
,
00000000
00000101
00000000
00000000
,
00000100
00001000
00000000
00100000
,
00010000
00100000
00000000
01000000
,
10000000
01000000
00000000
10000000
,
00010000
10000000
00010000
01000000
,
00100000
01000000
00000000
01001000
,
00000000
00011000
00000000
00000000
,
00010000
00000010
00000000
00001000
,
00000000
00000001
00000000
00000000
,
00000001
00000010
00000000
00000100
,
00000000
00010100
00000000
00000000
,
00010000
00100000
00000000
01000000
,
00000000
01000000
00000000
00000000
01000000
00000000
00000000
00000000
,
00000000
01100000
00000000
00010000
,
00000000
00010000
00000000
10000000
,
00000000
10000000
00000000
00001000
,
00010000
00001000
00020000
00000000
,
00000000
00030000
00000000
00000100
,
00000000
00000010
00000000
00000010
,
00000000
00000100
00000000
00001000
,
00000001
00001000
00000002
00000000
,
00000000
00000003
00000000
00001001
,
00000000
00000001
00000010
00000001
,
00000000
00000100
00000010
00000100
,
00000000
00001000
00010000
00001000
,
00000000
00100000
01000000
01100000
,
00000000
10000000
00100000
01000000
,
00010000
00100000
01000000
20000000
,
30020000
00230000
01300000
00010000
,
00001000
00010000
00000000
00001000
,
00010000
00001000
00001000
00000010
,
00000100
00000010
00000000
00000100
,
00000010
00000100
00000100
00010000
,
00001000
00010000
00000000
01000000
,
10000000
01000000
00000000
00100000
,
00100000
01000000
01000000
10000000
,
00010000
10010000
00020000
00130000
,
00002000
01003000
00020000
10030000
,
01000000
01100000
00200000
00301000
,
00020000
00030010
00002000
00003100
,
00000010
00000110
00001000
00001000
,
00000100
00000100
00010000
00010000
,
00100000
00100000
10000000
01000000
,
00010000
00001000
00000200
00000020
,
00000330
00001000
00000100
00001000
,
00000100
00000000
00000000
00000000
00000000
00010000
00000000
00000000
00010000
00000000
00000000
00010000
,
00000000
00000000
00010000
00001000
00000000
00000000
01000000
00000000
00000000
00001000
00000000
00000000
,
01000000
00000000
00000000
00000000
00000000
00100000
00000000
00000000
00100000
00000000
00000000
00100000
,
00000000
00000000
00100000
01000000
00000000
00000000
00100000
00000000
00000000
01000000
00000000
00000000
,
00100000
00000000
00000000
00000000
00000000
10000000
00000000
00000000
10000000
00000000
00000000
00010000
,
00000000
00000000
00010000
00000000
00000000
00000000
00110000
00000000
00000000
00000000
00000000
00000000
,
00011000
00000000
00001010
00000000
,
00000110
00000100
00000001
00000100
,
00000100
00000010
00001000
00000001
,
00001000
00000100
00010000
00001000
,
00001000
00100000
00010000
01000000
,
00100000
10000000
00010000
10000000
,
00000000
00010000
10000000
00010000
,
00000000
00100000
00010000
01000000
,
10000000
00000000
00000000
01000000
00100000
01000000
00100000
00000000
00000000
02000000
00000000
00000000
,
03001000
00010000
00000100
00000010
,
00000001
00001001
00001000
00001010
,
00000010
00000100
00001000
00010000
,
01000000
01100000
00100000
00110000
,
00010000
00100000
10000000
00100000
,
00001000
00010000
00001000
00000100
,
00000001
00000000
00000001
00001000
00000000
00000000
00000100
00000000
00000100
00000010
00000000
00000000
,
00000001
00001001
00001000
00000100
,
00020000
00000000
00001000
00000000
00000100
00000000
00031000
00001000
,
00002000
00000000
00010000
00000000
01000000
00000000
00013000
00010000
,
00010000
00000000
00000000
00001000
00000000
00000000
00000000
00000000
00010000
00000000
00000000
00001000
00000000
00000000
00000000
00000000
,
00001000
00000000
00000000
00010000
00000000
00000000
00000000
00000000
00001000
00000000
00000000
00010000
00000000
00000000
00000000
00000000
,
00000010
00000000
00000000
00001000
00000000
00001000
00000000
00000000
,
00000001
00000000
00000000
00001000
00000000
00001000
00000000
00000100
,
00010000
00000000
00000000
00001000
00000000
00001000
00000000
00000000
,
00100000
00000000
00000000
00001000
00000000
00001000
00000000
01000000
,
00100000
00100000
01000000
01000000
,
00010000
00100000
01000000
10000000
,
00100000
10000000
00100000
00100000
,
01000000
00010000
01000000
01000000
,
00001000
00010000
00001000
00010000
,
00000020
00000000
00000000
00000000
,
00000000
00000000
00000030
00000000
,
00000100
00000000
00000001
00000010
00000001
00000000
00000010
00000000
,
00001000
00000000
00010000
00001000
00010000
00000000
00100000
00000000
,
02000000
00000000
00000000
00000000
,
00000000
00000000
00000000
00000000
,
03200000
00000000
00000000
00000000
,
00000000
00000000
00000000
01300000
,
00001000
00000000
00100000
00001000
00100000
00000000
01100000
00000000
,
01000000
00000000
10000000
00010000
10000000
00000000
10010000
00000000
,
00010000
00000000
00100000
00001000
00100000
00000000
00010100
00000000
,
00000200
00000020
00000330
00001001
,
00000001
00000000
00000100
00000010
00000000
00001000
00000100
00000000
,
00010000
00000000
00001000
00100000
00000000
01000000
10000000
00000000
,
00020000
00000000
00000000
00000000
,
00000000
00000000
00000000
00000000
,
20030000
00000000
00000000
00000000
,
00000000
00000000
00000000
30010000
,
10000000
00000000
11000000
00000000
01000000
00100000
00001000
00000000
,
00010000
00000010
00001000
00000100
00001000
00000000
00000001
00000000
,
00000100
00000110
00000010
00001001
,
00001000
00000000
00000100
00000000
00020000
00030000
00002000
00000000
,
00003000
00000000
00000000
00000000
00001000
00010000
00000000
00000000
00000000
00000000
00000000
00000000
00000000
00000000
10000000
00000000
,
00000000
10000000
00000000
10000000
00000000
10000000
00010000
00000000
,
00000000
00100000
00001000
00000000
,
00001000
00000100
00000000
00000001
,
00000010
00000100
00000000
00001000
,
00000100
00001000
00000000
00000010
,
00000100
00000001
00000010
00001000
,
00010000
00001000
00000000
01000000
,
00000000
00100000
10000000
00000000
,
10000000
01000000
00000000
00020000
,
00030000
00000000
00000000
00000000
00010000
00001000
00000000
00000000
00000000
00000000
00000000
00000000
00000010
00000000
00000000
00000000
,
00000000
00000000
00000000
00000000
00000001
00001000
00000000
00000000
00000000
00000000
00000000
00000000
00001001
00000000
00000000
00000000
,
00000000
00001000
00000000
00000100
,
00000010
00000100
00000000
00001000
,
00000000
00000001
00000100
00000000
,
00000010
00000100
00000000
00000001
,
00000010
00000001
00000100
00001000
,
00010000
00001000
00000000
00000000
,
00000000
00110000
00000000
00000000
,
00000000
11000000
00000000
10010000
,
00000000
10000000
00000000
00100000
,
01000000
00100000
00000000
01000000
,
00000000
00001000
00000000
00010000
,
00001000
00010000
00001000
01000000
,
00100000
01000000
00100000
10000000
,
00010000
20000000
00000000
00000000
,
30000000
10010000
00000000
00010000
,
00000000
00100000
00000000
00001000
,
00010000
00001000
00010000
00001000
,
00010000
00000100
00000010
00000100
,
00000000
00001000
00000010
00000100
,
00000000
00000110
00000000
00000100
,
00000010
00000100
00000010
00000100
,
00000010
00000100
00000000
00000001
,
00000000
00001000
00000000
00000000
00000000
00000000
00000200
00000000
,
00000310
00000020
00000000
00000030
,
00000001
00000000
00010000
00000000
00001000
00010000
00001000
00000000
,
00100000
00010000
01000000
01100000
,
00100000
10000000
00100000
00000000
10000000
00000000
02000000
00000000
,
03000000
00100000
01000000
00000000
00010000
00000000
00011000
00000000
,
00001000
00010000
00001000
00000000
01000000
00000000
00200000
00000000
,
00300000
00000000
00000000
00000000
10000000
00000000
00000000
00000000
00010000
10000000
00010000
00000000
00100000
00000000
00000000
00000000
,
00001000
00011000
00010000
00000010
,
00000100
00000000
00000000
00000000
00000001
00000000
00000000
00000000
00001000
00000001
00001000
00000000
00000200
00000000
00000000
00000000
,
00000300
00000000
00010000
00000000
00001000
00010000
00002000
00000000
,
00003000
00000000
00100000
00000000
01100000
00000000
01000000
10000000
,
01000000
00000000
00100000
00010000
00100000
00000000
00001000
00000000
,
00010000
00000020
00000000
00000000
,
00000000
00000030
00000000
00000000
,
00000000
00002000
00003000
00000100
,
00010000
00001000
00020000
00000000
00030000
00000000
00100000
00000000
,
01000000
00000000
00010000
00100000
00010000
00000000
10000000
01000000
,
10000000
00000000
00100000
01000000
00100000
01000000
00100000
00000000
,
20000000
30010000
00100000
00100000
,
01000000
00000000
10000000
00000000
00001000
00010000
00001000
00010000
,
00002000
00013000
00000010
00000010
,
00000100
00000001
00000020
00000030
,
00000200
00000300
00020000
00000000
,
00000000
00000000
00000000
00000000
,
00030000
00000000
00000000
00000000
;
