#TITLE:8月のサヨナラ;
#SUBTITLE:;
#ARTIST:apresmidi;
#TITLETRANSLIT:August Goodbye;
#SUBTITLETRANSLIT:;
#ARTISTTRANSLIT:;
#GENRE:Lovely;
#CREDIT:;
#MUSIC:August Goodbye.mp3;
#BANNER:August Goodbye-bn.png;
#BACKGROUND:August Goodbye-bg.png;
#CDTITLE:;
#SAMPLESTART:44.020;
#SAMPLELENGTH:12.000;
#SELECTABLE:YES;
#OFFSET:-0.808;
#BPMS:0.000=108.000;
#STOPS:;
#DISPLAYBPM:108.000;
#BGCHANGES:;
#FGCHANGES:;

//--------------- dance-single - 8Chasey ----------------
#NOTES:
     dance-single:
     8Chasey:
     Beginner:
     1:
     0,0,0,0,0:
0000
0000
0000
0000
,
0000
0000
0000
0000
,
1000
1000
0000
0000
,
0001
0001
0000
0000
,
1000
0000
0001
0000
,
1000
0000
0000
0000
,
0001
0000
1000
0000
,
0001
0000
0000
0000
,
1000
1000
1000
0000
,
0010
0000
0000
0000
,
0001
0001
0001
0000
,
0100
0000
0000
0000
,
0001
0000
0000
0000
,
0010
0000
0000
0000
,
1000
0000
0000
0000
,
0100
0000
0000
0000
,
1001
0000
0000
0000
,
0110
0000
0000
0000
,
1001
0000
0000
0000
,
0000
0000
0000
0000
,
0001
0001
0001
0000
,
1000
0000
0001
0000
,
1000
1000
1000
0000
,
0010
0010
0000
0010
,
0000
0100
0000
0100
,
0000
0001
0001
0001
,
0001
0000
0000
0000
,
1000
0000
0000
0000
,
0010
0000
0000
0000
,
1000
0000
0000
0000
,
0010
0000
0000
0000
,
0100
0000
0001
0000
,
0100
0000
0000
0000
,
0001
0000
1000
0000
,
0001
0000
0000
0000
,
1000
0000
0001
0000
,
1000
0000
0000
0000
,
0100
0100
0100
0100
,
0000
0000
0000
0000
,
0010
0010
0010
0010
;

//--------------- dance-single - 8Chasey ----------------
#NOTES:
     dance-single:
     8Chasey:
     Easy:
     3:
     0,0,0,0,0:
0000
0000
0000
0000
,
0000
0000
0000
0000
,
0001
1001
0000
0001
,
1000
1001
0000
1000
,
0001
1000
0001
0000
,
1000
0001
1000
0000
,
0010
1000
0100
0000
,
0010
0001
0100
0000
,
0010
0010
0100
0010
,
1000
0001
1000
0001
,
0010
0001
1000
0000
,
0010
1000
0001
0000
,
0110
0000
0001
0000
,
1000
0001
1000
0000
,
1001
0000
1000
0000
,
0001
1000
0001
0000
,
1001
0000
0000
0000
,
0110
0000
0000
0000
,
1001
0000
0000
0000
,
0000
0000
0000
0000
,
0001
1000
0010
0000
,
1000
0001
0100
0010
,
0100
0000
0010
0000
,
1000
0001
0000
1001
,
0010
1000
0001
0000
,
0100
0001
1000
0000
,
0100
1000
0001
0000
,
0110
0000
0000
0000
,
0001
0001
0001
0001
,
1000
1000
1000
1000
,
0010
0010
0100
0100
,
0001
0010
0100
1000
,
0001
0100
0010
0000
,
1000
1000
0100
0000
,
1000
0100
0010
0000
,
0100
0010
0100
0010
,
0001
0100
0001
0000
,
0100
0001
1000
0010
,
1000
0100
1000
0000
,
0001
1000
0010
0110
;

//--------------- dance-single - 8Chasey ----------------
#NOTES:
     dance-single:
     8Chasey:
     Medium:
     5:
     0,0,0,0,0:
0000
0000
0000
0000
,
0000
0000
0000
0000
,
0001
0000
1001
0000
0000
1000
0001
0000
,
1000
0000
0110
0000
0000
0010
0100
0000
,
0001
0000
0100
0001
0000
0000
1000
0000
,
0010
0000
1000
0100
0000
0000
1000
0000
,
0010
0000
1000
0000
0010
1000
0010
0000
,
0100
0000
0001
0000
0100
0001
0010
0000
,
0100
1000
0010
0000
0100
0010
0100
0000
,
0001
1000
0100
0010
,
0001
0010
0001
0000
1000
0000
0010
0000
,
0100
0010
1000
0000
0010
0000
0010
0000
,
0110
0000
0100
0000
0001
0000
1000
0001
,
0000
1000
0000
0100
0000
0010
0000
0000
,
0110
0000
0100
0000
0010
0000
0001
1000
,
0000
0100
0000
0001
0000
0100
0000
0000
,
0010
0011
0000
0001
,
1000
0000
0010
1000
0000
0010
1000
0000
,
0001
0000
0100
0000
0001
0000
1000
0001
,
0000
0000
0000
0000
0100
0100
0001
0000
,
1001
1000
0010
0000
,
1000
0100
1000
0000
0001
0000
0010
0000
,
0100
0100
0010
0100
,
1000
0100
0001
0100
0000
0010
0001
0000
,
1001
1000
0001
0100
,
0001
0010
0001
0000
1000
0000
0100
0000
,
1000
0000
0001
0000
0010
0001
0100
0000
,
0110
0000
0000
0000
,
0101
0001
1000
0001
,
1000
0010
1000
0000
0100
0000
1000
0000
,
1100
1000
0001
1000
,
0001
0010
0001
0000
0100
0000
0001
0000
,
1000
1000
0010
0000
1000
0000
0100
0010
,
0100
0000
0010
0000
0001
1000
0010
0000
,
1001
0000
0100
0000
0010
1000
0010
0000
,
0100
0001
1000
1010
,
0011
0000
0100
0000
0001
0000
1000
0010
,
0100
0000
0001
0000
1000
0100
0010
0000
,
0110
0000
0100
0000
1000
0010
1000
0000
,
0100
1000
0001
0101
;

//--------------- dance-single - 8Chasey ----------------
#NOTES:
     dance-single:
     8Chasey:
     Hard:
     7:
     0,0,0,0,0:
0000
0000
0000
0000
,
0000
0000
0000
0000
,
0001
1000
1001
0000
0000
1000
0001
1000
,
0100
0010
0110
0000
0000
0001
1000
1000
,
0100
1000
0100
1000
0000
0010
1000
0001
,
0100
0001
0100
0001
0000
0010
0100
0000
,
0010
0000
0001
0010
0001
0000
0000
0000
1000
0010
1000
0000
0000
0000
0100
0000
,
0100
0000
1000
0100
1000
0000
0000
0000
0001
0100
0001
0000
0000
0000
1000
0000
,
0010
1000
1000
0001
0001
0100
0010
0100
,
0000
0010
0000
1001
0000
1001
1000
0001
,
1000
0000
0010
1000
0010
0000
0000
0000
0100
0001
0100
0000
0000
0000
0100
0000
,
0001
0000
0010
0001
0010
0000
0000
0000
0100
1000
0100
0000
1000
0000
0001
0000
,
0100
0001
0010
0001
1000
0000
0010
1010
,
0000
0100
0000
0001
0000
0010
0000
0000
,
0001
0001
1000
0001
0010
0000
0001
0011
,
0000
0100
0000
0001
0000
0010
0000
0000
,
0100
0000
1100
0000
1000
0001
1000
0001
,
0010
0000
0001
0100
0000
0001
0100
0000
,
1001
0000
1000
0000
0001
0000
0100
0001
,
0000
0000
0000
0000
0100
0100
0001
0000
,
1000
0000
0010
0000
0100
0000
0001
0100
0000
0000
0001
0000
0010
0000
0001
0000
,
1000
0000
0010
0000
1000
0000
0001
1000
0000
0000
0001
0000
0100
0000
0010
0000
,
0110
0000
0000
0000
0100
0000
0001
0100
0000
0000
0001
0000
1000
0000
0100
0000
,
1000
0100
0010
0010
0000
0001
1001
0000
,
0100
0000
0001
0000
1000
0000
0001
1000
0000
0000
0010
0000
1000
0000
0100
0000
,
0100
0000
1000
0000
0001
0000
0100
0001
0000
0000
0010
0000
0001
0000
0100
0000
,
0101
0000
1100
0000
1000
0010
1010
0000
,
0011
0000
0000
0000
,
1100
0000
1000
0000
0000
1000
0000
0000
0100
0000
0000
1000
0000
0000
0010
0000
,
0100
0000
0001
0000
0000
0001
0000
0000
0010
0000
0001
0000
0000
0000
0010
0000
,
0011
0000
0001
0000
0000
0001
0000
0000
0100
0000
0000
0001
0000
0000
1000
0000
,
0100
1000
0010
0000
0100
0001
0010
0000
,
0001
0000
1000
0000
0001
0000
1000
0000
0100
0000
0000
0000
1000
0000
0010
1000
,
0010
0000
1000
0000
0001
0100
0001
0010
,
0011
0000
0010
0000
0100
1000
0010
1000
,
1010
1001
0110
1001
,
0101
0000
0000
0000
1000
0000
0100
0000
1000
0000
0000
0000
0001
0000
0100
0001
,
1000
0000
0100
1000
0010
1000
0100
0000
,
1100
0000
0010
0000
0001
0100
0001
1000
,
1100
0101
0110
1001
;

//--------------- pump-double - NORMAL ----------------
#NOTES:
     pump-double:
     NORMAL:
     Medium:
     5:
     0,0,0,0,0:
0000000000
0000000000
0000000000
0000000000
,
0000000000
0000000000
0000000000
0000000000
0000000000
0000000000
0000000000
1000000000
,
0000000000
0000000000
0000000000
0000000000
0000000000
0000000000
0000000000
1000000000
,
0000000000
0000000000
0000000000
0000000000
,
0010000000
0000010000
0000000100
0000010000
0000000000
0000010000
0000000010
0000010000
,
0100000000
0000010000
0000000100
0000010000
0000000000
0000100000
0000001000
1000100000
,
0000000000
0000000000
0000010000
0000001000
0000000010
0000000000
0000000000
0000000000
0000010000
0000001000
0000000010
0000000010
0000000000
0000000000
1000000000
0000000000
,
0000000000
0000000000
0000010000
0000001000
0000000010
0000000000
0000000000
0000000000
0000010000
0000001000
0000000010
0000000010
0000000000
0000000000
0000000000
0000000000
,
0010000000
0000010000
0000000100
0000010000
0000000000
0000010000
0000000010
0000010000
,
0100000000
0000010000
0000000100
0000010000
0000000000
0000100000
0000001000
1000100000
,
0000000000
0000000000
0000010000
0000001000
0000000010
0000000000
0000000000
0000000000
0000010000
0000001000
0000000010
0000000010
0000000000
0000000000
1000000000
0000000000
,
0000000000
0000000000
0000010000
0010001000
0000000010
0000000000
0000000000
0000000000
0000010000
0000001000
0000000010
0000000010
0000000000
0000000000
0000000000
0000000000
,
0011000000
0000100000
0010010000
0000001000
0010000100
0000000010
0010000000
0000100000
,
0100000000
0000001000
0100000000
0000000100
0100000000
0000000010
0100000000
0000000000
,
0101000000
0000100000
0100010000
0000001000
0100000100
0000000010
0100000000
0000100000
,
1000000000
0000001000
1000000000
0000000100
1000000000
0000000010
1000000000
0000000000
,
0010010000
0000000000
0000000000
0000000000
0000000000
0000000000
0000000000
1000000000
,
0000001000
0000000000
0000000000
0000000010
,
0001001000
0000000000
0000000000
0000000000
0000000000
0000000000
0000000000
0100000000
,
0000000000
0000000000
0000000000
0000000000
0000000000
0010000000
1000000000
1000000000
,
0100000000
0000000000
0000000000
0000000000
,
0000000000
0000100000
1000000000
0000001000
,
0010000000
0000000000
0000000000
0000000000
,
0100000000
0001000000
0000010000
0000010000
0000000000
0000000100
0000000010
0000000000
,
0000000000
0000000000
0000000000
0000000000
,
0000000000
0000100000
1000000000
0000001000
,
0010000000
0000000000
0000000000
0000000000
,
0000001000
0000000000
0000000000
0000000000
,
0000000000
0000000000
0100000000
0000000000
0000000000
0100000000
0000000000
0000000000
0100000000
0000000000
0000000000
0100000000
0000000000
0000000000
0100000000
0000000000
,
0000000000
0000000000
0010000000
0000000000
0000000000
0010000000
0000000000
0000000000
0010000000
0000000000
0000000000
0010000000
0000000000
0000000000
0010000000
0000000000
,
0000000000
0000000000
0100000000
0000000000
0000000000
0100000000
0000000000
0000000000
0100000000
0000000000
0000000000
0100000000
0000000000
0000000000
0100000000
0000000000
,
0001000000
0000100000
0000010000
0000001000
,
0000000000
0000000000
0100000000
0000000000
0000000000
0100000000
0000000000
0000000000
0100000000
0000000000
0000000000
0100000000
0000000000
0000000000
0100000000
0000000000
,
0000000100
0000000000
0010000000
0000000000
0000000010
0010000000
0000000000
0000000000
0010001000
0000000000
0000000000
0010000000
0000000100
0000000000
0010000000
0000000000
,
0000000000
0000000000
0100000000
0000000000
0000000000
0100000000
0000000000
0000000000
0100000000
0000000000
0000000000
0100000000
0000000000
0000000000
0100000000
0000000000
,
0001000000
0001000000
0001000000
0001000000
0000010000
0000010000
0000010000
0000010000
,
0000000000
0000000000
0100000000
0000000000
0000000000
0100000000
0000000000
0000000000
0100000000
0000000000
0000000000
0100000000
0000000000
0000000000
0100000000
0000000000
,
0000000100
0000000000
0010000000
0000000000
0000000010
0010000000
0000000000
0000000000
0010001000
0000000000
0000000000
0010000000
0000000100
0000000000
0010000000
0000000000
,
0000000000
0000000000
0100000000
0000000000
0000000000
0100000000
0000000000
0000000000
0100000000
0000000000
0000000000
0100000000
0000000000
0000000000
0100000000
0000000000
,
0001000000
0001000000
0001000000
0001000000
0000010000
0000010000
0000010000
0000010000
;
