#TITLE:AUCTIONEER BEATS;
#SUBTITLE:;
#ARTIST:Vine;
#TITLETRANSLIT:;
#SUBTITLETRANSLIT:;
#ARTISTTRANSLIT:;
#GENRE:;
#CREDIT:;
#MUSIC:Best of Auctioneer Beats Vine Compilation.mp3;
#BANNER:;
#BACKGROUND:;
#CDTITLE:;
#SAMPLESTART:32.66;
#SAMPLELENGTH:12;
#SELECTABLE:YES;
#OFFSET:-0.164;
#BPMS:0.000=144.000
,16.000=114.000
,28.000=155.000
,29.000=224.000
,52.000=130.000
,54.000=143.000
,67.000=180.000
,68.000=218.000
,90.750=162.000
,108.000=167.000
,126.000=180.000
,127.000=210.000
,149.000=185.000
,151.000=210.000
,171.500=128.000
,186.000=135.000
,188.000=222.000
,208.000=250.000
,214.000=226.000
,239.000=222.000
;
#STOPS:;
#BGCHANGES:;
#FGCHANGES:;

//--------------- dance-single - ----------------
#NOTES:
     dance-single:
     :
     Beginner:
     2:
     0,0,0,0,0:
0000
0000
0000
0000
,
0000
0000
0000
0000
,
0010
0000
0010
0000
,
0010
0000
0000
0000
,
0000
0000
0100
0000
,
0000
0000
0100
0000
,
0000
0000
0110
0000
,
0000
0001
0000
1000
,
0000
0001
0000
1000
,
0000
0100
0000
0100
,
0000
0010
0000
0100
,
0000
0001
0000
1000
,
0000
1001
0000
0000
,
0000
0000
1000
0000
,
0010
0010
0000
0000
,
0001
0000
0100
0000
,
1001
1001
0000
0000
,
0000
0000
0000
0000
,
1000
1000
0000
0000
,
0001
0001
0000
0000
,
0010
0010
0010
0000
,
0100
0000
0010
0000
,
0100
0000
0110
0000
,
0000
0000
0000
1000
0000
0000
0000
1000
,
0000
0000
0000
1000
0000
0000
0000
1000
,
0000
0000
0000
0001
0000
0000
0000
0001
,
0000
0000
0000
0001
0000
0000
0000
0001
,
0000
0000
0000
0000
,
0000
0100
0000
0000
0000
0000
0000
0000
,
0000
0100
0000
0000
0000
0000
0000
0000
,
0000
0010
0000
0000
0000
0000
0000
0000
,
0000
0010
0000
0000
0000
0000
1001
0000
,
0000
1001
0000
1001
,
0000
0100
0000
0000
,
0100
0000
0000
0100
,
0000
0010
0000
0000
,
0010
0000
0000
0010
,
0000
0100
0000
0001
,
0000
1000
0000
0010
,
0010
0010
0010
0000
,
1001
0000
1001
0000
,
1001
0000
1001
0000
,
0100
0000
0000
0100
,
0000
0000
0000
0000
0000
0000
0000
1000
,
0000
0000
0000
0001
0000
0000
0000
0100
,
0000
0000
0000
0010
0000
0000
0000
0110
,
0000
0000
0000
0000
,
1000
1000
1000
0000
,
1000
0000
0000
0000
,
0001
0001
0001
0000
,
0001
0000
0000
0000
,
0110
0000
0100
0000
,
0000
0000
0000
0000
,
0000
0000
0010
0000
,
0010
0000
0000
0000
,
0010
0000
0100
0000
,
0100
0000
0000
0000
,
0100
0000
0001
0000
,
1000
0000
0000
0000
,
0000
0000
0000
0100
,
0000
0010
0000
0100
,
0000
0000
0000
0010
,
0000
0100
0000
0010
,
0000
0000
0000
0100
;

//--------------- dance-single - ----------------
#NOTES:
     dance-single:
     :
     Easy:
     4:
     0,0,0,0,0:
0000
0000
0000
0000
,
0000
0000
0000
0000
,
0010
0000
0000
1000
0000
0000
0001
0000
,
0100
0100
0000
1001
,
0000
0000
1000
0010
,
0010
1000
0001
0010
,
0010
0001
0100
0000
,
0000
0010
0000
1000
,
0001
0000
0000
0100
,
0000
0010
0010
0010
,
0000
1000
0000
0001
,
0000
0100
0000
0100
,
0000
0100
0010
0100
,
0000
0000
1001
0000
,
1000
0001
0000
0000
,
0001
1000
0010
0100
,
0100
0110
0000
0000
,
0000
0000
0000
0000
,
1000
0001
0000
0000
,
0000
0100
0000
0100
,
0010
1000
0010
0000
,
0100
0001
0100
0000
,
1000
0000
0001
0000
,
0000
0000
0000
1000
0000
0000
0000
1001
,
0000
0000
0000
0001
0000
0000
0000
1001
,
0000
0000
0000
1000
0000
0000
0000
1001
,
0000
0000
0000
0001
0000
0000
0000
1001
,
0000
0000
0000
0000
0000
0010
0000
0000
,
0000
0010
0000
0000
0000
0100
0000
0000
,
0000
0010
0000
0000
0000
0100
0000
0000
,
0000
0010
0000
0000
0000
0010
0000
0000
,
0000
0010
0000
0000
0000
0000
1000
0000
,
1000
0001
0001
1000
,
0001
0100
0000
0000
,
0100
0000
0000
0010
,
0010
0100
0000
0000
,
0100
0000
0000
1001
,
0000
0000
0000
0010
,
0000
1000
0000
0001
,
0000
0100
0100
0000
,
1001
0000
1000
1000
,
0001
0001
1000
0001
,
0100
0000
0000
0100
,
0000
0000
0000
0000
0000
0000
0000
1000
,
0000
1000
0000
1000
0000
0000
0000
0001
,
0000
0001
0000
0001
0000
0000
0000
0010
,
0000
0000
0000
0000
,
1000
0001
0000
0000
,
0001
1000
0000
0000
,
0100
0010
0000
0000
,
0010
0100
0000
0000
,
0001
0000
1000
0000
,
0000
0000
0000
0000
,
0000
0000
0100
0000
,
1001
0000
0000
0000
,
1001
0000
0010
0000
,
1001
0000
0000
0000
,
1001
0000
0010
0000
,
0100
0000
0000
0000
,
0000
0000
0000
0001
,
0001
1000
1000
0001
,
0001
1000
1000
0010
,
0000
0000
0100
0010
,
0100
0010
0000
1001
;

//--------------- dance-single - ----------------
#NOTES:
     dance-single:
     :
     Medium:
     6:
     0,0,0,0,0:
0000
0000
0000
0000
,
0000
0000
0000
0000
,
0001
0000
0000
1000
0010
0000
0010
0000
,
0100
0000
1001
0000
0000
0001
1000
0000
,
0000
0000
0000
0000
1000
0000
0001
1000
,
0000
0100
0010
0000
0001
0000
1000
0001
,
0000
0010
0100
0000
0010
0000
0110
0000
,
0000
1000
0000
0001
,
0001
0000
0100
0010
,
1000
0100
0010
0100
,
0000
0010
0001
1000
,
0010
0100
0100
0100
,
0000
0010
0000
1001
,
0000
0000
0000
0000
1000
0000
0001
1000
,
0001
0000
0110
0000
0000
0001
0010
0000
,
0001
1000
0010
0100
0100
0000
0000
0000
,
1001
1000
0001
0000
0100
0000
0000
0000
,
0000
0000
0000
0000
,
0001
0010
0001
0000
0000
0000
0000
0000
,
1000
0010
1000
0000
0000
0000
0000
0000
,
1000
1000
0001
0100
,
0010
0010
0001
1000
,
0110
0000
0010
0000
,
0000
0000
0000
0001
1000
0001
0000
1000
,
0001
1000
0000
0001
1000
0001
0000
1000
,
0001
1000
0000
0010
0100
0010
0000
0100
,
0010
0100
0000
0010
0100
0010
0000
0100
,
0000
0000
0000
0000
0000
1001
0000
0000
,
0000
1000
0000
0000
0001
0000
0010
0000
,
0000
0100
0000
1000
0000
0001
0000
0000
,
0000
1001
0000
0000
0000
0010
0000
0000
,
0000
0100
0000
0000
0000
0000
0000
0000
,
1000
0100
0010
0001
,
0100
1001
0000
1000
,
0001
0000
0000
0010
0010
0000
0001
0000
,
1000
0100
0000
0010
,
0100
0000
0000
0010
0001
0000
1000
0000
,
0010
0000
0000
1000
,
0001
0010
0100
0010
,
0001
1000
0100
0010
,
0001
0100
0010
1000
,
0100
0010
0001
0100
,
1001
0000
1000
0001
,
0000
0000
0000
0000
0000
0000
0000
0001
,
0010
0010
0001
1000
0000
1001
0000
0000
,
1000
0010
0001
0010
0000
0100
0000
0001
,
1000
0000
0001
1000
0000
0000
0000
0000
,
1000
0010
1000
0000
0100
0000
0000
0000
,
1001
0001
0001
0100
,
0000
0000
0001
1000
0001
0000
0100
0000
,
0010
0010
1001
1000
,
0001
0000
0110
0000
,
0000
0000
0000
0000
,
0000
0000
0001
0001
,
0011
0000
0000
0001
,
0100
0010
1000
1000
,
1010
0000
0000
0100
,
0001
1000
0100
0100
,
1001
0000
0000
0000
,
0000
0000
0000
0000
0000
0000
1000
0010
,
1000
0000
0001
0000
0000
0000
0001
0100
,
0001
1000
0000
0100
,
0010
0001
1000
0010
,
0010
1001
0100
0010
;

//--------------- dance-single - ----------------
#NOTES:
     dance-single:
     :
     Hard:
     9:
     0,0,0,0,0:
0000
0000
0000
0000
,
0000
0000
0000
0000
,
1000
0000
0000
0010
1000
0001
0010
0000
,
0110
0010
0100
1000
0000
0001
1000
0000
,
0000
0000
0000
0000
1010
0000
0001
0011
,
0000
0001
1000
0100
0110
0000
0000
1001
,
0000
1000
0010
0001
0100
0000
0100
0000
,
0000
0000
0001
0000
0001
0000
1000
0001
,
1000
0000
0100
0010
0001
1000
0010
0000
,
0100
0011
1010
1000
,
0001
0100
0000
0010
1000
0000
0100
0010
,
0001
1000
0010
0000
0100
0000
0100
0000
,
0000
0001
1000
0010
,
0000
0000
0000
0000
0000
0000
0000
0000
1001
0000
0010
0000
0000
0001
0000
0000
,
1000
0000
0000
0010
0000
0000
0001
0000
0001
0000
0100
0000
0000
1000
0000
0000
,
0001
0000
0100
0000
1000
0000
0000
0000
0110
0000
1000
0000
0000
0001
0000
0000
,
0010
0010
0110
0100
0000
1000
0001
0000
,
0000
0000
0000
0000
,
0010
0000
1000
0010
1000
0000
0000
0000
0000
0000
0001
0010
0001
0000
0000
0000
,
0100
0100
0001
1000
,
0001
0010
0001
1000
0010
0100
0010
0000
,
1000
1100
0101
0001
,
1000
0100
0001
0000
0010
0000
0000
0000
,
0000
0000
0000
0001
0010
0001
1000
0010
,
1000
0001
0100
0001
1000
0100
1000
0010
,
0100
0010
0000
1000
0010
1000
0001
0010
,
0001
1000
0100
1000
0001
0100
0001
0010
,
0000
0000
0000
0000
0000
0001
0000
1000
,
0000
0001
0000
0100
0001
0000
0010
0000
,
0100
1000
0001
0100
0000
0010
1000
0001
,
0000
1000
0100
1000
0010
0000
0100
0000
,
0001
0010
0000
1000
0000
0000
0110
0000
,
0011
0000
0000
1010
0000
0000
1001
0000
0000
1000
0001
1000
,
0001
0100
0000
0101
,
1000
0000
0000
0000
0000
0000
0000
0000
0000
0100
0000
0000
0100
0000
0000
0000
0000
0000
0010
0000
0100
0000
0010
0000
,
0100
1000
0001
0000
0000
0000
1001
0000
,
1000
0000
0000
0000
0000
0000
0000
0000
0000
0001
0000
0000
0010
0000
0000
0000
0000
0000
0001
0000
0010
0000
0100
0000
,
1000
0010
0000
0000
0000
0000
0001
1000
,
0001
1000
0010
0100
0010
0100
0001
0000
,
1000
0000
0100
0010
0001
1000
0010
0000
,
0101
1100
0110
0011
,
1010
0000
0000
1001
0000
0000
1000
0001
1000
0001
0000
0000
,
0100
0000
0101
1000
,
0000
0000
0000
0000
0000
0000
0000
0011
,
0000
0000
0001
1000
0001
0000
0100
0000
0010
0000
1000
0000
0000
0000
0000
0000
,
0010
0000
1010
0000
0100
0000
0001
0000
0010
0000
0001
0000
1000
0001
1000
0000
,
0000
0100
0010
0000
0000
0000
0000
0000
,
1010
0000
0001
0000
1000
0001
0010
0000
,
0100
0010
0011
1000
,
0000
0001
1000
0000
0100
0010
0100
0000
,
0010
0000
0001
0000
1000
0000
0100
0000
0010
0000
0100
0000
,
0110
0000
1001
0000
1000
0001
0100
0000
,
0000
0000
0000
0000
,
0000
0000
0000
0000
1000
0001
1000
0000
,
1100
0000
0010
0001
0000
0001
1000
0000
,
0001
0010
0100
0000
1000
0001
1000
1000
,
0100
0000
0010
0001
0000
1000
0010
0000
,
1001
0000
1000
0001
1000
1000
0010
0000
,
0110
0000
0000
0000
,
0000
0000
0000
0001
,
1001
0000
1000
0010
0100
0001
0010
0000
,
0010
0000
0001
1000
0001
0000
0101
0000
,
0001
1000
0100
0000
1100
0000
0010
0000
,
0001
1000
0010
0000
0010
0000
0110
0000
;
