#TITLE:Atrocity;
#SUBTITLE:;
#ARTIST:Saster;
#TITLETRANSLIT:;
#SUBTITLETRANSLIT:;
#ARTISTTRANSLIT:;
#GENRE:;
#CREDIT:;
#MUSIC:Atrocity.ogg;
#BANNER:;
#BACKGROUND:;
#CDTITLE:;
#SAMPLESTART:20.240;
#SAMPLELENGTH:15.000;
#SELECTABLE:YES;
#OFFSET:-0.030;
#BPMS:0.000=95.000
,16.000=190.000
,175.000=95.000
,207.000=190.000
,239.000=95.000
,240.000=190.000
,266.000=95.000
,268.000=190.000
,332.000=380.000
,458.000=95.000
;
#STOPS:144.000=0.316
,396.000=0.316
;
#ORIGIN:;
#PREVIEWVID:;
#JACKET:;
#CDIMAGE:;
#DISCIMAGE:;
#BGCHANGES:;
#FGCHANGES:;

//--------------- dance-single - ----------------
#NOTES:
     dance-single:
     :
     Beginner:
     4:
     0.227108,0.308829,0.188946,0.221523,0,244,215,29,34,0,0,0,0,0,0.227108,0.308829,0.188946,0.221523,0,244,215,29,34,0,0,0,0,0:
0000
0000
0000
0000
,
0000
0000
0000
0000
,
0000
0000
0000
0000
,
0000
0000
0000
0000
,
0010
0000
0100
0000
,
0001
0001
0001
0000
,
1000
0000
0010
0000
,
0100
0000
1001
0000
,
0001
0001
0001
0000
,
1000
1000
1000
0000
,
0010
0000
0100
0000
,
0020
0000
0030
0000
,
1000
1000
1000
0000
,
0002
0000
1003
0000
,
0001
0001
0001
0000
,
2000
0000
3001
0000
,
0010
0000
0010
0000
,
0010
0100
0100
0000
,
0010
0000
0100
0000
,
0220
0000
0330
0000
,
0001
0000
0001
1000
,
0001
0000
0000
0000
,
1000
0000
1000
0001
,
1000
0000
0000
0000
,
0010
0010
0010
0000
,
0020
0000
0030
0000
,
0200
0000
0300
0000
,
1001
0000
0000
0000
,
0010
0000
0100
0000
,
0001
0000
1000
0000
,
0001
0001
0001
0000
,
0010
0000
1000
1000
,
1000
0000
0100
0000
,
0010
0000
0100
0000
,
0110
0000
0000
0000
,
1001
0000
0001
1000
,
1001
0000
0000
0010
,
0010
0010
0010
0010
,
0000
2000
0000
3001
,
0000
0002
0000
1003
,
0000
0000
0000
0010
,
0010
0010
0000
1001
,
0000
0000
0000
0200
,
0000
0000
0000
0310
,
0010
0000
0000
1001
,
0000
2002
3003
0100
,
0000
0010
0000
2000
,
3001
0010
0010
0010
,
0000
0020
0030
0100
,
0000
2000
3000
0001
,
0000
1000
0001
1000
,
0001
0002
0003
0001
,
0000
1001
0000
1000
,
0000
1001
0000
0020
,
0000
0000
0000
0030
,
0000
0000
0000
1000
,
0001
1000
0000
1000
,
0001
1000
0000
0001
,
1000
0001
0000
0010
,
0000
0000
0000
0010
,
1001
0000
0100
0100
,
0100
0000
0010
0000
,
0100
0000
0010
0100
,
0010
0000
0010
0000
,
1001
0000
1001
0000
,
1001
0000
0100
0000
,
0010
0000
2002
3003
,
1001
0000
0010
0010
,
0100
0000
0010
0100
,
0010
0000
0100
0000
,
0110
0000
0000
0000
,
0001
1000
0001
1000
,
0001
0000
1000
0001
,
1000
0001
1000
0000
,
1001
0000
0000
0000
,
0010
0010
0010
0000
,
0200
0000
0310
0000
,
0100
0000
0001
0000
,
1000
0000
1001
0000
,
0001
0001
1000
1000
,
0002
0000
0003
0000
,
2000
0000
3000
0000
,
2002
0000
3003
0000
,
0010
0000
0000
0000
,
0100
0000
0000
0000
,
0001
0000
1000
0000
,
0010
0000
0000
0000
,
0010
0000
0110
0000
,
0100
0000
0110
0000
,
1001
0000
0000
0000
,
0000
0000
0000
0000
,
0002
0000
1003
0000
,
2000
0000
3001
0000
,
0010
0000
0100
0000
,
0010
0000
0100
0000
,
0020
0000
0000
0000
,
0230
0000
0000
0000
,
0310
0000
0000
0000
,
0110
0000
0000
0000
,
1001
0000
0000
0000
,
0000
0000
0001
0000
,
1000
0000
0001
0000
,
1000
0000
0010
0000
,
0000
0000
0000
0000
,
0000
0000
1000
0000
,
0001
0000
1000
0000
,
0001
0000
0010
0000
,
0000
0000
0000
0000
,
0000
0000
0110
0000
,
0000
0000
0000
0000
,
0000
0000
1001
0000
,
0001
0000
1000
0000
,
0000
0000
0020
0000
,
0030
0000
0200
0000
,
0300
0000
0020
0000
,
0030
0000
0200
0000
,
0300
0000
0002
0000
,
0003
0000
2000
0000
,
3000
0000
1001
0000
;

//--------------- dance-single - ----------------
#NOTES:
     dance-single:
     :
     Easy:
     7:
     0.42443,0.579054,0.410469,0.319254,0.003258,456,393,63,49,0,0,0,0,0,0.42443,0.579054,0.410469,0.319254,0.003258,456,393,63,49,0,0,0,0,0:
0000
0000
0000
0000
,
0000
0000
0000
0000
,
0000
0000
0000
0000
,
0000
0000
0000
0000
,
0010
1000
0001
0100
,
0010
0010
0100
0000
,
0002
0000
0013
0000
,
1000
0010
0100
0010
,
0020
0000
0130
0000
,
0110
0100
0001
0000
,
0001
0010
1000
0020
,
0000
0200
0000
0330
,
0110
0000
1001
0000
0001
1000
0001
0000
,
1000
0000
0000
1100
0000
0000
0001
0000
,
0010
0001
0100
0010
,
0100
0100
0100
1001
,
1001
0000
0000
0000
1000
0001
1000
0000
,
0010
0000
0000
1001
0000
0000
0100
0010
,
0000
0100
0100
0010
,
2000
0000
0002
3003
,
0001
0011
1000
1010
,
0010
0100
0020
0030
,
1000
0100
0001
0010
,
0001
1000
0020
0000
,
0130
0000
0100
0001
0000
1000
0000
0010
,
0000
0110
0000
0100
0000
0000
0010
0100
,
0020
2030
3002
0203
,
0310
0000
0110
1001
,
1000
0001
0001
0010
,
0001
1000
0001
0000
1000
0001
1000
0000
,
0010
0010
1100
0101
,
1000
0010
0010
0001
,
0101
0000
1100
0000
,
0010
1000
0001
0000
,
0100
0010
0100
0010
,
0220
0000
0330
0000
,
1001
0001
1000
0010
,
0010
0000
0100
0010
0100
0000
0020
0000
,
0000
2030
3002
0103
,
0110
0000
0010
0000
0010
0000
1000
0001
,
1000
0001
0001
0010
,
0001
0100
0010
1001
,
0000
0000
0100
0000
0010
0020
0000
0000
,
0100
0200
0000
0000
0330
0000
1001
0000
,
0001
0100
1000
0000
0010
1000
0001
0000
,
0100
0000
0020
0000
0030
0000
1000
1000
,
0001
0000
0001
0001
1000
0000
0020
0000
,
0030
0000
0110
0000
1001
0100
0010
0000
,
1000
0100
0001
0000
0010
0001
1000
0001
,
0100
0200
0300
1001
,
0000
0000
0010
0010
0010
0010
0020
0000
,
0030
0000
0001
1000
0001
1000
0001
0000
,
0000
1000
0010
0000
0110
0000
0000
0100
,
0010
0000
0100
0000
0001
0010
0000
0000
,
1000
0010
0000
1000
0000
0001
0000
0000
,
1001
0000
0010
0000
1001
0000
0001
1000
,
0001
1000
0010
0000
0000
0000
0100
0000
,
0001
1000
0100
0020
,
0000
0130
0000
0110
,
1001
0000
0000
0000
0010
0000
0000
0000
0100
0000
0000
0000
0010
0000
0000
1000
,
0001
0020
0000
0130
,
1001
0000
0001
1000
0000
0000
0010
0000
,
0010
0000
0010
0100
0100
0000
0002
0000
,
2003
3002
0013
0100
,
0010
0000
1001
0000
0100
0000
0010
1000
,
0100
0000
0010
0001
0100
0000
0000
0000
,
0010
0000
0000
0000
1000
0110
0001
0110
,
1001
0000
0000
0000
0001
1000
0010
0000
,
0200
0000
0000
0320
0000
0000
0130
0000
,
1001
0000
0000
0000
0001
1000
0001
1000
,
0001
0000
0000
0000
1000
0001
1000
0001
,
1000
0010
0100
0010
,
0110
0000
0000
1001
0000
0000
0110
0000
,
0010
1000
0001
0100
,
0002
0000
0023
0230
,
1300
1100
0001
0101
,
0010
0010
0020
0030
,
1000
1000
1000
0000
0001
0001
0001
0000
,
0020
0000
0030
0000
,
0100
0000
0100
0010
0000
0010
1000
0001
,
0000
2002
0000
3003
0000
0010
0010
0000
,
0100
0010
0100
0110
,
0000
1001
1001
0000
,
0002
0000
1000
2003
,
0000
0001
3010
0010
,
0000
0110
0000
1001
,
0000
0100
0010
0100
,
0010
0000
1000
0001
,
1000
0000
0001
1000
,
0001
0000
0000
0110
,
0000
0000
1001
0000
,
1000
0000
0001
0000
,
1000
0001
1000
0000
,
0100
0000
0010
0000
,
1001
0000
0000
0200
,
0000
0301
0000
0200
,
0000
1300
0000
0110
,
0000
0000
0001
1000
,
0010
0000
0110
0000
,
1001
0000
0001
0010
,
0001
0000
1000
0010
,
1000
0000
0110
0000
,
1001
0000
1000
0001
,
1000
0000
0010
0000
,
0010
0100
0000
0000
,
0002
0000
2003
0000
,
3010
0000
0110
0000
,
0000
0000
0100
0001
,
1000
0000
0010
0000
,
0000
0000
0100
0100
,
0001
0000
0020
0000
,
1030
0000
0200
0000
,
0310
0000
0110
0000
,
0101
0000
1100
0000
,
0110
0000
2002
3003
,
0001
0000
1000
0000
0010
0010
0010
0100
,
0010
0100
0110
0000
0002
0000
0103
0000
,
2000
0000
3100
0000
0010
0100
0010
0100
,
0110
0000
1001
0000
;

//--------------- dance-single - ----------------
#NOTES:
     dance-single:
     :
     Medium:
     9:
     0.595692,0.773701,0.553807,0.241069,0.110761,640,555,85,37,0,0,0,0,0,0.595692,0.773701,0.553807,0.241069,0.110761,640,555,85,37,0,0,0,0,0:
0000
0000
0000
0000
,
0000
0000
0000
0000
,
0000
0000
0000
0000
,
0000
0000
0000
0000
,
0001
1000
0001
0000
0010
0001
1000
0000
,
0010
0000
0100
0000
0010
1000
0001
0100
,
0000
0000
0110
0000
1001
0000
0000
1000
,
0001
0000
0100
0000
0010
0010
0010
0000
,
0020
0000
0030
0000
1000
0001
0100
0000
,
0010
0000
1001
0000
0100
0010
0100
0010
,
0000
0000
1000
0000
0001
0100
0010
1000
,
0000
1000
0001
0100
0001
0010
0100
0000
,
1001
0000
0000
0000
0001
0010
1000
0010
,
0002
0000
0103
0020
0000
1030
0010
0000
,
0010
1000
0100
0010
0100
1000
0001
0100
,
0010
0010
1100
0101
,
0001
0010
1000
0010
0100
1000
0010
0000
,
0200
0000
0301
0020
0000
1030
0010
0000
,
1001
0001
1001
1000
,
0010
0100
0001
0010
1000
0000
0010
0000
,
1001
0000
0000
0000
0001
0001
1000
0000
,
0010
0000
1000
1000
0100
0000
0010
0000
,
0101
0000
0010
0000
1000
0100
1000
0000
,
0001
0000
0110
0000
1000
0010
0001
0010
,
1000
0000
0001
0010
0000
0001
0010
0100
,
0000
0020
0000
0130
0000
0000
1001
0000
,
1000
0000
0010
0000
0100
0000
0001
1001
,
0000
0010
0120
0130
,
1000
0100
0001
0010
0001
0000
2000
0000
,
3010
0101
1100
0110
,
0001
0010
0001
1000
0010
0100
0001
0010
,
0100
0000
0110
0000
1001
0000
0001
0100
,
0010
0000
1000
0010
1000
0100
0010
0001
,
0001
0000
0000
0101
0000
0001
0100
0010
,
1000
0001
0100
0001
0010
0010
0100
0110
,
0000
1000
0100
0001
0010
0000
0110
0000
,
1001
0000
0001
0001
1000
0100
0010
0000
,
0001
1000
0000
0010
0100
0001
0010
0000
,
0001
1000
0000
0101
0000
1200
0000
0310
,
0100
0010
0100
0100
0001
0000
1100
0000
,
0001
1000
0010
0100
0001
0000
2000
0000
,
3020
0000
0130
0010
0100
0000
0001
0000
,
0101
0000
0010
0001
1000
0010
0000
0000
,
0020
0200
0000
0000
0300
0030
1000
0000
,
0100
0000
1000
0001
0000
0010
0001
0000
0100
0000
0010
1000
0000
0001
0000
0010
,
0000
0010
0000
0020
0000
0000
0000
0000
0130
0000
0010
0000
1001
0000
1000
0100
,
0000
0001
0000
0100
0000
0010
0100
0000
0010
0000
0100
0002
1000
0000
0000
0000
,
1003
0000
0100
0000
0010
0000
0000
0110
0000
0000
0100
0000
1001
0000
0000
0000
,
0001
0000
0001
0010
0000
0000
0100
0000
0010
0000
0100
1000
0000
0010
0100
0010
,
0000
0010
0000
0200
0000
0000
0000
0000
0301
0000
1000
0000
1001
0000
0000
0000
,
0001
0010
0000
1000
0010
0000
0100
0000
0010
0000
0100
0002
0000
0000
0000
0000
,
1003
0000
1000
0010
0000
0100
0000
0001
0000
1000
0001
0000
1001
0000
0000
0000
,
0000
0100
0010
0000
0101
0000
0010
0001
,
1000
0100
0010
0000
0010
0110
0000
2000
,
0000
3001
0000
0010
0001
0100
0010
0000
,
0000
1000
0001
0010
1000
0000
0101
0000
,
0010
0000
1000
0100
0001
0000
1010
0000
,
0101
0000
0010
0100
0010
1000
0100
0000
,
0011
0000
0100
0010
0100
2002
0000
0000
,
3003
0000
0000
0000
0010
0000
0100
0000
0010
0000
0000
0000
0010
0000
0000
1000
,
1001
0000
0000
0000
0001
0010
0100
1000
,
0010
0100
0001
0001
0000
0000
2100
0000
,
0010
0000
3100
0000
0010
0001
0100
1000
,
0100
0010
1000
0000
0001
0000
0010
0001
,
0000
0100
0010
1000
0001
0100
0010
0000
,
1001
0000
0001
0020
0000
0000
0130
0000
,
1000
0000
0001
0000
0100
0000
0000
0000
0010
1000
0001
0100
0010
0000
0100
0000
,
1001
0000
0001
0010
0001
1000
0100
0010
,
0110
0000
0000
1001
0000
0100
0010
1000
,
0000
0001
0001
0000
0010
0001
0100
0010
,
0101
0000
1100
0000
0010
0100
0020
0000
,
1030
0000
0101
0000
0010
1000
0010
0001
,
1001
0000
0000
0110
0000
0010
0100
0001
,
0000
1000
0010
0100
0000
0000
1001
0000
,
0010
0100
0001
0010
0100
1000
0001
1000
,
0010
0000
0000
0000
0010
1000
0100
0000
,
0011
1001
1100
0110
,
0001
0100
1000
0000
0001
0010
1000
0000
,
1001
0000
0000
0000
0000
0000
0000
0000
0010
0000
0000
0100
0010
0000
0000
0000
,
0110
0000
0000
0001
1000
0000
0001
0010
,
0000
0110
0000
1001
0000
1000
0100
0001
,
0010
0000
0000
0110
0000
0000
0101
0000
,
0000
1010
0220
0330
,
0001
0010
0001
1000
,
0010
0000
1000
0000
0010
0000
0000
0100
,
0010
0000
0101
1010
,
0010
0100
0010
0000
,
1000
0100
0001
0010
,
0001
1000
0001
1000
,
0010
0000
1001
0100
,
0000
1001
0001
1000
,
1001
0000
0010
0000
,
0100
0001
0010
0000
,
0100
1000
0010
0100
,
0000
0000
0110
0100
,
0000
0001
1000
0010
,
0000
1100
0000
0101
,
0000
0010
0010
0100
,
0020
0000
1030
0000
,
2002
3003
0000
0000
0010
0000
1000
0000
,
0001
0000
1100
0000
,
0101
0000
0010
1000
,
0011
0000
0110
0000
,
1100
0000
0001
0010
,
1000
0000
0100
0010
,
0000
0110
0000
1001
,
0000
0100
1001
0000
,
0010
1000
0000
0001
,
0010
0100
0000
0011
,
0000
1100
0000
0010
,
1000
0000
0001
0100
,
0010
1000
0100
1000
,
0010
0100
0002
0000
,
0023
0000
0230
0000
,
2300
0000
0000
0000
3002
0000
0013
0001
,
0100
0000
0010
0000
1000
0000
0000
0000
0010
0000
1000
0001
0000
0010
0001
0000
,
0100
0000
0010
0000
1000
0001
1000
0000
0010
0000
0000
0000
0110
0000
0110
0000
,
0000
1000
0100
0001
2000
0000
3010
0000
,
0001
1000
0010
0000
0020
0000
0030
0000
0220
0000
0000
0000
0330
0000
0000
0000
;

//--------------- dance-single - ----------------
#NOTES:
     dance-single:
     :
     Hard:
     10:
     0.907499,1.547403,0.573353,0.390923,0.5929,975,887,88,60,0,0,0,0,0,0.907499,1.547403,0.573353,0.390923,0.5929,975,887,88,60,0,0,0,0,0:
0000
0000
0000
0000
,
0000
0000
0000
0000
,
0000
0000
0000
0000
,
0000
0000
0000
0000
,
0010
1000
0100
1000
0010
0100
0001
0010
,
0001
0000
0100
0001
1000
0000
0010
0000
1000
0000
0100
0000
0010
0000
0000
0000
,
0100
0000
1000
0001
0010
0000
0001
0000
0100
0000
0010
0000
0100
0000
0010
0000
,
1000
0000
0100
1000
0010
0000
0100
0000
0010
0100
0001
0000
0010
0000
0001
0000
,
1000
0010
0010
0100
0001
0010
0001
1000
,
0010
0000
0100
0001
1000
0000
0010
0000
0100
0000
0001
0000
0010
0000
0100
0000
,
1001
0000
0010
1000
0100
0001
0100
1100
,
0000
0000
0000
0000
0001
0010
0100
0010
0001
0000
1000
0000
0010
0000
0100
0000
,
0001
0000
0010
0001
1000
0000
0100
0000
1000
0000
0010
0000
0101
0000
0010
0000
,
2000
0000
0000
3100
1000
0000
0020
0000
0000
0130
0010
0000
0100
0000
0101
0000
,
0000
0000
0001
1000
0100
0000
0010
0000
0100
0000
0001
0000
1000
0000
0010
0000
,
0100
0000
0001
0000
1000
0000
0100
0000
0010
0001
0100
0010
1000
0000
0001
0000
,
1001
0000
0000
0010
0001
0000
0010
0100
1000
0000
0001
0000
0100
0000
0101
0000
,
0002
0000
0000
0103
0001
0000
2000
0000
0000
3010
1000
0000
0010
0000
0110
0000
,
0000
0000
0100
0001
0010
0000
0001
0000
1000
0000
0100
0000
0010
0100
2000
0000
,
0000
3001
1100
0101
,
0010
0000
0100
0010
1000
0000
0001
0000
0000
0000
1100
0000
0001
0000
0010
0000
,
0001
0000
0200
0000
0000
0000
0310
0000
0000
0000
0110
0000
1001
0000
1000
0100
,
0001
0000
0010
0000
0001
0000
1000
0000
0000
0000
0010
0000
1000
0100
1000
0000
,
0001
0100
0011
2000
0000
3010
1001
0000
,
0001
0010
0001
0000
0100
0000
0010
1000
0001
0000
0100
0000
0001
0010
1000
0010
,
0001
2000
0000
3020
0000
0130
1001
0000
,
0001
0000
0010
0000
0001
0000
1000
0010
0100
0000
0010
0000
1000
0000
0101
0000
,
0000
0000
0001
0010
0001
0000
1000
0010
1000
0000
0010
0000
1001
0000
0000
0000
,
0200
0000
0000
0000
0010
0300
0010
1000
0100
0000
0010
0000
0011
0000
1000
0000
,
0010
0000
0000
1000
0010
0000
0000
0100
0001
0000
0000
0010
0100
0000
0000
0000
,
0010
1000
0100
0010
0100
0000
0000
0000
0101
0000
0000
0001
0100
0000
0010
0000
,
0000
0000
0010
1000
0001
0100
0001
0000
1010
0000
0000
0100
0001
1000
0010
0000
,
0110
0000
0000
0000
0100
0000
0001
0000
1000
0001
0010
0100
1000
0000
1000
0000
,
0001
0000
0000
0010
0001
0100
0010
0001
0010
0000
0000
0000
0100
0000
0100
0000
,
0001
0000
0000
0000
1000
0010
0100
0000
0000
0000
0101
0000
0000
0000
1100
0000
,
0010
1000
0100
1000
0001
0010
0001
0100
0010
0000
0010
0000
0100
0000
0100
0000
,
0010
0000
1000
0100
0001
0000
0010
0000
1001
0000
0001
0000
1000
0000
0000
0010
,
1000
0000
0010
0000
1001
0000
0001
0000
0020
0000
0002
0000
0000
0030
0100
0000
,
0000
0000
1003
0000
0000
0000
0010
0000
1000
0000
0101
0000
0000
0000
0001
0010
,
0100
0000
0110
0000
0000
0000
0001
0010
0001
1000
0010
0100
0001
0000
0001
0000
,
1000
0000
0010
0000
0100
0000
0001
1000
0010
0000
0010
0000
2000
0000
0000
3001
,
1000
0000
0010
0000
0100
0001
0100
0000
1000
0000
0012
0000
0000
0000
0000
0000
,
1003
0000
0010
0000
0100
0010
1000
0000
0101
0000
0010
0000
1000
0100
0001
0000
,
0010
0000
0020
0000
0000
0000
0100
0000
0130
0001
0010
0001
1000
0000
0000
0000
,
0110
0000
0000
0000
0100
0000
0002
0000
0000
0000
0000
0000
0010
0000
0000
0000
0103
0010
0100
0010
0100
0000
0002
0000
0000
0000
1003
0000
1000
0000
0010
0000
,
0100
0001
0000
2100
0000
0000
0010
0000
0100
0000
3001
0001
0010
0000
0100
1000
,
0001
1000
0000
0010
0000
0010
0100
0001
1000
0000
0010
0020
1000
0000
0000
0000
,
0031
0000
0000
0000
0001
0000
0010
0000
1000
0000
0100
0000
0000
0000
0100
0000
0000
0000
0100
1000
0001
0000
0000
0000
0020
0000
0000
0000
0000
0000
0000
0000
,
0031
0000
0000
0000
0100
0000
0010
0000
1000
0000
0000
0000
0101
0000
0000
0000
0001
1000
0001
1000
0001
0000
0100
0000
0010
0000
0000
0000
1000
0000
0010
0000
,
0100
0001
0000
0002
0010
0000
0000
0000
0103
0000
1000
0100
0010
0000
0001
1100
,
0000
0010
0000
0010
0200
0000
0001
0000
0310
0000
1000
0002
0010
0000
0000
0000
,
1003
0000
0000
0000
0100
0000
0010
0000
0000
0000
1000
0000
0000
0000
0001
0000
0000
0000
1000
0100
0010
0000
0010
0000
1001
0000
0000
0000
0000
0000
0000
0000
,
0010
1000
0101
0000
0002
0010
0000
0010
,
0103
0010
1000
0000
0101
0020
0000
0130
,
1000
0000
0001
0000
0000
0000
1100
0000
0000
0000
0101
0000
0010
0000
0000
0010
,
0100
0000
0000
0100
0001
0000
1100
0000
1000
0000
0010
0000
0100
0000
0001
0000
,
0100
0000
1000
0000
0100
0000
0010
1000
0001
0000
0100
0000
0001
0000
0010
0000
,
0011
0000
1000
0000
0100
1000
0010
0000
0100
0000
0001
0000
1000
0000
1000
0000
,
0010
0000
0100
0001
0010
0000
0001
1000
0010
0000
0200
0000
0000
0000
0310
0000
,
0110
0000
1001
0000
0000
0000
0001
0010
0001
0000
1000
0000
0120
0000
0000
1030
,
0101
0000
0000
0000
0020
0000
0000
1030
0010
0000
0100
0000
0001
0000
0010
0000
,
0001
0000
1000
0000
0010
0000
0020
0000
0000
0000
0130
0000
0100
0001
0010
0000
,
0000
0000
1000
0000
0010
0000
1002
0000
0000
0000
0013
0000
0010
0001
2000
0000
,
0000
0000
3010
0000
0110
0000
0100
0000
0002
0000
0000
0000
0013
0000
0001
0010
,
0100
0000
1000
0010
0100
0000
0010
0000
2000
0000
0100
0000
3010
0000
0100
0001
,
0010
0000
0001
0000
1000
0000
0020
0000
0000
0000
0130
0000
0001
0010
2000
0000
,
0000
0000
0000
0000
3010
0000
0000
0000
0001
0000
0100
0000
0010
0000
0000
0000
1000
0000
0010
1000
0100
0000
0010
0001
0010
0000
0001
0000
1000
0000
0010
0000
,
0100
0000
0001
0010
0100
0000
0010
0000
1001
0000
0100
0010
1000
0000
0001
0000
,
2100
0000
0000
3100
1000
0000
0102
0000
0000
0103
0001
0000
0010
0000
1001
0000
,
0000
0000
0100
0001
0010
0000
1000
0000
0010
0000
1001
0000
0010
0000
0200
0000
,
0000
0000
0310
0000
1000
0100
0010
0000
0001
0100
0001
0010
0100
0000
1000
0000
,
0101
0000
0000
0000
0010
0000
1000
0010
0100
0001
0010
0000
0001
0000
0001
0000
,
0012
0000
0000
0013
0001
0000
2010
0000
0000
3010
1000
0000
0010
0000
0200
0000
,
0000
0000
0301
0010
0001
0000
2100
0000
0000
0000
3010
0100
0001
0000
1000
0000
,
0000
0000
0010
0100
0001
1000
0010
1000
0100
0000
0010
0000
1001
0000
0000
0000
,
0001
0000
0010
0001
0100
0000
0020
0000
1000
0000
0100
0000
0130
0010
0100
0000
,
0000
0000
2100
0000
0000
0000
0020
3000
0000
0000
0100
0030
0100
0001
0010
0000
,
0000
0000
1000
0000
0001
0100
0010
0000
0000
0000
0010
0000
1000
0001
0100
0000
,
0000
0000
0010
1000
0001
0010
0001
0100
0010
0000
0010
0000
0100
0000
0001
0100
,
1000
0000
0010
0000
1000
0001
0010
0000
0000
0000
0101
0000
0010
1000
0001
0000
,
0000
0002
0000
2003
0000
3010
1001
0010
,
0000
0000
0100
0001
1000
0010
0100
0000
0000
0000
1000
0100
0001
0100
2000
0000
,
0000
0000
0000
0000
3010
0000
0000
0000
0200
0000
0000
0000
0310
1000
0010
1000
,
0001
0000
0001
0010
0000
1000
0000
1000
,
0010
0000
0000
0000
1000
0001
0010
0001
,
1000
0010
0100
1001
,
0000
0000
0001
0010
0001
0100
0010
1000
,
0001
0100
0101
0010
,
1000
0001
0100
0010
0100
0000
0010
0000
,
2100
0000
0000
3100
0010
0000
0102
0000
,
0000
0103
0010
0000
1000
0000
0001
0000
,
0110
0010
1100
1000
,
0101
0000
0001
0000
0010
0100
0001
1000
,
0010
1100
0001
0010
,
0001
0100
0010
1000
0100
0000
1002
0000
,
0000
0103
0010
0000
0000
0000
2001
0000
,
0000
3100
0010
0000
0010
0000
1001
0000
,
0000
0000
1000
0000
0001
0010
0001
1000
,
0010
0100
0010
0000
0110
0000
1001
0000
,
0020
0030
1000
0001
0100
0000
0001
0000
,
1100
0000
0010
0000
0101
0000
0001
0010
,
1000
0010
1001
0100
,
0100
0010
1000
0000
0001
0000
0100
0001
,
0010
0001
0100
0010
1000
0000
0010
0000
,
1001
0000
0010
0000
1000
0001
0100
0001
,
0010
0000
0001
1000
0100
1000
0010
0000
,
0110
0000
0100
0000
0001
0010
0001
1000
,
0010
0100
0010
1000
0001
0000
0200
0000
,
0001
0000
0001
0000
0301
0000
0010
0001
,
1000
0010
0100
0001
2000
0000
0000
0000
,
3020
0100
0000
0130
,
0110
0000
1001
0000
0010
0000
0100
0001
,
0010
0000
0001
0000
1000
0001
0010
0001
,
0100
0010
1000
0100
0010
0001
1000
0010
,
0100
0000
0001
0000
0010
0000
0001
0000
2000
0000
0000
0000
3010
0000
0100
0001
,
1000
0000
0000
0000
0010
0000
0100
0000
0001
0000
0010
0000
0001
0000
0100
0000
0010
1000
0010
0000
0100
0000
0010
0000
0100
0001
0100
0000
0001
0000
0010
0000
,
0100
0010
0100
0000
1000
0000
0001
0000
1000
0001
1000
0000
1001
0000
0000
0000
0010
0000
0100
0001
0010
0000
0001
0000
0100
0000
0010
0000
0010
0000
0000
0000
,
0110
0000
1010
0000
1100
0000
0000
0000
0101
0000
0000
0000
0011
0000
0000
0000
1001
0000
0000
0000
0000
0000
0000
0000
0100
0000
0000
0000
0010
0000
0100
0001
,
0010
0100
1000
0000
0101
0000
0010
0000
2002
0000
0000
0000
3003
0000
0000
0000
;

//--------------- dance-double - ----------------
#NOTES:
     dance-double:
     :
     Easy:
     7:
     0.430015,0.579054,0.430015,0.293192,0.003258,462,396,66,45,0,0,0,0,0,0.430015,0.579054,0.430015,0.293192,0.003258,462,396,66,45,0,0,0,0,0:
00000000
00000000
00000000
00000000
,
00000000
00000000
00000000
00000000
,
00000000
00000000
00000000
00000000
,
00000000
00000000
00000000
00000000
,
00100000
00010000
01000000
00001000
,
00010000
00010000
00001000
00000000
,
00020000
00000000
00030100
00000000
,
00001000
00000001
00000100
00000010
,
00002000
00000000
00003100
00000000
,
00011000
00110000
01100000
00000000
,
00010000
00100000
00001000
00020000
,
00000000
00002000
00000000
00033000
,
00011000
00000000
00010000
00000000
00001000
00010000
00001000
00000000
,
00100000
00000000
00000000
00110000
00000000
00000000
00100000
00000000
,
00001000
00010000
00000100
00000010
,
00000100
00001000
00000001
00000110
,
00001001
00000000
00000000
00000000
00001000
00000001
00001000
00000000
,
00000100
00000000
00000000
00011000
00000000
00000000
01000000
00100000
,
00000000
10000000
00010000
00100000
,
00020000
00000000
20000000
30030000
,
00010000
00110000
00001000
00011000
,
00000100
00001000
00000020
00000030
,
00001000
00000001
00001000
00001001
,
00000100
00001000
00020000
00100000
,
01030000
00000000
01000000
00010000
00000000
00100000
00000000
00001000
,
00000000
00011000
00000000
00010000
00000000
00000000
00000100
00010000
,
00002000
00003200
00000320
00000032
,
00001003
00000000
00001001
00011000
,
10010000
10000000
00010000
10000000
,
00010000
10000000
00010000
00000000
10000000
00010000
10000000
00000000
,
00100000
00010000
00001000
00000100
,
00001010
00000101
00001000
00000001
,
00001001
00000000
00011000
00000000
,
01000000
00100000
10010000
00000000
,
01000000
00100000
01000000
00100000
,
02020000
00000000
00030000
03001000
,
00011000
00010000
00000100
00001000
,
00000001
00000000
00001000
00000001
00001000
00000000
00000020
00000000
,
00000000
00002030
00023000
00130000
,
01100000
00000000
10000000
00000000
00010000
00000000
00100000
00010000
,
00100000
00001000
00010000
00000100
,
00001000
00000010
00000100
00001001
,
00000000
00000000
00000001
00000000
00001000
00002000
00000000
00000000
,
00000001
00000002
00000000
00000000
00003003
00000000
00001001
00000000
,
00001000
00010000
00100000
00000000
00001000
00010000
00000100
00001000
,
00000010
00000100
00000020
00000000
00000030
00000000
00001000
00000001
,
00001001
00000000
00000010
00000100
00000110
00000000
00020000
00000000
,
00030000
00011000
10010000
00010000
,
00100000
00000000
00001000
00010000
00001000
00010000
00000100
00000010
,
00000100
00002000
00003000
00000101
,
00000000
00000000
00000010
00000010
00000010
00000010
00000020
00000000
,
00000030
00000000
00010000
00001000
00010000
00001000
00011000
00000000
,
00000000
00010000
00000000
00000000
00001000
00000000
00000000
00100000
,
00010000
01000000
00100000
10000000
,
00010000
10000000
00000000
01000000
00000000
01000000
00000000
00000000
,
00100000
00001000
00010000
00000100
,
00001000
00000001
00000100
00001000
,
00001100
00000001
00000101
00002000
,
00000000
00003001
00000000
00001001
,
00001001
00000000
00000000
00000000
00000110
00000000
00000000
00000000
00000110
00000000
00000000
00000000
00010000
00000000
00000000
00001000
,
01000000
00020000
10000000
10030000
,
00100000
00000000
00001000
00010000
00000000
00000000
00001000
00000000
,
00010000
00000000
00000100
00001000
00000001
00000000
00001000
00000000
,
00002002
00003003
00000010
00001000
,
00000100
00001100
00000010
00000001
,
00000100
00000101
00001000
00000001
,
00001001
00000000
00000000
00000000
00000010
00011000
00100000
00011000
,
01000000
00000000
00100000
00000000
10000000
01000000
00010000
00000000
,
00020000
00000000
00000000
00032000
00000000
00000000
01003000
00000000
,
01100000
00000000
00000000
00000000
00010000
00001000
00010000
00001000
,
00010000
00000000
00000000
00000000
00001000
00010000
00001000
00010000
,
00001000
00000000
00010000
00000100
,
00000010
00000000
00000000
00001001
00000000
00000000
00000100
00000000
,
00001000
00010000
00100000
01000000
,
20000000
00000000
30010000
10010000
,
00100000
00001000
00100000
00001000
,
00010000
00001000
00022000
00033000
,
00010000
00010000
00010000
00000000
00001000
00001000
00001000
00000000
,
00010000
00000000
00001000
00000000
,
00000100
00000000
00000100
00000010
00000000
00000010
00001000
00000001
,
00000000
00000020
00000000
00000130
00000000
00000010
00000010
00000000
,
00000100
00000000
00001000
00000000
00000100
00000000
00001000
00000100
,
00000000
00001100
00011000
00000000
,
00002000
00000000
00013000
00020000
,
00000000
00031000
00010000
00000100
,
00000000
00010010
00000000
00001001
,
00000000
00001000
00000001
00001000
,
00000100
00000000
00001100
00000000
,
00011000
00000000
00100000
00010000
,
10000000
00000000
00000000
01100000
,
00000000
00000000
00011000
00000000
,
00010000
00000000
00001000
00000000
,
00010000
00001000
00010000
00000000
,
00000100
00000000
00000010
00000000
,
00000100
00001000
00000000
00000200
,
00000000
00001300
00000000
00000200
,
00000000
00000301
00000000
00000000
,
00001000
00000000
00000001
00000000
,
00000010
00000000
00001001
00000000
,
00000100
00000000
00001000
00000001
,
00001000
00000000
00000100
00000000
,
00010000
00001000
00010000
00000000
,
00110000
00000000
10000000
01000000
,
00010000
00000000
00001000
00010000
,
00000100
00001000
00000000
00000000
,
00000002
00000000
00002003
00000000
,
00003100
00000000
00001001
00000000
,
00000000
00000000
00000001
00001000
,
00000010
00000100
00001000
00000000
,
00010000
00000000
01000000
10000000
,
00010000
00000000
00020000
00000000
,
01030000
00000000
20000000
00000000
,
31000000
00000000
00101000
00000000
,
00011000
00000000
00010010
00000000
,
01000100
00000000
00022000
00000000
,
00033000
00000000
00000000
00000000
00010000
00010000
00001000
00001000
,
01000000
00100000
01100000
00000000
00020000
00000000
00130000
00000000
,
00002000
00000000
00003100
00000000
00000010
00000100
00001000
00010000
,
00011000
00000000
10010000
00000000
;

//--------------- dance-double - 2024 chart ----------------
#NOTES:
     dance-double:
     2024 chart:
     Medium:
     9:
     0,0,0,0,0:
00000000
00000000
00000000
00000000
,
00000000
00000000
00000000
00000000
,
00000000
00000000
00000000
00000000
,
00000000
00000000
00000000
00000000
,
10000000
00010000
10000000
00000000
00100000
01000000
00010000
00000000
,
00100000
00000000
00001000
00000000
00010000
00000100
00001000
00000010
,
00000000
00000000
00000110
00000000
00001001
00000000
00000001
00001000
,
00000000
00000000
00000100
00000000
00010000
00001000
00010000
00000000
,
00002000
00000000
00003000
00000000
00010000
00001000
00100000
00000000
,
01000000
00000000
01100000
00000000
10000000
00100000
10000000
00100000
,
00000000
10000000
01000000
00000000
00010000
00001000
00010000
00000100
,
00000000
00000010
00000001
00000000
00000101
00000000
00001100
00000000
,
00000001
00000000
00001000
00000000
00000001
00000100
00001000
00010000
,
00002000
00000000
00103000
00020000
00000000
01030000
00100000
00000000
,
10000000
01000000
00100000
00010000
01000000
00001000
00010000
00001000
,
00010000
00000100
00001010
00000011
,
00000001
00000010
00001000
00010000
00001000
00100000
00010000
00000000
,
20000000
00000000
30010000
00200000
00000000
00301000
00010000
00000000
,
00021000
00000000
00030100
00000000
00000010
00000100
00000010
00000002
,
00000000
00001003
00000100
00000000
00000020
00000000
00000130
00000000
,
00001001
00000000
00000000
00000000
00001000
00001000
00000001
00000000
,
00000100
00000000
00001000
00001000
00010000
00000000
00001000
00000000
,
00101000
00000000
00100000
00000000
00010000
01000000
00010000
00000000
,
10010000
00000000
00010000
00000000
10000000
01000000
10000000
00000000
,
01100000
00000000
01000000
00010000
00000000
00100000
00001000
00010000
,
00000000
00002000
00000000
00013000
00000000
00000000
00011000
00000000
,
00000100
00000000
00001000
00000000
00000001
00000000
00001000
00001001
,
00000000
00001000
00002010
00003100
,
00010000
00001000
00010000
00000000
00001000
00000000
00200000
00000000
,
00310000
10100000
00110000
10010000
,
10000000
00100000
10000000
01000000
00010000
00001000
00010000
00001000
,
00000100
00000000
00000110
00000000
00001001
00000000
00000001
00000100
,
00002000
00000000
00013000
00001000
00100000
00010000
00100000
01000000
,
10000000
00000000
00010000
00100000
00000000
00001000
00010000
00000200
,
00000000
00001300
00000010
00000100
00000000
00000110
00000000
00001001
,
00000000
00000100
00001000
00100000
00010000
00000000
10010000
00000000
,
00011000
00000000
00010000
00010000
00000100
00001000
00000010
00000000
,
00000100
00001000
00000000
00010000
00001000
00100000
00010000
00000000
,
10000000
01000000
00000000
01010000
00000000
12000000
00000000
03100000
,
00010000
00100000
00001000
00001000
00010000
00000000
00010100
00000000
,
00001000
00000010
00000100
00000000
00001000
00000100
00000002
00000000
,
00000023
00000000
00000031
00001000
00000100
00000000
00000110
00000000
,
00001000
00000010
00000100
00001000
00010000
00001000
00000000
00000000
,
00200000
02000000
00000000
00000000
03000000
00300000
00010000
00000000
,
10000000
00000000
00010000
00100000
00000000
00000000
01000000
00000000
00100000
00001000
00010000
00000100
00000000
00001000
00000000
00000001
,
00000000
00000100
00000000
00000020
00000000
00000000
00000000
00000000
00000130
00000000
00000010
00000000
00001001
00000000
00000010
00000001
,
00000000
00000001
00000000
00000100
00000000
00001000
00010000
00000000
00001000
00000000
00100000
00020000
01000000
00000000
00000000
00000000
,
01030000
00000000
00100000
00000000
10000000
00000000
00000000
01100000
00000000
00000000
00010000
00000000
10010000
00000000
00000000
00000000
,
00100000
00000000
00100000
00001000
00000000
00000000
00010000
00000000
00000100
00010000
00000100
00001000
00000000
00001000
00000010
00001000
,
00000000
00000001
00000000
00000200
00000000
00000000
00000000
00000000
00000301
00000000
00001000
00000000
00001001
00000000
00000000
00000000
,
00001000
00000100
00000000
00010000
00001000
00000000
00000100
00000000
00000001
00000000
00001000
00000020
00000000
00000000
00000000
00000000
,
00000130
00000000
00000100
00000010
00000000
00001000
00000000
00000100
00000000
00010000
00001000
00000000
00011000
00000000
00000000
00000000
,
00000000
00100000
01000000
00000000
01100000
00000000
10000000
01000000
,
10000000
00100000
01000000
00000000
00010000
01010000
00000000
02000000
,
00000000
03001000
00000000
00010000
00000100
00002000
00000000
00000010
,
00003010
00000000
00001000
00000001
00000100
00000000
00000101
00000000
,
00000100
00000000
00000010
00010000
00001000
00000000
00120000
00000000
,
01030000
00000000
00100000
10000000
01000000
00100000
01000000
00000000
,
11000000
00000000
00100000
00010000
10000000
20020000
00000000
00000000
,
30030000
00000000
00000000
00000000
01000000
00000000
00001000
00000000
00010000
00000000
00000000
00000000
00001000
00000000
00000000
00010000
,
00011000
00000000
00100000
00010000
00000000
00100000
01000000
10000000
,
00100000
01000000
00010000
00010000
00000000
00000000
00102000
00000000
,
00010000
00000000
01000000
00000000
00013000
00001000
00010000
00000100
,
00001000
00000010
00000100
00001000
00010000
00000000
00010000
00000100
,
00000000
00000010
00000001
00000100
00001000
00010000
01000000
00000000
,
01100000
00000000
00010000
20000000
00000000
00000000
31000000
00000000
,
00010000
00000000
00001000
00000000
01000000
00000000
00000000
00000000
00010100
00000000
01001000
00000000
00010000
00010000
00001000
00001000
,
00010000
00000100
00000010
00000000
00000100
00001000
00000001
00000000
,
00000101
00000000
00000000
00001100
00000000
00010000
00001000
00100000
,
00000000
00001000
00010000
00000010
00000000
00001000
00000100
00001000
,
00001010
00000000
00000011
00000000
00000100
00000010
00002000
00000000
,
00003100
00010000
00001000
00100000
00010000
00000000
10000000
01000000
,
11000000
00000000
00000000
01020000
00000000
10030000
01000000
00010000
,
00000000
00001000
00000100
00000010
00000000
00000001
00000010
00000010
,
00000000
00000001
00000100
00000010
00001100
00000000
00000011
00000000
,
00001001
00000000
00000100
00001000
00000000
00000010
00001000
00000100
,
00002000
00000000
00003002
00000000
00000103
00000010
00001000
00000100
,
00000000
00010000
00001000
00100000
00000000
00010000
00100000
00000000
,
01100000
00000000
00000000
00000000
10010000
00000000
00000000
00000000
10000000
00000000
00000000
00010000
01000000
00000000
00010000
00000000
,
00110000
00000000
10000000
10100000
00000000
01000000
00010000
00100000
,
00000000
00101000
00000000
00010200
00000000
00001300
00000010
00000100
,
00000000
00000001
00000100
00001000
00000000
00000000
00000110
00000000
,
00001000
00000101
00002020
00003030
,
00000100
00010000
00001000
00100000
,
00010000
00000000
01000000
00000000
00010000
00000000
00000000
10000000
,
00010000
10000000
01000000
01100000
,
00000000
00100000
00001000
00010000
,
00000100
00001000
00000010
00000110
,
00000000
00000100
00000001
00000000
00001000
00000000
00000100
00000000
,
00010000
00000000
00011000
00001000
,
00000000
00011000
00100000
01000000
,
01100000
00000000
10000000
00000000
,
00010000
01000000
00001000
00010000
,
00000100
00000010
00000100
00001000
,
00000001
00000000
00001001
00001000
,
00000000
00000100
00010000
00001000
,
00000000
01001000
00000000
00010100
,
00000000
00010000
00010000
00001000
,
00200000
00000000
01300000
00000000
,
00200000
00301000
00010000
00000100
,
00001000
00000000
00000110
00000000
,
00001002
00000000
00000103
00001000
,
00010000
00000000
00101000
00000000
,
00020010
00000000
00031000
00100000
,
01000000
00000000
10000000
00100000
,
00000000
01010000
00000000
11000000
,
00000000
01000000
01200000
00000000
,
00310000
10000000
00000000
01000000
,
00100000
00001000
00000000
00101000
,
00000000
00010010
00000000
00000100
,
00000001
00001000
00000000
00000100
,
00000100
00010000
00001000
00100000
,
00010000
10000000
02000000
00000000
,
23000000
00000000
30020000
00000000
,
02030000
03000000
01200000
00000000
,
10000000
00000000
00000000
00000000
01300000
00000000
00010000
00000000
00100000
00000000
00001000
00010000
00000000
00000100
00010000
00000000
,
00000100
00000000
00001000
00000000
00000010
00000100
00000010
00000000
00000100
00000000
00000000
00000000
00000011
00000000
00001010
00000000
,
00000000
00000000
00000100
00000010
00001000
00000000
00000100
00000000
00020000
00000000
00000000
00000000
00031000
00000000
00100000
00000000
,
01000000
10000000
00010000
00000000
02000000
00000000
03100000
00000000
02200000
00000000
00000000
00000000
03300000
00000000
00000000
00000000
;

//--------------- dance-double - 2024 chart ----------------
#NOTES:
     dance-double:
     2024 chart:
     Hard:
     10:
     0,0,0,0,0:
00000000
00000000
00000000
00000000
,
00000000
00000000
00000000
00000000
,
00000000
00000000
00000000
00000000
,
00000000
00000000
00000000
00000000
,
01000000
00010000
00100000
01000000
00100000
00001000
00010000
00000100
,
00001000
00000000
00000010
00001000
00000010
00000000
00000100
00000000
00000001
00000000
00000010
00000000
00000100
00000000
00001002
00000000
,
00000000
00000103
00000010
00001000
00000100
00010000
00001000
00012000
,
00000000
00000000
00103000
00001000
00100000
00000000
00010000
00000000
00100000
01000000
10000000
00000000
01000000
00000000
10000000
00000000
,
10010000
00010000
00100000
00001000
01000000
00010000
00100000
01000000
,
00100000
00000000
00001000
00010000
00000100
00000000
00001000
00000000
00000010
00000000
00000100
00000000
00000001
00000000
00002001
00000000
,
00000000
00003100
00001000
00000010
00000100
00000001
00000010
00002100
,
00000000
00000000
00003010
00000000
00000100
00000001
00000010
00000001
00000100
00000000
00000010
00000000
00001000
00000000
00000100
00000000
,
00000010
00000000
00000001
00000010
00000001
00000000
00000100
00000000
00000010
00000000
00001000
00000000
00001100
00000000
00010000
00000000
,
00002000
00000000
00000000
00103000
00001000
00000000
00020000
00000000
00000000
00030010
00010000
00000000
00001000
00000000
00012000
00000000
,
00000000
00000000
00103000
00010000
00100000
00000000
00020000
00000000
01000000
00000000
01030000
00000000
00010000
00000000
00200000
00000000
,
01300000
00000000
10000000
01000000
10000000
00000000
00100000
00000000
01000000
00010000
00100000
00001000
00010000
00000000
00000100
00000000
,
00000110
00000000
00000000
00000010
00000001
00000000
00001000
00000001
00000100
00000000
00000010
00000000
00001000
00000000
00001010
00000000
,
00000020
00000000
00000000
00000130
00000001
00000000
00000020
00000000
00000000
00000130
00001000
00000000
00000100
00000000
00000120
00000000
,
00000000
00000000
00000031
00000000
00001000
00000010
00000200
00000000
00000000
00000000
00000310
00000000
00001000
00000100
00020000
00000000
,
00000000
00000000
00031000
00010000
00001000
00000000
00100000
00000000
00010100
00000000
00000000
00000000
01001000
00000000
00000000
00000000
,
10010000
00000000
00000000
10000000
01000000
00000000
20000000
00000000
00000000
30010000
00100000
00000000
00010000
00000000
01000000
00000000
,
00100000
10000000
00200000
00000000
00000000
00000000
01300000
00000000
00010000
00000000
01010000
00000000
00100000
00000000
21000000
00000000
,
00000000
00000000
30010000
00000000
01000000
00010000
00200000
00000000
00000000
00000000
00301000
00000000
00010000
00000100
00002000
00000000
,
00000000
00000000
00003010
00000000
00001010
00000000
00001000
00000000
00000100
00000000
00001000
00000000
00000001
00000010
00000001
00000000
,
00000010
00000100
00001000
00000000
00000010
00000000
00000100
00001000
00010000
00000000
00001000
00000000
00100000
00010000
01000000
00100000
,
10000000
00000000
00200000
00000000
01000000
00000000
02300000
00000000
00000000
00000000
03010000
01000000
00010000
00000000
01020000
00000000
,
00000000
00000000
00130000
00000000
00001000
00000000
00011000
00000000
00000000
00000000
00010000
00000010
00000100
00000000
00000120
00000000
,
00000000
00000000
00001030
00000100
00001000
00000000
00000001
00000010
00000001
00000000
00000100
00000000
00000101
00000000
00000000
00000000
,
00002010
00000000
00000100
00000000
00003100
00000000
00001000
00000010
00001000
00000000
00000001
00000000
00000200
00000000
00000001
00000000
,
00000302
00000000
00000000
00000013
00000200
00000000
00000000
00001300
00000010
00000000
00001000
00000100
00002000
00000000
00000000
00000000
,
00003100
00000000
00001000
00000001
00001000
00000000
00000010
00000100
00000010
00000000
00001000
00000000
00000100
00010000
00002000
00000000
,
00000000
00000000
00013000
00000000
00001000
00100000
00010000
00000000
00210000
00000000
00000000
00000000
01300000
00000000
10000000
00000000
,
12000000
00000000
00000000
00000000
03100000
00000000
00010000
00000000
01000000
00010000
00100000
01000000
00100000
00000000
00100000
00000000
,
00002000
00000000
00000000
00013000
00000100
00000000
00001000
00000100
00001000
00000000
00000010
00001000
00000001
00000000
00000020
00000000
,
00000130
00000020
00000031
00000011
00000000
00001010
00001000
00001001
,
00000100
00000001
00000100
00000000
00000010
00001000
00000010
00000000
00002000
00000000
00003200
00000000
00020300
00000000
00031000
00000000
,
00101000
00000000
00100000
00010000
00100000
00000000
01000000
00000000
01100000
00000000
01000000
00000000
20000000
00000000
00000000
30010000
,
00100000
00000000
00010000
00000000
10010000
00000000
10000000
01000000
20000000
00000000
00020000
00000000
30000000
00000000
10000000
00000000
,
00000000
00000000
01030000
00000000
00001000
00000000
00010000
00000000
00000100
00000000
00010200
00000000
00000000
00000000
00001300
00000100
,
00000010
00000000
00000110
00000000
00000001
00000010
00000100
00001000
00000100
00000000
00002000
00000000
00003010
00000000
00000010
00000000
,
00001000
00000001
00000100
00000100
00001000
00010000
00021000
00000000
,
01030000
00000000
00100000
00000000
00010000
00000000
10000000
01000000
10000000
00000000
00200000
00000000
00000000
00000000
01000000
00000000
,
01300000
00000000
00010000
00000000
00100000
00001000
00010000
00000000
00011000
00000000
00020000
00000000
00000000
00000000
00030100
00000000
,
00001000
00000000
00000020
00000000
00000000
00000030
00000010
00000000
00000100
00000010
00000100
00000010
00002000
00000000
00000100
00000000
,
00003002
00000000
00000000
00000000
00000013
00000000
00000020
00000000
00000000
00000000
00000031
00000000
00000010
00000000
00000000
00000000
00000100
00001000
00000001
00001000
00000100
00000000
00002000
00000000
00000000
00000000
00003010
00000000
00010000
00000000
00001000
00000000
,
00000000
00101000
00000000
00200000
01000000
00000000
01000000
00000000
00310000
00000000
10000000
10000000
00020000
00000000
01030000
00010000
,
00100000
00001000
00000000
00010000
00000000
00000100
00000100
00001000
00000010
00000000
00000100
00000002
00001000
00000000
00001000
00000000
,
00000013
00000000
00000000
00000000
00000100
00000000
00000010
00000000
00000000
00000000
00000001
00000000
00000100
00000000
00001000
00000000
00000000
00000000
00010000
00001000
00100000
00000000
00000000
00000000
01200000
00000000
00000000
00000000
00010000
00000000
00000000
00000000
,
00320000
00000000
00000000
00000000
10030000
00000000
02000000
00000000
00000000
00000000
13000000
00000000
00100000
00000000
00000000
00000000
01000000
00010000
00100000
00010000
01000000
00000000
00100000
00000000
20000000
00000000
00000000
00000000
31000000
00000000
00010000
00000000
,
00001000
00010000
00000000
00020000
00000100
00000000
00000100
00000000
00030010
00000000
00001000
00000001
00000010
00000000
00000100
00000120
,
00000000
00000001
00000000
00001030
00000010
00000001
00000200
00000000
00001300
00000000
00010000
02000000
00100000
00000000
10000000
00000000
,
03100000
00000000
00000000
00000000
01000000
00000000
10000000
00000000
00000000
00000000
00010000
00000000
00000000
00000000
10010000
00000000
00000000
00000000
00100000
00001000
00010000
00000000
00000100
00000000
00002100
00000000
00000000
00000000
00000000
00000000
00000000
00000000
,
00003010
00000100
00000101
00000000
00000020
00000001
00000000
00000130
,
00000010
00000100
00010000
00000000
00001000
00012000
00000000
00103000
,
00010000
10000000
00000000
00110000
00000000
20100000
00000000
01000000
,
31000000
00000000
10000000
01000000
00100000
00000000
00010000
00000000
01000000
00000000
00001000
00000000
00010000
00000000
00000100
00000000
,
00010000
00000000
00001000
00000000
00100000
00000000
01000000
00100000
00001000
00000000
00010000
00000000
00000100
00000000
00001000
00000000
,
00000010
00000000
00000100
00000000
00000001
00000100
00001000
00000000
00000100
00000000
00000120
00000000
00000000
00000000
00001030
00000100
,
00000010
00000000
00000001
00000000
00001000
00000100
00001000
00000000
00000010
00000000
00002000
00000000
00000000
00000000
00003100
00000000
,
00010100
00000000
00020000
00000000
00000000
00000000
00031000
00000000
00100000
00000000
00010000
00000000
01020000
00000000
00000000
00130000
,
11000000
00000000
20000000
00100000
30100000
10000000
01000000
00010000
,
00001000
00100000
00010000
00020000
00000000
01000000
01030000
00001000
,
00010000
00000100
00001000
00002100
00000000
00003010
00000100
00000102
,
00000000
00000000
00001003
00000000
00000010
00000000
00001000
00000000
00001200
00000000
00000000
00000000
00010300
00000000
00001000
00100000
,
00010000
00000000
00100000
01000000
00100000
00000000
00010000
00000000
02000000
00000000
00100000
00000000
03010000
00000000
10000000
01000000
,
10000000
00000000
00100000
00000000
10000000
00000000
01020000
00000000
00000000
00000000
00130000
00000000
00001000
00010000
00000200
00000000
,
00000000
00000000
00000000
00000000
00001300
00000000
00000010
00000000
00001000
00000000
00000000
00000000
00000001
00000000
00000000
00000000
00000010
00000000
00000100
00001000
00000010
00000000
00000100
00000001
00000010
00000000
00000100
00000000
00010000
00000000
00001000
00000000
,
00011000
00000000
00100000
00010000
01000000
00000000
00100000
00000000
10100000
00000000
10000000
00000000
01000000
00000000
10000000
00000000
,
00120000
00000000
00000000
00130000
00010000
00000000
20100000
00000000
00000000
30100000
10000000
00000000
01000000
00000000
20010000
00000000
,
00000000
00000000
30100000
00000000
01000000
00010000
00200000
00000000
00301000
00000000
00010000
00000100
00001000
00000000
00000020
00000000
,
00000000
00000000
00000130
00000001
00000010
00000000
00000001
00000000
00000010
00000001
00000100
00001000
00010000
00000000
00000100
00000000
,
00020100
00000000
00000000
00000000
00031000
00000000
00100000
00000000
00001000
00100000
00010000
00000000
00100000
00000000
01000000
00000000
,
02100000
00000000
00000000
13000000
00100000
00000000
02100000
00000000
00000000
03010000
00100000
00000000
00001000
00000000
00020000
00000000
,
00000000
00000000
00030100
00000000
00010000
00000100
00002000
00000000
00000010
00000000
00003010
00000000
00000100
00000000
00000002
00000000
,
00000000
00000000
00000013
00000001
00000010
00000000
00000100
00000000
00001000
00000010
00001000
00000100
00010000
00001000
00100000
00010000
,
10000000
00000000
01000000
10000000
01000000
00000000
20000000
00000000
00100000
00000000
30100000
00000000
01000000
00010000
00100000
00000000
,
00000000
00000000
00102000
00000000
00000000
00000000
00023000
00000000
00000100
00000000
00030100
00000000
00001000
00000010
00002000
00000000
,
00000000
00000000
00003001
00000000
00000010
00000001
00000200
00000000
00000010
00000000
00000310
00000000
00001000
00000001
00000200
00000000
,
00000000
00000000
00001300
00010000
00001000
00100000
00010000
00000000
00100000
00000000
00010000
10000000
01000000
10000000
00100000
00000000
,
10000000
00000000
00100000
00000000
01000000
00010000
00100000
00000000
00001000
00000000
00101000
00000000
00000000
00000000
00010020
00000000
,
00000000
00000000
00000130
00000000
00000001
00001000
00000002
00000000
00000000
00000000
00000013
00000000
00000100
00000000
00002100
00000000
,
00000000
00000000
00003010
00000000
00001000
00000100
00020000
00000000
00000000
00000000
00031000
00000000
00100000
00001000
00010000
00001000
,
00000000
00010000
00000100
00000000
00001000
00000020
00000000
00000000
00000130
00000000
00000100
00000000
00000001
00001000
00000001
00001000
,
00000100
00000000
00000100
00020000
00000000
00000000
00031000
00000000
,
00001000
00200000
00000000
00000000
01300000
00000000
10000000
01000000
,
10000000
00100000
10000000
01020000
,
00100000
00000000
00130000
00001000
00100000
00000000
00001000
00010000
,
00000100
00001000
00001001
00000020
,
00000001
00000000
00000031
00000010
00000001
00000100
00000001
00000000
,
00020010
00000000
00000000
00030100
00010000
00000000
00102000
00000000
,
00000000
01003000
00001000
00000000
00010000
00000000
01000000
00000000
,
01100000
00100000
00110000
10000000
,
10100000
00000000
01000000
00000000
00010000
00100000
00010000
00000000
,
00200000
00000000
00001000
00000000
00301000
00100000
00001000
00000000
,
00010200
00000000
00000000
00001300
00000010
00000000
00000201
00000000
,
00000000
00000310
00001000
00000000
00000100
00000000
00001200
00000000
,
00000000
00000310
00000001
00000000
00000100
00000000
00001002
00000000
,
00000000
00000000
00000013
00000001
00000010
00000000
00000001
00000000
,
00000100
00001000
00010000
00000000
00001000
00000000
00100000
00000000
,
00020000
00030000
10000000
00010000
00100000
00000000
00001000
00000000
,
00011000
00000000
00010000
00000000
00000100
00001000
00000010
00000000
,
00000100
00000000
00000102
00000000
00000000
00000000
00000013
00000001
,
00000010
00000000
00000001
00000000
00001000
00000100
00010000
00000100
,
00000010
00000100
00000010
00000000
00000100
00010000
00001000
00010000
,
00001000
00000000
00200000
00000000
00310000
00000000
00100000
01000000
,
10000000
00000000
00200000
00000000
10300000
00000000
01000000
10000000
,
00020000
00000000
20030000
00000000
31000000
00000000
00100000
00001000
,
00010000
00000000
02000000
00000000
03100000
00000000
00001000
00010000
,
00000200
00000000
00000310
00000000
00001000
00000000
00000001
00000100
,
00001000
00000000
00010000
00000000
01000000
00000000
10000000
01000000
,
00010000
00020100
00000000
00031000
,
01000000
01002000
00000000
00013000
,
00000100
00000010
00000001
00000000
00001000
00000100
00002000
00000000
,
00003001
00000010
00000002
00000000
00000103
00001000
00020000
00000000
,
01030000
10000000
00100000
10000000
02000000
00000000
10000000
10000000
,
03100000
00000000
00010000
00000000
00100000
00000000
00000000
00000000
01000000
00000000
10000000
00010000
10000000
00000000
00010000
00000000
00100000
00000000
00001000
00100000
00001000
00000000
00010000
00000000
00000100
00000000
00001000
00000100
00001000
00000000
00000010
00000000
,
00001000
00000000
00000001
00000100
00000001
00000000
00000010
00000000
00000100
00001000
00000100
00000000
00010000
00000100
00010000
00000000
00001000
00000000
00100000
00010000
00100000
00000000
00010000
00000000
01000000
00010000
01000000
00000000
00100000
00000000
10000000
00000000
,
11000000
00000000
01100000
00000000
00110000
00000000
01000000
00000000
00010000
00000000
00100000
00001000
00010000
00000000
00000100
00000000
00002000
00000000
00000001
00000000
00000001
00000000
00000000
00000000
00003001
00000000
00000000
00000010
00000001
00000000
00000100
00000000
,
00000001
00000100
00000001
00000000
00001000
00000000
00000010
00000000
00000100
00000000
00001000
00000000
00020000
00000000
00000000
00000000
00002000
00000000
00000000
00000000
00000000
00000000
00000000
00000000
00033000
00000000
00000000
00000000
00000000
00000000
00000000
00000000
;
