#TITLE:AMONG US TRAP REMIX;
#SUBTITLE:;
#ARTIST:JVST X;
#TITLETRANSLIT:;
#SUBTITLETRANSLIT:;
#ARTISTTRANSLIT:;
#GENRE:;
#CREDIT:;
#MUSIC:Among Us Trap Remix.mp3;
#BANNER:;
#BACKGROUND:;
#CDTITLE:;
#SAMPLESTART:0.020;
#SAMPLELENGTH:15.000;
#SELECTABLE:YES;
#OFFSET:-0.116;
#BPMS:0.000=94.000;
#STOPS:;
#BGCHANGES:;
#FGCHANGES:;

//--------------- dance-single - ----------------
#NOTES:
     dance-single:
     :
     Beginner:
     1:
     0,0,0,0,0:
0000
0000
0000
0000
,
0000
0000
0000
0000
,
0000
0000
0000
0000
,
0000
0000
0000
0000
,
0100
0000
0000
0000
,
0001
0000
0000
0000
,
1000
0000
0000
0000
,
0010
0000
0010
0010
,
0010
0000
0000
0000
,
0100
0000
0000
0000
,
0100
0000
0100
0100
,
0100
0000
0000
1001
,
1001
0000
1000
0000
,
0001
0000
0000
0000
,
0010
0000
0100
0000
,
0010
0000
0010
0010
,
0010
0000
0000
0000
,
1000
0000
1000
0000
,
0001
0000
0001
0000
,
1001
0000
0110
0110
,
0110
0000
1000
0000
,
0001
0000
0001
0000
,
1000
0000
0010
0000
,
0010
0000
0110
0110
,
0110
0000
0000
0000
,
1000
0000
0000
0000
,
0001
0000
0000
0000
,
1001
0000
1001
1001
,
1001
0000
0000
0000
;

//--------------- dance-single - ----------------
#NOTES:
     dance-single:
     :
     Easy:
     4:
     0,0,0,0,0:
0000
0000
0000
0000
,
0000
0000
0000
0000
,
0001
1000
0100
0100
,
0110
0000
0000
0000
0010
0001
0010
1000
,
0010
0100
1000
0001
,
0101
0000
1100
0000
,
0010
1000
0001
0100
,
0100
0000
0100
0000
0001
1000
0001
1000
,
0001
0000
1000
0100
,
0100
0000
0000
0010
,
0001
0000
0001
0100
,
0100
0000
0000
1001
,
0110
1000
0010
0001
,
0010
0000
0100
0000
,
1000
1000
0001
0001
,
1000
0000
0001
0000
1000
0001
1000
0001
,
1000
0000
0100
0100
,
0100
0100
0110
0000
,
0001
0000
0010
0000
,
1000
0000
0000
0000
0010
0100
0010
0100
,
0010
0000
0000
0001
,
0010
1000
0010
0000
,
1000
0000
0001
0000
,
1001
0000
0000
0000
0100
0010
0100
0010
,
0100
0000
0000
0000
,
1000
0000
0001
0000
,
0100
0000
0000
0000
,
0010
0000
0000
0000
0100
1000
0100
0001
,
0100
0000
0000
0000
;

//--------------- dance-single - ----------------
#NOTES:
     dance-single:
     :
     Medium:
     6:
     0,0,0,0,0:
0000
0000
0000
0000
,
0000
0000
0000
0000
0000
0000
0000
0010
,
0010
1000
0001
0100
,
1001
0000
0000
0000
0000
0000
1000
0100
1000
0001
0100
0001
,
0010
0001
1000
0010
,
0100
0000
0010
0010
0010
0000
1000
0000
,
1100
0001
0101
0010
,
0100
0000
0000
0010
0000
0000
0001
0100
0001
1000
0100
1000
,
0010
0000
0000
0000
1000
0010
1000
0000
,
0100
0000
0000
0000
0001
0010
0001
0000
,
1001
1000
0010
0001
,
0100
0000
0000
0000
0000
0100
1001
0000
,
0010
1000
0010
0001
,
0010
0000
0000
0100
0100
0000
0010
0100
,
0010
0001
1000
1001
,
1001
0000
0000
0100
0000
0000
0001
0010
0001
1000
0010
1000
,
0100
0000
1000
0001
,
1001
0000
0000
0010
0010
0000
0100
0010
,
0100
0000
1000
0001
,
1001
0000
0000
0000
0000
0000
1001
0000
0000
0000
0000
0000
1001
0000
0000
1001
0000
0000
0100
0000
0100
0000
0100
0000
,
0100
0000
0010
0000
1000
0001
0010
0100
,
0010
0000
0000
0010
0010
0000
0000
0000
,
1000
0100
0001
0010
,
0110
0000
0000
0000
0000
0000
1000
0010
1000
0001
0010
0001
,
0100
0000
1000
1000
0001
0001
1000
0001
,
0100
0000
0000
0110
0010
0000
0000
0000
,
1001
1000
0010
0001
,
0100
0000
0000
0000
0000
0000
1000
0100
0010
0001
0010
0100
,
0110
0000
0000
0000
;

//--------------- dance-single - ----------------
#NOTES:
     dance-single:
     :
     Hard:
     8:
     0,0,0,0,0:
0000
0000
0000
0000
,
0000
0000
0000
0000
0000
0000
0000
1100
,
0101
0000
0010
0001
0100
1000
0100
0100
,
0100
0000
0000
0000
0000
0000
1000
0100
0010
0001
0010
0100
,
1000
1000
0001
0000
0101
0000
0100
0000
0001
0010
0001
0000
1000
0000
0100
0000
,
1100
0000
1100
0000
1010
0000
0010
0100
0001
0000
0001
0000
1000
0100
0000
0100
,
0010
0010
0001
0000
1000
0000
0001
0000
0100
0000
0101
0000
1100
0000
0010
0000
,
1000
0000
0000
0010
0000
0000
0000
0000
0000
0010
0000
0000
0100
0000
0000
0001
0000
0000
0000
0000
0000
0001
0000
0000
1000
0000
0000
0000
1000
0000
0000
0000
0100
0000
0000
0000
0001
0000
0000
0000
0001
0000
0000
0000
0100
0000
0000
0000
,
0010
0001
0010
0000
0101
0000
0010
1000
0000
1000
0001
0000
0010
0001
0100
0000
,
1000
0100
0001
0000
1000
0000
0100
0010
0010
0000
0001
0000
0101
0001
1000
0000
,
0100
0000
0010
0000
0100
0010
0001
0000
0001
1000
0010
0000
0010
0000
1100
0000
,
0101
0000
0000
0000
0000
0000
0000
0000
0000
0000
0010
0000
0110
0100
0001
0000
,
0011
0000
0010
0100
0010
0000
0100
0000
1000
0000
0101
0000
1000
0000
1000
0000
,
1010
0000
0000
0000
0010
0000
0100
0001
0010
0000
0010
0000
0001
1000
0000
0100
,
0100
0010
0011
1010
0110
1000
1000
0100
,
0001
0000
0000
0010
0000
0000
0001
0000
0000
0000
0000
0000
1000
0000
0000
0000
0000
0000
0010
0000
0000
0000
0000
0000
0010
0000
0000
0000
1000
0000
0000
0000
1000
0000
0000
0000
0100
0000
0000
0000
0001
0000
0000
0000
0001
0000
0000
0000
,
0110
0000
0100
0100
0100
0100
0100
0100
,
1000
0010
0000
0000
0000
0001
0100
0001
0100
0000
0000
0000
0000
0000
0110
0000
,
0010
1000
0000
0000
0001
0000
0010
0000
0010
0001
0010
0000
0001
0000
1000
0000
,
0110
0000
0000
0000
0000
0000
0000
0000
0000
1000
0000
0000
0100
0000
0000
0000
0000
0000
0100
0000
0000
0000
0000
0000
0011
0000
0000
0000
0001
0000
0000
0000
0001
0000
0000
0000
1010
0000
0000
0000
1000
0000
0000
0000
1000
0000
0000
0000
,
0100
0000
0010
0001
1000
0010
0100
0100
,
0001
1000
0100
0000
0100
0000
0010
0001
1000
0000
0110
0000
0100
0001
0000
1000
,
0100
0000
0000
0000
0010
0001
0010
0000
0100
0000
0010
0000
0100
1000
0010
0000
,
1000
0000
0000
0010
0000
0000
0000
0000
0000
0001
0000
0000
0010
0000
0000
0100
0000
0000
0000
0000
0000
0001
0000
0000
1000
0000
0000
0000
0100
0000
0000
0000
0010
0000
0000
0000
0001
0000
0000
0000
0010
0000
0000
0000
0100
0000
0000
0000
,
1001
0000
1000
1000
1000
0100
0001
0001
,
0001
0000
0000
0000
0000
0000
0010
0010
0010
0000
0000
0000
0000
0000
0000
0000
,
0110
0000
0100
0010
0010
0100
0010
0010
,
0110
0000
0000
0000
0000
0000
1010
1100
1000
0101
0011
0001
,
1001
0000
0000
0000
;
