#TITLE:American Pawn;
#SUBTITLE:(We Buy Gold);
#ARTIST:Frankie Flight and Chadtronic;
#TITLETRANSLIT:;
#SUBTITLETRANSLIT:;
#ARTISTTRANSLIT:;
#GENRE:;
#CREDIT:;
#MUSIC:American Pawn (We Buy Gold).ogg;
#BANNER:;
#BACKGROUND:;
#CDTITLE:;
#SAMPLESTART:15.496;
#SAMPLELENGTH:12.000;
#SELECTABLE:YES;
#OFFSET:-1.916;
#BPMS:0.000=140.000;
#STOPS:;
#BGCHANGES:-4.500=American Pawn (We Buy Gold).avi=1.000=0=0=0=StretchNoLoop====,
99999.000=-nosongbg-=1.000=0=0=0=StretchNoLoop====
;
#FGCHANGES:;

//--------------- dance-single - 8Chasey ----------------
#NOTES:
     dance-single:
     8Chasey:
     Beginner:
     1:
     0,0,0,0,0:
0000
0000
0000
0000
,
0000
0000
0000
0000
,
0001
0000
1000
1000
,
1000
0000
0001
0001
,
0000
0100
0100
0000
,
0000
0010
0010
0000
,
0001
0001
0000
0110
,
0000
1000
0000
0000
,
0010
0000
0010
0010
,
0010
0000
0010
0000
,
0100
0000
0100
0100
,
0100
0000
0100
0000
,
0001
0000
0001
0000
,
1000
0000
1000
0000
,
0001
0000
1000
0000
,
0000
0000
0100
0000
,
1001
0000
0100
0100
,
0100
0000
0100
0000
,
0110
0000
0001
0001
,
0001
0000
1000
1000
,
1000
0000
0001
0000
,
1000
0000
0001
0000
,
0100
0000
0100
0000
,
0010
0000
0010
0000
,
0000
0100
0000
0000
,
0100
0000
0000
0000
,
0000
0010
0000
0000
,
1001
0000
0000
0000
;

//--------------- dance-single - 8Chasey ----------------
#NOTES:
     dance-single:
     8Chasey:
     Easy:
     3:
     0,0,0,0,0:
0000
0000
0000
0000
,
1000
0000
0001
1000
,
0001
0001
1000
1000
,
0010
0010
0100
0110
,
1001
0001
0000
0001
,
0000
1000
0000
1000
,
0010
0000
0100
0000
0000
0100
0000
0000
,
0010
0000
0010
0000
0000
0010
0000
0000
,
1000
0000
0001
1000
,
0001
0000
0100
0110
,
0010
0000
0100
0010
,
1000
0000
0001
1001
,
1000
0100
0100
0000
,
1000
0001
1000
0000
,
0001
0010
0010
0000
,
0100
0000
0010
0000
,
1001
0000
0001
0001
,
1000
0000
0010
0110
,
0100
0000
0001
0010
,
0001
0000
1000
1001
,
0001
0100
0100
0000
,
0001
1000
0001
0000
,
1000
0010
0010
0000
,
1000
0001
1000
0000
,
0001
0101
0000
0000
,
1001
0000
0000
0000
,
1000
1100
0000
0000
,
1001
0000
0000
0000
,
0000
0001
0000
1000
0000
0000
0000
0000
0000
0000
0000
0000
0000
0000
0000
0000
;

//--------------- dance-single - 8Chasey ----------------
#NOTES:
     dance-single:
     8Chasey:
     Medium:
     5:
     0,0,0,0,0:
0000
0000
0000
0000
,
0001
0000
1000
0000
0001
1000
0001
0000
,
1000
0000
0010
0000
1000
1000
0001
0000
,
0100
0001
0100
0000
0010
0000
1001
0000
,
1000
0000
0010
0000
0000
1000
0001
0000
,
0100
0001
0100
0000
0001
0000
0010
0000
,
0100
0010
0100
0000
0000
0110
0000
0010
,
0001
1000
0001
0000
1000
0100
0000
0000
,
0011
1000
0010
1000
,
0100
1000
0001
1001
,
1010
0001
1000
0100
,
0010
0000
0001
0000
0100
0100
0001
0000
,
1000
0000
0010
1000
0000
0001
1000
0000
,
0001
0000
0010
0001
0000
1000
0001
0000
,
0100
0000
0010
0100
0000
0100
0010
0000
,
1000
0001
0100
1001
,
0101
1000
0100
1000
,
0001
0000
0100
0000
0010
0100
0010
0000
,
1010
0010
0100
0001
,
0010
0001
1000
0000
0010
0010
0100
0000
,
0001
0000
0100
0001
0000
1000
0001
0000
,
1000
0000
0100
1000
0000
0001
1000
0000
,
0100
0000
0100
0010
0000
0100
0010
0000
,
0001
0010
0001
0000
1000
0000
0010
0000
,
0100
0000
1001
0000
0000
1010
0000
0000
,
0011
0000
0010
0000
0000
0001
0000
0000
,
0010
0000
0110
0000
0000
0110
0000
0000
,
1001
0000
0000
0000
,
0000
0001
0000
1000
0000
0001
0000
0000
0000
0000
0000
0000
0000
0000
0000
0000
;

//--------------- dance-single - 8Chasey ----------------
#NOTES:
     dance-single:
     8Chasey:
     Hard:
     7:
     0,0,0,0,0:
0000
0000
0000
0000
,
0010
0001
1000
0000
0010
0100
0010
0000
,
1000
0000
0000
0000
0001
0000
0000
0010
0000
0001
0000
0010
0001
0000
0000
0000
,
1000
0001
0100
0000
0010
0100
0110
0000
,
0100
0100
0001
0000
0010
0001
1000
0000
,
0010
0010
1000
0000
0100
1000
0001
0000
,
0100
0010
1000
0000
0001
1001
0000
1000
,
0010
1000
0001
0100
0010
0010
0000
0000
,
0101
0000
0001
0000
1000
0000
0000
0001
0000
1000
0000
0001
1000
0000
0000
0000
,
0010
0100
0001
0000
1000
0010
1010
0000
,
1100
0000
0010
0000
0100
0000
0000
1000
0000
0001
0000
1000
0001
0000
0000
0000
,
0100
0001
0010
0000
0100
0010
0110
0000
,
0001
0000
0100
0000
0100
0000
0001
0000
0000
0100
0000
0000
0001
0000
0000
0000
,
1000
0000
0100
0000
0100
0000
1000
0000
0000
0100
0000
0000
1000
0000
0000
0000
,
0010
0000
1000
0000
0001
0000
0100
0000
0000
0100
0000
0000
0001
0000
0000
0000
,
1000
0010
0100
0000
0001
0000
0101
0000
,
1100
0000
1000
0000
0001
0000
0000
0010
0000
0001
0000
0010
0001
0000
0000
0000
,
0100
0001
0010
0000
0100
1000
0001
0000
,
0101
0000
0001
0000
1000
0000
0000
0010
0000
1000
0000
0010
1000
0000
0000
0000
,
0100
0010
0100
1000
0001
0001
1001
0000
,
0100
0000
0001
0000
0010
0000
0001
0000
0000
0001
0000
0000
0010
0000
0000
0000
,
0100
0000
1000
0000
0010
0000
1000
0000
0000
1000
0000
0000
0010
0000
0000
0000
,
1000
0000
0001
0000
0010
0000
0100
0000
0000
0100
0000
0000
0010
0000
0000
0000
,
0001
0100
0001
1000
0010
0000
0110
0000
,
1001
1000
0001
0000
0000
0011
0000
0000
,
0101
0100
0100
0000
0000
1010
0000
0000
,
1100
0100
0100
0000
0000
0010
0000
0000
,
1001
0000
0000
0000
,
0000
0001
0000
1000
0001
1000
0000
0000
0000
0000
0000
0000
0000
0000
0000
0000
;

//--------------- dance-single - 8Chasey ----------------
#NOTES:
     dance-single:
     8Chasey:
     Challenge:
     10:
     0,0,0,0,0:
0000
0000
0000
0000
,
0001
0000
1000
0100
1000
0000
1000
0000
0001
0000
0010
0000
0011
0000
0000
0100
,
0001
0100
0001
1000
0100
0000
1000
0010
0000
1000
0000
0001
1000
0000
0001
0000
,
0010
0001
0010
0001
1000
0000
0010
1000
0001
0000
0100
0000
0110
0000
0000
0000
,
0101
0000
1000
0000
0100
0000
1000
0010
1000
0000
0001
0000
0001
0000
1000
0000
,
0010
0000
0100
0000
0001
0000
0010
0001
1000
0000
0100
0000
0100
0000
1000
0000
,
1010
0000
0000
0000
0011
0000
0100
0001
1000
0000
1001
0000
1001
0000
1000
0000
,
0010
0000
1000
0000
1000
0000
0100
1000
0001
0000
0100
0000
0110
0000
0000
0100
,
0001
1000
0001
1000
0010
0000
1000
0100
0000
1000
0000
0001
0010
0000
0001
1000
,
0100
1000
0010
0100
0010
0000
0100
0001
0010
0000
0110
0000
1001
0000
0000
0010
,
0001
0100
0001
1000
0100
0000
1000
0010
0000
1000
0000
0001
0100
0000
0100
0001
,
0010
0001
1000
0001
1000
0000
0100
1000
0001
0000
0011
0000
1010
0000
1000
0000
,
0100
1000
0100
1000
0000
0010
0100
0001
0100
0001
0000
1000
0010
0000
1000
0000
,
0001
0010
0001
0010
0000
0001
1000
0010
1000
0010
0000
1000
0100
1000
0001
0000
,
0100
0001
0100
0001
0000
0010
0100
1000
0100
1000
0000
0010
0100
0000
0010
0000
,
0101
0000
1000
0000
1100
0000
1000
0001
1000
0000
0000
0001
0010
0000
0001
1000
,
0100
1000
0010
1000
0001
0000
0010
0001
0000
0001
0000
0100
0001
0000
1000
0010
,
1000
0100
0010
0100
0010
0000
0001
1000
0010
0000
0110
0000
1001
0000
0000
1000
,
0010
1000
0100
0010
0001
0000
0100
0001
0000
1000
0000
1000
0010
0000
0100
0100
,
0001
0010
0001
1000
0100
0000
1000
0010
1000
0000
0101
0000
1100
0000
1000
0000
,
0010
1000
0001
0010
0000
0100
0010
0001
1000
0010
0000
0100
0001
0100
0001
0000
,
1000
0010
1000
0100
0000
1000
0001
0010
0001
0100
0000
0100
0001
0100
0100
0000
,
0010
1000
0001
1000
0000
0100
0010
0001
1000
0001
0000
0100
0001
1000
0001
0000
,
1100
0000
0010
0000
0101
0000
0100
0010
0100
0000
0000
0010
1000
0000
0011
0000
,
1001
1010
0110
0000
0100
0101
0000
0001
,
0011
0110
1100
0000
0000
1001
0000
0010
,
1001
1100
0101
0000
0100
0110
0000
0000
,
1001
0000
0000
0000
,
0000
1001
0000
0010
0100
0001
0000
0000
0000
0000
0000
0000
0000
0000
0000
0000
;

//--------------- dance-solo - 8Chasey (My-First Mode) ----------------
#NOTES:
     dance-solo:
     8Chasey (My-First Mode):
     Easy:
     4:
     0,0,0,0,0:
000000
000000
000000
000000
,
000001
100000
000010
010000
,
000001
000001
000100
001000
,
100000
100000
000100
001000
,
100001
010000
000000
000010
,
001100
001000
000000
000100
,
010000
000000
000010
000000
000000
100001
000000
000000
,
100000
000000
000001
000000
000000
010010
000000
000000
,
100001
000000
000100
100000
,
000001
000000
000100
001100
,
001000
000000
010000
000100
,
010000
000000
000110
010100
,
100000
100000
000010
000000
,
001000
000001
001000
000000
,
000001
000001
010000
000000
,
000100
010000
000010
001000
,
001100
000000
001000
001000
,
000001
000000
100000
100000
,
000100
000000
010000
000010
,
010000
000000
000101
100100
,
001000
000001
001000
000000
,
000100
100000
000100
000000
,
010000
010000
000010
000010
,
001000
000001
100000
001000
,
010000
010100
000000
000000
,
000110
000010
000000
000000
,
001000
000000
001100
000000
000000
000100
000000
000000
,
100001
000000
000000
000000
,
000000
000010
000000
010000
000000
000000
000000
000000
000000
000000
000000
000000
000000
000000
000000
000000
;
