#TITLE:Alpha;
#SUBTITLE:(Incredibox 10th Anniversary);
#ARTIST:So Far So Good & Incredible Polo;
#TITLETRANSLIT:;
#SUBTITLETRANSLIT:;
#ARTISTTRANSLIT:;
#GENRE:;
#CREDIT:8Chasey 2025;
#MUSIC:Alpha.ogg;
#BANNER:;
#BACKGROUND:Alpha-bg.png;
#CDTITLE:;
#SAMPLESTART:64.000;
#SAMPLELENGTH:12.000;
#SELECTABLE:YES;
#OFFSET:-0.025;
#BPMS:0.000=90.000
,176.000=45.000
,184.000=90.000
;
#STOPS:;
#DISPLAYBPM:90.000;
#BGCHANGES:;
#FGCHANGES:;

//--------------- dance-single - 8Chasey ----------------
#NOTES:
     dance-single:
     8Chasey:
     Beginner:
     1:
     0,0,0,0,0:
0000
0000
0000
0000
,
0000
0000
0000
0000
,
0000
0000
0000
0000
,
0000
0000
0000
0000
,
0000
0001
0000
0000
,
0000
0000
0000
0000
,
0000
1000
0000
0000
,
0000
0000
0000
0000
,
0001
0001
0000
0000
,
0000
0000
0000
0000
,
1000
1000
0000
0000
,
0000
0000
0001
0001
,
0001
0000
0000
0000
,
0000
0000
1000
1000
,
1000
0000
0000
0000
,
0001
0000
1000
0000
,
0001
0000
0000
0000
,
1000
0000
0001
0000
,
1000
0000
0000
0000
,
1000
0000
0001
0000
,
0000
0100
0100
0000
,
0010
0000
0100
0000
,
0000
0010
0010
0000
,
0100
0000
0010
0000
,
1000
0000
0000
1000
,
1000
0000
0001
0000
,
1000
0000
0000
0000
,
0010
0000
0000
0000
,
0001
0000
0000
0001
,
0001
0000
1000
0000
,
0001
0000
0000
0000
,
0100
0000
0000
0000
,
0010
0000
0010
0000
,
0010
0000
0000
0000
,
0100
0000
0100
0000
,
0100
0000
0000
0000
,
0001
0000
0000
0000
,
1000
0000
0000
0000
,
0001
0000
1000
0000
,
0001
0000
0000
0000
,
1000
0000
0000
0000
,
0001
0000
0000
0000
,
1000
0000
0001
0000
,
1000
0000
0000
0000
;

//--------------- dance-single - 8Chasey ----------------
#NOTES:
     dance-single:
     8Chasey:
     Easy:
     2:
     0,0,0,0,0:
0000
0000
0000
0000
,
0000
0000
0000
0000
,
0000
0000
0000
0000
,
0000
0000
0000
0000
,
0001
0002
0000
0103
,
0010
1000
0000
0001
,
1000
2000
0000
3100
,
0010
0001
0000
1000
,
0010
0020
0000
0130
,
0001
0100
0000
0001
,
0010
0020
0000
0130
,
1000
0001
1000
0001
,
0200
0000
0000
0000
,
0310
0000
0000
0000
,
1000
0010
1000
0000
,
0001
0100
0001
0000
,
2000
0000
0000
3001
,
0010
0000
0100
0000
,
1000
0100
0000
1000
,
0001
0020
0031
0100
,
0000
0010
1000
0010
,
0000
1000
1000
0000
,
0100
0010
0001
1000
,
0002
0000
0003
0000
,
0200
0300
0010
0100
,
0010
0000
0100
0100
,
0001
1000
0000
1000
,
0001
1000
0000
1000
,
0020
1030
0000
0001
,
0010
0001
0100
0001
,
1000
0001
0000
0001
,
1000
0001
0000
0001
,
0200
0000
0301
0000
,
1000
0100
1000
0000
,
0200
0000
1300
0000
,
0001
0100
0001
0000
,
0020
0000
0000
0000
,
0130
0000
0010
0000
,
0001
1000
0001
0000
,
1000
0001
1000
0000
,
0010
1000
0000
0000
,
0100
0100
0000
0000
,
0010
0001
0000
0000
,
1000
0001
0000
0000
,
0200
0000
0300
0000
,
0020
0000
0030
0000
,
2000
0000
0000
0000
,
0000
0000
3000
0000
,
0002
0000
0000
0000
,
0000
0000
0003
0000
;

//--------------- dance-single - 8Chasey ----------------
#NOTES:
     dance-single:
     8Chasey:
     Medium:
     4:
     0,0,0,0,0:
0000
0000
0000
0000
,
0000
0000
0000
0000
,
0000
0000
0000
0000
,
0000
0000
0000
0000
,
0100
0000
0020
0000
0030
1000
0100
1000
,
0100
0000
0020
0000
0030
0001
0100
0001
,
0100
0000
0002
0000
0003
1000
0010
1000
,
0100
0000
2000
0000
3000
0001
0100
0010
,
0100
0000
0001
0000
0010
0001
1000
0000
,
0100
0000
1000
0000
0010
1000
0001
0000
,
0100
0000
0010
1000
0000
0010
0100
0000
,
0001
0000
1000
0100
0100
0010
0100
0000
,
0020
0000
0030
0002
,
2000
0000
3003
0200
,
0310
0000
0001
0100
0000
0010
1000
0010
,
1000
0000
0100
1000
0000
0100
0010
0000
,
0002
0000
0100
0000
1003
0000
0010
1000
,
0100
2000
0000
0000
3000
0010
0100
0000
,
0001
0001
0001
0000
1000
0000
0100
0000
,
1000
1000
0020
0000
0130
0010
0100
0000
,
0000
0001
0001
1000
1000
0000
0200
0000
,
0310
0100
0010
0100
0010
0000
0000
0000
,
0000
0001
0010
0001
1000
0000
0100
1000
,
2000
0000
3000
0000
,
0020
0000
0130
0000
0001
0100
0010
1000
,
0100
0000
2000
0000
3001
0100
0200
0000
,
0301
0000
0010
0000
0100
1000
0100
1000
,
0100
0000
1000
0000
0001
0100
0010
0000
,
0200
0000
0301
0000
1000
0010
1000
0000
,
0100
1000
0001
0000
0000
0100
0001
0100
,
0001
0020
0001
0031
,
1000
0010
1000
0000
0100
0010
0100
0000
,
0010
0010
0010
0000
0001
0100
0001
0000
,
0100
0100
0020
0000
1030
0000
0100
0000
,
1000
0010
1000
0000
0001
0000
0100
0000
,
0001
0010
0001
0000
0200
0000
0310
0000
,
1000
0002
0000
0103
,
0010
1000
0010
0000
2000
0000
3100
0000
,
0010
0001
0010
0001
0100
0000
0010
0000
,
1000
0010
1000
0000
0200
0000
1300
0000
,
0002
0000
0013
0000
0001
1000
0100
0100
,
1000
0000
0020
0000
0130
0010
0100
0001
,
1000
0000
0100
0010
0000
0100
0010
0100
,
2000
0002
0000
3003
,
0200
0000
0000
0300
0002
0000
0000
0003
,
2000
0000
0000
3000
0020
0000
0000
0030
,
2000
0000
0000
3000
,
0002
0000
0000
0003
,
0020
0000
0000
0030
,
0200
0000
0000
0300
;

//--------------- dance-single - 8Chasey ----------------
#NOTES:
     dance-single:
     8Chasey:
     Hard:
     7:
     0,0,0,0,0:
0000
0000
0000
0000
,
0000
0000
0000
0000
,
0000
0000
0000
0000
,
0000
0000
0000
0000
,
1000
0000
0001
0000
0020
0000
0000
0000
0031
0000
0100
0000
0001
0100
0001
0000
,
0100
0010
2000
0000
3100
1000
0100
0010
,
0001
0000
1000
0000
0020
0000
0000
0000
1030
0000
0100
0000
1000
0100
1000
0000
,
0100
0010
0002
0000
0013
0010
0100
0100
,
1000
0001
1000
0000
0200
0000
0000
0000
1300
0000
0010
0000
1000
0000
1000
0000
,
0001
1000
0001
0000
0020
0000
0000
0000
0031
0000
0100
0000
0010
0100
0010
0000
,
1000
0000
0001
0000
0200
0000
0000
0000
0310
0000
1000
0000
0001
0100
0001
0000
,
1000
0001
1000
0000
0001
0000
1000
0100
1000
0000
0020
0000
0230
0000
0310
0000
,
2000
0000
0000
0000
0000
0000
0000
0000
3000
0000
0000
0001
0000
0010
0000
0001
,
0010
0002
0000
0000
0000
0100
0103
0000
,
0010
0000
1000
0000
0001
0000
1000
0000
0010
0000
1000
0000
0001
1000
0001
0000
,
0100
0010
0100
0000
0010
0000
1000
0000
0010
0000
0100
0000
0001
0100
0001
0000
,
2000
0000
0000
0000
3100
0000
0010
0000
0001
0000
0010
0001
0000
1000
0000
0001
,
2000
0002
0000
3003
0010
0001
0010
0100
,
1000
0000
0000
0000
1000
0000
0000
0000
1000
0000
0000
0000
0001
0000
0000
0000
0000
0000
0010
0000
0000
0001
0000
0000
0010
0000
0000
0000
0000
0000
0001
0000
0000
0000
0000
0000
0100
0000
0000
0000
0000
0000
0100
0000
0000
0000
0000
0000
,
0001
0000
0000
0000
0001
0000
0000
0000
0001
0000
0000
0000
2000
0000
0000
0000
0000
0000
0000
0000
0000
0000
0000
0000
3100
0000
0000
0010
0000
0000
0100
0000
0000
0000
0000
0000
0010
0000
0000
0000
0000
0000
0100
0000
0000
0000
0000
0000
,
0001
0000
1000
0000
0010
0000
0010
0000
1000
0000
0100
0000
1000
0001
0000
1000
,
0001
1000
0010
0010
0100
0000
0001
1000
,
0100
0000
0010
0000
0001
0000
1000
0000
0020
0000
0000
0000
0130
0001
0100
0001
,
1000
0010
0100
0100
0002
0000
0000
0003
,
1000
0100
0000
0000
1000
0001
0000
0000
0010
0001
0010
0001
0100
0000
0001
0000
,
0100
0010
0020
0000
1030
0100
1000
0000
,
0001
0010
0001
0000
1000
0000
0001
0000
1000
0100
1000
0000
0010
0000
0100
0000
,
0020
0000
0000
0000
0130
0000
0000
0000
0001
0010
0100
0000
1000
0000
1000
0000
,
0001
0100
0000
0000
0001
1000
0000
0000
0010
1000
0010
1000
0100
0000
1000
0000
,
0100
0010
0020
0000
0031
0100
0001
0000
,
1000
0010
1000
0000
0001
0000
1000
0000
0001
0100
0001
0000
0010
0000
0100
0000
,
0020
0000
0000
0000
0130
0000
0000
0000
1000
0010
0100
0000
0001
0000
1000
0000
,
0010
1000
0010
0000
1000
0000
1000
0000
0100
0000
0100
0000
1000
0001
0000
1000
,
0001
0100
0001
0010
0200
0000
0310
0100
,
0010
0001
0010
0000
0001
0000
0001
0000
0100
0000
0100
0000
0001
1000
0000
0001
,
1000
0100
1000
0010
0200
0000
0310
0000
,
0001
0000
0010
0000
0001
0000
0100
0000
0010
0000
1000
0000
0100
1000
0000
0100
,
1000
0001
0001
0010
0001
0100
0010
0000
,
1000
0010
1000
0000
0010
0000
0100
0000
0001
0000
0010
0000
0001
1000
0000
0001
,
1000
0010
0010
0100
0020
0000
0130
0000
,
1000
0000
0001
1000
0001
0000
0010
0000
0000
0000
0100
0000
1000
0100
1000
0000
,
0001
0000
1000
0001
1000
0000
0010
0000
0000
0000
0100
0000
0001
0100
0001
0000
,
1000
0000
0010
0000
0100
0000
0001
0000
1000
0001
1000
0000
0001
0000
0010
0000
,
0200
0000
0020
0000
0000
0330
0000
0000
,
0002
0000
0000
0000
0000
0000
0003
0100
0020
0000
0000
0000
0000
0000
0030
1000
,
0200
0000
0000
0000
2300
0000
0000
3000
,
0020
0000
0000
0000
0000
0000
0030
1000
,
0200
0000
0000
0000
0000
0000
0300
0010
,
0002
0000
0000
0000
,
2000
0000
0000
3003
;

//--------------- dance-double - 8Chasey ----------------
#NOTES:
     dance-double:
     8Chasey:
     Easy:
     2:
     0,0,0,0,0:
00000000
00000000
00000000
00000000
,
00000000
00000000
00000000
00000000
,
00000000
00000000
00000000
00000000
,
00000000
00000000
00000000
00000000
,
00000010
00002000
00000000
00003001
,
00000000
00000100
00000000
00001000
,
00010000
00002000
00000000
01003000
,
00000000
00010000
00000000
10000000
,
00100000
02000000
00000000
03100000
,
10000000
01000000
00000000
10000000
,
00010000
00200000
00000000
00301000
,
00010000
00000010
00010000
00000010
,
00000200
00000000
00000000
00000000
,
00000310
00000000
00000000
00000000
,
00001000
00000001
00000000
00000000
,
00000001
00001000
00000000
00000000
,
00000200
00000000
00000000
00000000
,
00010300
00000000
00000000
00000000
,
00001000
00010000
00000000
00001000
,
01000000
00200000
01300000
01000000
,
00000000
00010000
00100000
00010000
,
00000000
10000000
10000000
00000000
,
01000000
00100000
01000000
00100000
,
02000000
00000000
00000000
03000000
,
10000000
00010000
00000000
10000000
,
00010000
00100000
00000000
00010000
,
01000000
00000000
00001000
00000000
,
00010000
00000000
00000100
00000000
,
00001000
00000010
00000000
00001000
,
00000001
00000100
00000000
00000001
,
00000010
00000000
00000100
00000000
,
00010000
00000000
00001000
00000000
,
01000000
00010000
01000000
00000000
,
00010000
10000000
00010000
00000000
,
00100000
01000000
00100000
00000000
,
01000000
10000000
01000000
00000000
,
20000000
00000000
00000000
00000000
,
30010000
00000000
00100000
00000000
,
00001000
00010000
00001000
00000000
,
00100000
00000000
01000000
00000000
,
00010000
00000000
00000000
00000000
,
00001000
00000000
00000000
00000000
,
00000100
00000000
00000000
00000000
,
00000010
00000100
00000000
00000000
,
00000020
00000000
00000030
00000000
,
00000200
00000000
00000300
00000000
,
00000002
00000000
00000000
00000000
,
00000000
00000000
00000003
00000000
,
00002000
00000000
00000000
00000000
,
00000000
00000000
00003000
00000000
;
