#TITLE:All You Gotta Do;
#SUBTITLE:(Is Just Dance);
#ARTIST:The Just Dance Band;
#TITLETRANSLIT:;
#SUBTITLETRANSLIT:;
#ARTISTTRANSLIT:;
#GENRE:;
#CREDIT:;
#MUSIC:All You Gotta Do (Is Just Dance).ogg;
#BANNER:;
#BACKGROUND:;
#CDTITLE:;
#SAMPLESTART:120.275;
#SAMPLELENGTH:12.000;
#SELECTABLE:YES;
#OFFSET:-0.420;
#BPMS:0.000=120.000;
#STOPS:;
#BGCHANGES:;
#FGCHANGES:;

//--------------- dance-single - 8Chasey ----------------
#NOTES:
     dance-single:
     8Chasey:
     Beginner:
     2:
     0.127814,0.161947,0.053758,0,0,233,219,14,0,0,0,0.127814,0.161947,0.053758,0,0,233,219,14,0,0,0:
0000
0000
0000
0000
,
0000
0000
0000
0000
,
0001
0001
0000
1000
,
1000
0000
0010
0000
,
0000
1000
0000
0100
,
0000
0001
0000
0100
,
0100
0000
0000
0010
,
0010
0000
0010
0000
,
0000
1000
0000
0001
,
0000
0100
0000
0100
,
0100
0000
0000
0010
,
0010
0000
0000
0000
,
0000
0010
0000
0001
,
0000
0010
0000
1000
,
0000
0000
0000
0010
,
0010
0000
0000
0000
,
0000
0100
0000
0001
,
0000
1000
0000
0010
,
0010
0000
0000
0100
,
0100
0000
0000
0000
,
0000
0110
0000
0000
,
1001
0000
0000
0000
,
0000
0110
0000
0000
,
0010
0000
0000
0000
,
0001
0001
0001
0000
,
0001
0001
0001
0000
,
1000
0000
0001
0000
,
1000
0000
0000
0000
,
1000
1000
1000
0000
,
1000
1000
1000
0000
,
0001
0000
1000
0000
,
0001
0000
0000
0000
,
0010
0000
0010
0000
,
0100
0000
0100
0000
,
0010
0000
0010
0000
,
0100
0100
0100
0000
,
0010
0000
0010
0000
,
0100
0000
0100
0000
,
0010
0000
0010
0000
,
0010
0010
0010
0000
,
0000
0001
0000
1000
,
0000
0001
0001
0001
,
0000
1000
0000
0001
,
0000
1000
1000
1000
,
0000
0010
0000
0100
,
0000
0010
0010
0010
,
0000
0100
0000
0010
,
0000
0100
0100
0100
,
0000
0001
0001
0000
,
0000
1000
1000
0000
,
0010
0000
0000
0000
,
0110
0000
0000
0000
,
0100
0000
0000
0000
,
0110
0000
0000
0000
,
0001
0000
1000
0000
,
1001
0000
0000
0000
,
0000
0110
0000
0000
,
1001
0000
0000
0000
,
0000
0110
0000
0000
,
0010
0000
0000
0000
,
0001
0001
0001
0000
,
0001
0001
0001
0000
,
1000
0000
0001
0000
,
1000
0000
0000
0000
,
1000
1000
1000
0000
,
1000
1000
1000
0000
,
0001
0000
1000
0000
,
0001
0000
0000
0000
,
0010
0000
0010
0000
,
0100
0000
0100
0000
,
0010
0000
0010
0000
,
0100
0100
0100
0000
,
0010
0000
0010
0000
,
0100
0000
0100
0000
,
0010
0000
0010
0000
,
0010
0010
0010
0000
,
0001
0000
1000
0000
,
0001
0000
1000
0000
,
0010
0000
0100
0000
,
0010
0000
0100
0000
,
0001
0000
0010
0000
,
1000
0000
0100
0000
,
0010
0000
0100
0000
,
0110
0000
0000
0000
,
1001
0000
0000
0000
,
0000
0000
0000
0000
,
0000
0000
0000
0000
,
0000
0000
0000
0000
,
0000
0000
0000
1001
,
1001
0000
0000
0000
,
0010
0000
0000
0000
,
0010
0000
0100
0000
,
0010
0000
0000
0000
,
0100
0000
0000
0000
,
0001
0000
1000
0000
,
0100
0000
0001
0000
,
1000
0000
0000
1001
,
0000
0010
0010
0000
,
0100
0100
0100
0000
,
0010
0000
0100
0000
,
0010
0000
0000
0000
,
0100
0100
0100
0000
,
0100
0100
0100
0000
,
0010
0000
0100
0000
,
0010
0000
0000
0000
,
0001
0000
1000
0000
,
0100
0000
0000
0000
,
1000
0000
0001
0000
,
0100
0100
0100
0000
,
1000
0000
0001
0000
,
0100
0000
0000
0000
,
0001
0000
1000
0000
,
0010
0010
0010
0000
,
0000
1000
0000
1000
,
0000
0100
0000
0100
,
0000
0001
0000
0001
,
0000
0000
0100
0000
,
0000
0000
0010
0000
,
0000
0000
0100
0000
,
0000
0000
0010
0000
,
0010
0010
0010
0000
;

//--------------- dance-single - 8Chasey ----------------
#NOTES:
     dance-single:
     8Chasey:
     Hard:
     8:
     0.434456,0.463667,0.218874,0.168955,0.201594,792,735,57,44,0,0,0.434456,0.463667,0.218874,0.168955,0.201594,792,735,57,44,0,0:
0000
0000
0000
0000
,
0000
0000
0000
0000
,
0000
0000
0000
0000
,
0000
0000
0000
0000
0000
0000
0000
0000
0000
0000
0000
0000
0001
0010
0000
0010
,
0001
0000
0100
0000
0010
0000
1000
0000
0100
0000
0000
0000
0100
0000
0000
1000
,
0000
0000
0010
0000
0100
0000
0001
0000
0001
0000
0000
0000
1001
0000
0000
0100
,
0001
0000
0010
0000
0001
0000
0000
0000
0010
0000
0000
0100
1000
0000
0001
0000
,
1000
0000
0000
0000
0010
0000
0000
0000
1000
0001
0000
0000
1000
0001
0000
0001
,
1000
0000
0010
0000
0100
0000
0001
0000
0001
0000
0000
0000
0001
0000
0000
0010
,
0001
0000
0100
0000
0010
0000
1000
0000
0100
0000
0000
0000
0110
0000
0000
0100
,
1000
0000
0001
0000
0010
0000
0000
0000
0010
0000
0000
0001
0010
0000
0100
0000
,
1000
0000
0000
0000
1001
0000
0000
0000
0010
1000
0000
0000
0001
0100
0000
0010
,
0100
0000
0010
0000
0100
0000
0010
0000
0020
0000
0000
0000
1030
0000
0000
1000
,
0100
0010
0001
1000
0002
0000
0103
0010
,
0100
0001
0101
0000
0000
0000
1000
0100
,
1100
0000
0000
0000
0001
0000
0000
0000
0010
0001
0000
0000
1000
0100
0000
1000
,
0001
0000
0100
0000
0001
0000
0010
0000
0200
0000
0000
0000
1300
0000
0000
0010
,
1000
0000
0001
0000
0100
0000
0010
0000
0200
0000
0000
0000
0301
0000
0000
0010
,
0001
0000
1000
0000
0100
0000
0000
0000
1000
0000
0000
0001
0000
0000
0100
0000
,
0020
0000
0000
0000
0130
0000
0000
0000
0010
0100
0000
0000
0010
0100
0000
0001
,
0000
0000
1000
0000
1001
0000
0000
0000
0000
0000
0000
1000
0000
0000
0100
0000
,
0010
0000
0000
0000
0000
0000
0000
0000
0001
0010
0000
0000
1000
0010
0000
0100
,
0000
0000
0010
0000
0010
0000
0000
0000
0000
0000
0000
0100
0000
0000
0010
0000
,
0020
0000
0000
0030
,
0001
0000
0100
0000
1000
0000
0100
0000
0001
0000
0000
0000
1100
0000
0000
1000
,
0010
0000
1000
0000
0010
0000
0100
0000
0001
0000
0000
0000
0001
0000
0000
0010
,
0001
0010
1000
0010
0001
0000
1001
0000
,
1000
0010
1000
0000
0001
0000
0100
0000
0001
0000
0000
0000
0010
0001
0000
0010
,
0001
0000
0100
0000
0010
0000
1000
0000
0100
0000
0000
0000
1100
0000
0000
1000
,
0001
0000
0010
0000
0100
0000
0010
0000
0001
0000
0000
0000
0011
0000
0000
1000
,
0001
0100
0010
1000
0100
0100
1000
0000
,
0001
0010
0001
0000
1000
0000
0010
0000
0100
0000
0000
0000
1001
0000
0000
0000
,
0001
0010
0001
0010
0100
0010
0100
1000
,
0010
1000
0200
0000
1300
0001
0200
0000
,
0310
1000
0001
0010
0001
0100
0010
1000
,
0100
1000
0010
0100
0200
0000
0300
0000
,
0001
0010
1000
0010
0001
0100
0010
1000
,
0100
0010
0200
0000
1300
0001
0200
0000
,
0301
0010
0001
1000
0100
0010
0100
0100
,
0010
0000
0000
0000
1001
0000
0000
0000
0020
0000
0000
0000
0030
0000
0000
1000
,
0001
0000
1000
0000
0001
0000
0100
0000
0010
0000
0000
1000
0100
0000
1000
0000
,
0010
0000
0100
0000
0001
0000
0010
0000
0002
0000
0000
0000
2003
0000
0000
0010
,
3000
0000
0100
0000
0010
0000
0000
0000
0100
0000
0000
0001
0010
0000
0001
0000
,
0100
0000
0010
0000
1000
0000
0000
0000
1000
0001
0000
0000
0001
0010
0000
0010
,
0100
0000
0010
0000
0100
0000
1000
0000
0010
0000
0000
0000
0110
0000
0000
0001
,
0100
0000
0010
0000
0010
0000
1000
0000
0100
0000
0000
0000
1100
0000
0000
0001
,
1000
0000
0001
0000
0020
0000
0000
0000
0030
0000
0000
0001
1000
0000
0010
0000
,
0010
0000
0000
0000
0110
0000
0000
0000
0001
1000
0000
0000
0001
1000
0000
0010
,
0100
0010
1000
0100
0020
0000
0031
1000
,
0100
0000
1000
0000
0010
0000
0100
0000
0002
0000
0000
0000
0013
0000
0000
0010
,
0001
0000
0100
0000
0010
0000
0000
0000
1010
0000
0000
1000
0100
0000
0010
0000
,
0001
0000
0000
0000
0011
0000
0000
0000
0100
0001
0000
0000
0010
1000
0000
0010
,
0100
0000
1000
0000
0001
0000
0100
0000
0020
0000
0000
0000
1030
0000
0000
1000
,
0100
1000
0001
0010
0001
0100
0020
0000
,
0130
0000
0000
0000
0110
0000
0000
0000
0100
0000
0000
0001
0100
0000
0010
0000
,
0010
0000
0000
0000
1100
0000
0000
0000
0001
0100
0000
0000
0101
0000
0000
0001
,
0000
0000
0100
0000
1000
0000
0000
0000
0000
0000
0000
1000
0000
0000
0100
0000
,
0002
0000
0000
0000
0003
0000
0000
0000
1000
0010
0000
0000
0100
0001
0000
0011
,
0000
0000
1000
0000
0100
0000
0000
0000
0000
0000
0000
1100
0000
0000
0001
0000
,
0020
0000
0000
0030
,
0001
0000
0100
0000
0010
0000
0100
0000
1000
0000
0000
0000
1001
0000
0000
0001
,
0010
0000
0001
0000
0100
0000
0010
0000
2000
0000
0000
0000
3001
0000
0000
0001
,
0010
0001
0100
0010
0001
0010
1000
1000
,
0001
0100
0001
0000
0010
0000
0100
0000
1001
0000
0000
0000
0010
0000
0000
0100
,
0000
0010
0100
0000
0001
0000
0010
0000
0100
0000
0000
0000
0100
0000
0000
1000
,
0001
0000
0001
0000
0010
0000
0001
0000
0100
0000
0000
0000
1010
0000
0000
0100
,
0010
0000
1000
0000
0100
0000
0010
0000
0011
0000
0000
0000
0001
1000
0001
0000
,
1000
0010
1000
0000
0100
0000
0010
0000
0002
0000
0000
0000
1003
0000
0000
0000
,
0001
0100
0010
0001
0010
1000
0100
0010
,
0100
1000
0100
0010
0001
0001
0100
0000
,
0001
0010
0001
0100
0010
1000
0100
0010
,
0100
1000
0001
0010
0200
0000
0300
0000
,
1100
0000
0001
0010
0001
0100
0010
0100
,
0101
0000
0001
1000
0200
0000
0300
0000
,
1000
0000
0010
0000
0100
0000
0010
0000
0100
0000
0001
0000
0010
0000
0001
0010
,
0001
1000
0100
1000
0020
0000
0030
0000
,
0001
0100
1000
0100
0001
0010
1000
0020
,
0001
1000
0001
0130
,
1100
0000
0000
0000
0101
0000
0000
0000
0010
0000
0000
1000
0001
0000
0010
0000
,
0110
0000
1001
0000
0001
1000
1001
0000
,
0001
0010
1000
0010
0001
0100
1000
0200
,
0001
1000
0010
0310
,
0110
0000
0000
0000
0020
0000
0000
0000
0130
0000
0100
1000
0001
0000
0200
0000
,
0000
0310
0100
0001
1000
0010
0100
2002
,
0000
0000
0000
0000
,
0000
0000
3003
0000
,
0000
0000
0000
0000
0001
0000
0000
0000
0010
0001
0000
0000
1000
0010
0000
0100
,
0010
0000
0010
0000
0010
0000
0000
0000
0000
0000
0000
0010
0000
0000
0010
0000
,
0010
0000
0000
0000
0000
0000
0000
0000
0000
0000
0000
0000
0110
0000
0000
0001
,
0010
0100
1000
0101
0000
0001
0010
1000
,
0010
0000
0000
0000
0110
0000
0000
0001
0100
0000
0010
0000
1000
0001
1000
0001
,
1000
0000
0010
0000
0100
0000
0010
0000
0001
0000
0000
0000
1000
0000
0000
0100
,
1000
0010
0100
0001
2002
0000
3003
0000
,
0010
0000
0001
0000
1000
0000
0100
0000
0000
0000
0100
1000
0001
0000
0100
0000
,
0010
0000
0000
0000
0110
0000
0100
0000
0000
0000
0001
0010
0001
0000
1000
0010
,
2000
3002
0103
0110
,
0000
0000
0000
0000
0001
0000
0000
0000
0000
0000
0000
0000
1100
0000
0000
0001
,
1000
0000
0010
0000
0100
0000
0010
0000
1000
0000
0000
0000
0101
0000
0000
0001
,
0100
0000
0001
0000
0010
0000
1000
0000
0010
0000
0000
0000
0110
0000
0000
0100
,
1000
0001
0100
0010
1000
0100
1001
0000
,
0001
0010
0001
0010
0001
0000
1000
0000
0100
0000
0000
0000
0110
0000
0000
0010
,
0001
0000
0100
0000
0010
0000
1000
0000
0100
0000
0000
0000
1001
0000
0000
0001
,
0010
0000
0001
0000
0100
0000
0010
0000
1000
0000
0001
0000
1001
0000
0000
1000
,
0100
0010
1000
0010
0001
0000
1001
0000
,
1000
0100
1000
0100
1000
0000
0001
0000
0010
0000
0000
0000
1001
0000
0000
0000
,
0001
0010
0001
0100
0010
1000
0100
0010
,
0100
1000
0001
0000
1001
0000
1001
0000
,
0001
1000
0010
0100
0010
1000
0100
0010
,
0100
0100
0100
0100
0200
0000
0300
0000
,
1000
0001
0100
0000
0001
0000
0010
0000
0100
0000
0000
0000
1001
0000
0000
0000
,
0001
0200
0300
1000
,
0100
0010
0001
1000
0010
0100
0001
1000
,
0010
0010
0010
0010
0020
0000
0030
0000
,
1000
0000
0100
1000
0000
0000
0100
0000
0010
0000
0001
0100
0000
0000
0001
0000
,
1000
0000
0010
0100
0000
0000
0001
0000
0100
0000
0010
0100
0000
0000
0010
0000
,
1000
0000
0100
0010
0000
0000
1000
0000
0010
0000
0001
0010
0000
0000
1001
0000
,
0100
0100
0100
0100
0200
0000
0300
0000
,
2000
3010
0000
0101
,
0002
0013
0000
1100
,
0001
1000
0001
1000
,
0000
0000
0220
0330
;
