#TITLE:All U Need Is Love;
#SUBTITLE:;
#ARTIST:Bill Wurtz;
#TITLETRANSLIT:;
#SUBTITLETRANSLIT:;
#ARTISTTRANSLIT:;
#GENRE:;
#CREDIT:8Chasey 2025;
#MUSIC:All U Need Is Love.ogg;
#BANNER:;
#BACKGROUND:;
#CDTITLE:;
#SAMPLESTART:46.450;
#SAMPLELENGTH:12.000;
#SELECTABLE:YES;
#OFFSET:0.000;
#BPMS:0.000=135.000
,448.000=134.000
,450.000=132.000
,452.000=130.000
,454.000=128.000
,456.000=122.000
,458.000=118.000
;
#STOPS:;
#DISPLAYBPM:135.000;
#BGCHANGES:;
#FGCHANGES:;

//--------------- dance-single - 8Chasey ----------------
#NOTES:
     dance-single:
     8Chasey:
     Beginner:
     1:
     0,0,0,0,0:
0000
0000
0000
0000
,
0000
0000
0000
0000
,
0000
0000
0000
0000
,
0000
0000
0000
0000
,
0000
0000
0000
0000
,
0000
0000
0000
0000
,
0000
0000
0000
0000
,
0000
0000
0000
0000
,
0000
0000
0000
0000
,
0000
0000
0000
0000
,
0000
0000
0000
0000
,
0001
0001
0000
0000
,
0000
0000
0000
0000
,
1000
1000
0000
0000
,
0000
0000
0000
0000
,
0001
0000
0000
0000
,
1000
0000
0000
0000
,
0001
0000
0000
0000
,
0000
0000
0000
0000
,
1000
1000
0000
0000
,
0000
0000
0000
0000
,
0001
0001
0000
0000
,
0000
0000
0000
0000
,
1000
0000
0000
0000
,
0001
0000
0000
0000
,
1000
0000
0000
0000
,
0000
0000
0000
0000
,
0010
0000
0010
0000
,
0010
0000
0000
0000
,
0100
0000
0100
0000
,
0100
0000
0000
0000
,
0001
0000
0000
0000
,
1000
0000
0000
0000
,
0010
0000
0000
0000
,
0000
0000
0000
0000
,
0000
0000
0000
0000
,
0000
0000
0000
0000
,
1000
1000
0000
0000
,
0000
0000
0000
0000
,
0001
0001
0000
0000
,
0000
0000
0000
0000
,
1000
0000
0000
0000
,
0001
0000
0000
0000
,
1000
0000
0000
0000
,
0000
0000
0000
0000
,
0001
0001
0000
0000
,
0000
0000
0000
0000
,
1000
1000
0000
0000
,
0000
0000
0000
0000
,
0001
0000
0000
0000
,
1000
0000
0000
0000
,
0001
0000
0000
0000
,
0000
0000
0000
0000
,
0100
0000
0100
0000
,
0100
0000
0000
0000
,
0010
0000
0010
0000
,
0010
0000
0000
0000
,
1000
0000
0000
0000
,
0001
0000
0000
0000
,
0100
0000
0000
0000
,
0000
0000
0000
0000
,
0000
0000
0000
0000
,
0000
0000
0000
0000
,
0001
0000
0000
0000
,
0000
0000
0000
0000
,
1000
0000
0000
0000
,
0001
0000
0000
0000
,
1000
0000
0000
0000
,
0000
0000
0000
0000
,
0001
0000
0000
0000
,
1000
0000
0000
0000
,
0010
0000
0000
0000
,
0000
0000
0000
0000
,
0100
0000
0000
0000
,
0010
0000
0000
0000
,
0100
0000
0000
0000
,
0000
0000
0000
0000
,
0010
0000
0000
0000
,
0000
0000
1000
0000
,
1000
0000
1000
0000
,
0000
0000
0001
0000
,
0001
0000
0001
0000
,
0000
0000
1000
0000
,
1000
0000
0001
0000
,
0001
0000
0100
0000
,
0100
0000
0001
0000
,
0000
0000
0100
0000
,
0010
0000
0100
0000
,
0000
0000
0010
0000
,
0010
0000
1000
0000
,
0000
0000
0010
0000
,
0000
0000
1000
0000
,
0100
0000
1000
0000
,
0000
0000
0010
0000
,
0000
0000
0001
0000
,
0100
0000
0001
0000
,
0000
0000
0010
0000
,
0000
0000
0100
0000
,
0100
0000
0010
0000
,
0000
0000
0100
0000
,
0100
0000
0010
0000
,
0010
0000
0100
0000
,
0000
0000
0010
0000
,
0000
0000
0000
0000
,
0000
0000
0100
0000
,
0000
0000
0000
0000
,
0000
0000
0000
0000
,
0010
0000
0000
0000
,
0000
0000
0000
0000
,
0010
0000
0000
0000
,
0000
0000
0000
0000
,
0100
0000
0000
0000
,
0000
0000
0000
0000
,
0100
0000
0000
0000
,
0000
0000
0000
0000
,
0010
0000
0000
0000
;

//--------------- dance-single - 8Chasey ----------------
#NOTES:
     dance-single:
     8Chasey:
     Easy:
     4:
     0,0,0,0,0:
0000
0000
0000
0000
,
0000
0000
0000
0000
,
0000
0000
0000
0000
,
0000
0000
0000
0000
,
0000
0000
0000
0000
,
0000
0000
0000
0000
,
0000
0000
0000
0000
,
0000
0000
0000
0000
,
0000
0000
0000
0000
,
0000
0000
0000
0000
,
0000
0000
0000
0000
,
0001
0100
0001
1000
,
0002
0000
0003
0000
,
1000
0010
1000
0001
,
2000
0000
3000
0000
,
0010
0100
0010
0000
,
0100
0010
0100
0000
,
0001
0010
0100
1000
,
0001
1000
0001
0000
,
0100
0010
0100
0001
,
0020
0000
0030
0000
,
0100
1000
0010
1000
,
0200
0000
0300
0000
,
1000
0010
1000
0000
,
0001
0100
0001
0000
,
0010
0100
0010
0001
,
1000
0010
0200
0300
,
0001
0000
0001
0000
,
0010
0001
1000
0001
,
1000
0000
1000
0000
,
0010
1000
0001
1000
,
0001
0000
0100
0000
,
0020
0000
0030
0000
,
0200
0000
0000
0000
,
0300
0000
0000
0000
,
0002
0000
0003
0000
,
2000
0000
3000
0000
,
0100
1000
0100
1000
,
0002
0000
0003
0000
,
0010
0001
0010
0001
,
2000
0000
3000
0000
,
0010
1000
0100
0000
,
0010
0001
0100
0000
,
0010
0100
0010
0100
,
0001
1000
0001
0000
,
1000
0010
1000
0100
,
0020
0000
0030
0000
,
0001
0010
0001
1000
,
0200
0000
0300
0000
,
1000
0100
0010
0000
,
0001
0100
0010
0000
,
1000
0010
1000
0001
,
0100
0001
0100
0100
,
0010
0100
0010
0000
,
1000
1000
0100
0100
,
1000
0001
1000
0000
,
0001
0100
0001
0000
,
0100
0000
0010
0000
,
0200
0000
0300
0000
,
0002
0000
0013
0000
,
0001
1000
0001
0000
,
2000
0000
3010
0000
,
1000
0001
1000
0000
,
0200
0000
0000
0000
,
0300
0000
0000
0000
,
2000
0000
0000
0000
,
0002
0000
3003
0000
,
0020
0000
0000
0000
,
0030
0000
0000
0000
,
0002
0000
0000
0000
,
2000
0000
3003
0000
,
0200
0000
0300
0000
,
0200
0000
0300
0000
,
0001
0000
0001
0000
,
1000
0000
1000
0000
,
0020
0000
0030
0000
,
0020
0000
0030
0000
,
0200
0000
0000
0000
,
0300
0000
0001
0100
,
0001
0000
1000
0010
,
1000
0000
0100
1000
,
0010
0000
1000
0001
,
0100
0000
0010
1000
,
0001
0000
0010
0000
,
0001
1000
0010
1000
,
0010
0010
0100
0001
,
0100
0000
0001
0010
,
0001
0000
1000
0000
,
0100
0000
0010
0010
,
0001
0010
0001
1000
,
0001
0000
2000
0100
,
3100
0000
0010
0100
,
1000
0100
0010
0001
,
0100
0000
0002
0100
,
0103
0000
0010
1000
,
0001
0000
0100
0001
,
1000
0000
0200
0000
,
0310
0000
0001
0010
,
0001
0000
1000
0010
,
1000
0000
0020
0000
,
0130
0000
0001
0100
,
0010
1000
0001
0100
,
0010
1000
0002
0000
,
0003
0000
2000
0000
,
3000
0000
0200
0000
,
0000
0000
0300
0000
,
0000
0000
0000
0000
,
0020
0000
0000
0030
,
0002
0000
0000
0003
,
2000
0000
0000
3000
,
0200
0000
0000
0300
,
2000
3000
0002
0003
,
0200
0300
0020
0030
,
2000
0000
0000
3000
,
0002
0000
0000
0003
,
0000
0200
0000
0000
0000
0000
0000
0000
0000
0000
0000
0000
0000
0000
0000
0000
,
0000
0300
0000
0000
0000
0000
0000
0000
0000
0000
0000
0000
0000
0000
0000
0000
;

//--------------- dance-single - 8Chasey ----------------
#NOTES:
     dance-single:
     8Chasey:
     Medium:
     5:
     0,0,0,0,0:
0000
0000
0000
0000
,
0000
0000
0000
0000
,
0000
0000
0000
0000
,
0000
0000
0000
0000
,
0000
0000
0000
0000
,
0000
0000
0000
0000
,
0000
0000
0000
0000
,
0000
0000
0000
0000
,
0000
0000
0000
0000
,
0000
0000
0000
0000
,
0000
0000
0000
0000
,
0001
0000
0100
0001
0000
1000
0001
0000
,
1000
0100
1000
0000
0010
0100
0010
0000
,
1000
0000
0100
1000
0000
0001
0100
0000
,
0010
0100
0010
0000
0100
0000
0010
0000
,
1000
0000
0100
0010
0000
0001
0010
0001
,
0010
0000
0100
0010
0000
0100
0010
0000
,
0100
0000
1000
0100
0000
1000
0001
1000
,
0001
0000
0100
0000
0010
1000
0001
0000
,
1000
0000
0010
1000
0000
0001
1000
0000
,
0100
1000
0100
0000
0010
0001
0010
0000
,
0001
0000
0100
0001
0000
1000
0010
0000
,
1000
0100
0010
0000
0001
0000
0100
0000
,
0010
0000
1000
0010
0000
1000
0001
1000
,
0001
0000
0100
0010
0000
0000
0010
0000
,
1000
0000
0100
0000
1000
0001
1000
0000
,
0001
0000
0010
0000
0100
0010
0100
0000
,
0011
0000
0001
1000
0000
0100
1000
0000
,
0010
1000
0100
1000
,
1010
0000
0001
0100
0000
0100
0000
0010
,
0000
0000
1000
0100
1000
0000
0001
0010
,
0001
0000
0100
0000
0200
0000
0000
0020
,
0000
0000
0000
0330
,
2001
0000
0000
3200
0000
0000
0000
0320
,
0000
0000
0000
0032
0000
0000
0000
1003
,
2000
0000
0000
3002
0000
0000
0000
0103
,
0000
0100
0010
0000
1000
0001
0000
0000
,
1000
0000
0010
1000
0000
0001
1000
0000
,
0001
0000
0010
0000
0100
0010
0100
0000
,
0010
0000
0001
1000
0000
0000
0001
0000
,
1000
0000
0100
0000
0010
0100
0010
0000
,
0001
0000
0100
0010
0000
1000
0100
0000
,
0100
0000
1000
0001
0000
0000
0100
0000
,
0020
0000
1000
0000
0000
1000
0000
0000
,
1030
0000
0001
0000
0100
0010
0100
0000
,
0001
0000
0010
0001
0000
1000
0001
0000
,
1000
0000
0100
0000
1000
0001
0100
0000
,
0010
0000
1000
0100
0000
0000
1000
0000
,
0001
0000
0100
0000
0010
0010
1000
0000
,
0100
0000
1000
0010
0000
0100
0001
0000
,
0100
0000
0010
1000
0000
0000
0010
0000
,
0200
0000
0001
0000
0000
0001
0000
0000
,
0301
0000
1000
0000
0100
0010
0100
0000
,
0001
0000
0010
0000
0001
1000
0001
0000
,
0100
0000
0010
0000
1000
0100
1000
0000
,
0100
0000
0010
0001
0000
1000
0000
0020
,
0000
0000
0130
0000
0001
1000
0001
1000
,
0010
0000
0010
0000
0100
0002
0000
2000
,
0000
0000
0000
3003
,
0110
0000
0020
0000
1030
0000
0000
0020
,
0000
0100
0130
0001
,
0200
0000
0010
0000
0310
0000
0000
2000
,
0000
0001
3001
0000
,
0020
0000
0000
0000
0031
0000
0000
1000
,
0000
1000
0001
0000
,
0200
0000
0000
0000
0001
0000
0000
0302
,
0000
0000
0103
0000
,
0020
0000
0000
0000
1030
0000
0000
0001
,
0000
0001
1000
0000
,
0200
0000
0000
0000
1000
0000
0000
2300
,
0000
0000
3100
0000
,
0210
0000
0000
0000
0310
0000
0000
0001
,
0000
0010
0001
0000
,
2000
0000
0000
0000
0001
0000
0000
3002
,
0000
1000
1003
0000
,
0020
0000
0000
0000
0130
0000
0000
0001
,
0000
0100
0010
0000
,
0220
0000
0000
0000
,
0330
0000
1001
0001
,
0000
1000
0100
0000
1000
0010
1000
0000
,
0000
0001
0100
0000
0010
0100
0010
0000
,
0000
0100
0001
0000
0100
0010
0100
0000
,
0000
0010
1000
0000
0020
0000
1000
0000
,
0000
0100
0130
0000
0001
0100
0001
0000
,
0010
0001
2000
0010
,
0001
0000
3100
0000
0010
0000
0001
1000
,
0010
1000
1000
0000
0002
0000
0010
0000
,
1000
0000
0103
0000
0010
1000
0010
0000
,
0100
0001
0100
0100
0020
0000
1000
0000
,
0130
0000
0001
0100
0000
0001
0100
0000
,
0001
0000
1000
0100
1000
0000
0001
0000
,
1000
0100
0020
0001
,
0130
0000
1000
0100
0000
1000
0001
0000
,
0100
0000
0010
0000
0110
0000
1000
0010
,
1000
0000
0001
0100
0001
0000
2000
0000
,
3002
0000
0103
0010
0000
0100
0010
0000
,
1000
0100
0020
0100
,
0130
0000
1000
0100
1000
0000
0001
0010
,
0001
0000
0100
0010
0100
0000
0110
0000
,
0010
1000
0010
0000
0100
0000
0001
0000
,
0001
1000
0000
1010
0000
0000
0101
0000
,
0100
0010
0000
1000
0001
0000
1000
0100
,
0000
0010
0000
0110
0000
0000
1001
0000
,
0000
0100
0000
0010
,
0200
0300
2002
0000
,
0000
0000
0000
0000
,
0000
0000
3003
0000
,
0002
0000
0000
0023
0000
0000
0000
0230
,
0000
0000
0000
2300
0000
0000
0000
3010
,
0200
0000
0000
0302
0000
0000
0000
2003
,
0000
0000
0000
3020
0000
0000
0000
0130
,
0100
0000
0001
0100
0000
0001
1000
0001
,
0000
1000
0001
1000
0000
0010
0100
0100
,
0010
0000
1000
0100
0000
1000
0001
1000
,
0000
0001
1000
0001
0000
0100
0010
0010
,
0000
2002
0000
0000
0000
0000
0000
0000
0000
0000
0000
0000
0000
0000
0000
0000
,
0000
0000
0000
0000
,
0000
0000
0000
0000
0000
3003
0000
0000
;

//--------------- dance-single - 8Chasey ----------------
#NOTES:
     dance-single:
     8Chasey:
     Hard:
     8:
     0,0,0,0,0:
0000
0000
0000
0000
,
0000
0000
0000
0000
,
0000
0000
0000
0000
,
0000
0000
0000
0000
,
0000
0000
0000
0000
,
0000
0000
0000
0000
,
0000
0000
0000
0000
,
0000
0000
0000
0000
,
0000
0000
0000
0000
,
0000
0000
0000
0000
,
0000
0000
0000
0000
,
0001
0010
0100
0001
0000
0100
1000
0010
,
0000
1000
0001
0000
0100
0010
0100
0000
,
0010
1000
0100
1000
0000
0010
0100
0001
,
0000
1000
0001
0000
0100
0010
0100
0000
,
0102
0000
1000
1003
0000
0010
0100
0000
,
0001
0000
1000
0100
0000
1000
0010
0000
,
0110
0000
0100
0001
0000
1000
0100
0020
,
0000
0000
0130
0000
1000
0001
1000
0000
,
0100
1000
0010
0100
0000
0001
0100
0010
,
0000
1000
0010
0000
1000
0001
1000
0000
,
0010
0100
1000
0100
0000
0001
1000
0001
,
0000
0010
0100
0000
1000
0001
1000
0000
,
0201
0000
0010
0310
0000
1000
0010
0000
,
0100
0000
0001
1000
0000
0100
0010
0000
,
0110
0000
0001
0100
0000
0010
1000
0010
,
0100
0100
0001
0001
1000
0100
1000
0000
,
1001
0000
0001
0010
0000
0001
0100
0100
,
0000
0010
1000
0010
1000
0100
0010
0000
,
0110
0000
0100
2000
0000
3002
0000
0103
,
0000
0010
1000
0010
0100
0001
0100
0000
,
0110
0000
1000
0010
1000
0001
0100
0020
,
0000
0000
0000
0000
0000
0000
0000
1030
,
0002
0100
0103
0020
0000
0000
0030
2000
,
0000
0010
3010
0200
0000
0301
1000
0010
,
0200
0000
0000
0001
0000
0000
0000
0302
,
0000
1003
0000
0100
0010
0220
0000
0330
,
1001
0000
1000
0010
1000
1000
0100
1000
,
0001
0000
0011
0000
0010
0001
1000
0010
,
0100
0000
0110
0000
0010
1000
0100
0010
,
0100
0000
1100
0000
0101
0001
1000
0000
,
2010
0000
0001
3001
0000
0010
0001
0100
,
0010
0000
1000
0001
0000
0100
0010
0000
,
1010
0000
1000
0100
1000
1000
0001
0010
,
0002
0000
0103
0000
0010
1000
0001
0000
,
0100
0001
0101
0000
0100
0010
1000
0100
,
1000
0000
1100
0000
0100
0010
0001
0000
,
1000
0000
1001
0000
0001
0100
0100
0001
,
0010
0000
0110
0000
0100
1000
0010
0000
,
0201
0000
0010
0310
0000
1000
0100
0100
,
0010
0000
0001
0100
0000
0010
1000
0000
,
1100
0000
1000
0001
0000
0010
0001
0100
,
0000
0010
0010
1000
0001
0100
0010
0000
,
1000
0100
1000
0001
0000
0100
0100
0001
,
0000
0010
0001
0000
0010
0100
0010
0000
,
0001
0100
0001
1000
0000
0010
0000
0110
,
0000
0100
0010
0000
1000
0001
1000
0000
,
0100
0010
0001
1000
0000
0010
0200
0020
,
0000
0000
0000
0330
,
2002
0000
3003
0010
0010
0000
0100
0020
,
0000
0000
1030
0000
0100
1000
0001
0000
,
0100
0001
0100
0001
1000
0000
0000
0200
,
0000
0000
0310
0000
0100
1000
0001
0000
,
2000
0000
0000
0000
3010
0000
1000
0001
,
0000
1000
0002
0000
0013
0000
0000
0000
,
0002
0000
0000
0000
0103
0000
0010
2000
,
0000
0000
0100
0000
3100
0020
0000
0000
,
0130
0000
2000
0000
3001
0000
0010
0001
,
0000
0010
0002
0000
0103
0000
0000
0000
,
0020
0000
0000
0000
1030
0000
0001
0020
,
0000
0000
0100
0000
0130
0010
0000
0000
,
0210
0000
0000
0000
1300
0000
0010
1000
,
0000
0010
0100
0000
0002
0000
1003
0000
,
0002
0000
0000
0000
0013
0000
0001
0200
,
0000
0000
0310
0000
1000
0020
0000
0000
,
0130
0000
0000
0100
0002
0000
0000
1003
,
0000
0010
2000
0000
0100
3100
0000
0010
,
0220
0000
0000
0000
,
0000
0030
0310
0001
0012
0000
0103
0000
,
0010
1000
0010
0000
2000
0000
3100
0000
,
1000
0100
0001
0000
0200
0000
0310
0000
,
0001
0010
0001
1000
0100
0000
1000
0000
,
0010
1000
0001
0000
0100
0000
0110
0000
,
0010
1000
0010
0000
0100
0001
0100
0000
,
0001
1000
0001
0000
0200
0000
0001
0001
,
0000
0310
1000
0002
0000
0010
0013
0001
,
0010
0100
1000
0100
2000
0000
0010
3020
,
0000
0130
0001
1001
0000
1000
0100
0000
,
1000
0100
0001
0100
0010
0000
0001
0010
,
0010
0001
1000
0200
1000
0000
1300
0010
,
0100
0001
0100
0000
0101
0000
0010
1000
,
0010
1000
0100
1000
1001
0000
0011
0010
,
0001
1000
0100
0001
0100
0010
0001
0010
,
0010
0001
1000
0010
0110
0000
0100
0001
,
1000
0100
0100
0000
1100
0000
0101
0100
,
0010
1000
1000
0010
0110
0000
0100
0001
,
1000
0010
1000
0100
0020
0000
0001
0031
,
1000
0200
1000
1300
1001
0000
0001
0010
,
1000
0010
0100
2000
0000
3100
1000
0001
,
0010
0010
0001
0100
0010
0000
2010
0000
,
3100
1000
0001
1001
1000
0000
1020
0000
,
0130
0001
0100
0100
0002
0000
0013
0001
,
1000
0100
0100
1000
1020
0000
0100
0000
,
1000
0000
0000
1030
0000
0000
0001
0000
0000
0010
0000
0000
0200
0000
0000
0000
0000
0000
1300
0000
0000
0000
0010
0000
,
0000
0100
0001
0100
0010
1000
2002
0000
0000
0000
0000
0000
,
0000
0000
0000
0000
,
0000
0000
3003
0000
,
1001
1000
0010
0110
0100
0001
0010
0011
,
0010
0100
1000
1010
0010
0100
0001
0001
,
1001
1000
0010
0110
0100
0001
1000
1100
,
1000
0010
0100
0101
0002
0100
0103
0010
,
2000
0100
3100
0010
0002
0010
0013
0001
,
0200
0010
0310
1000
0020
0100
0130
0001
,
2000
0100
3001
0010
0002
0100
1003
0010
,
0200
0001
0320
1000
0130
0001
0100
0010
,
0000
2002
0000
0000
0000
0000
0000
0000
0000
0000
0000
0000
0000
0000
0000
0000
,
0000
0000
0000
0000
,
0000
0000
0000
0000
0000
3003
0000
0000
;

//--------------- dance-double - 8Chasey ----------------
#NOTES:
     dance-double:
     8Chasey:
     Easy:
     4:
     0,0,0,0,0:
00000000
00000000
00000000
00000000
,
00000000
00000000
00000000
00000000
,
00000000
00000000
00000000
00000000
,
00000000
00000000
00000000
00000000
,
00000000
00000000
00000000
00000000
,
00000000
00000000
00000000
00000000
,
00000000
00000000
00000000
00000000
,
00000000
00000000
00000000
00000000
,
00000000
00000000
00000000
00000000
,
00000000
00000000
00000000
00000000
,
00000000
00000000
00000000
00000000
,
00010000
00001000
00100000
00000000
,
00020000
00000000
01030000
00000000
,
00001000
00010000
00000010
00000000
,
00002000
00000000
00003100
00000000
,
00000010
00000100
00000010
00000000
,
00000001
00000100
00001000
00000000
,
00010000
00001000
00010000
01000000
,
10000000
00010000
10000000
00000000
,
00010000
00100000
00001000
00000000
,
00020000
00000000
00030100
00000000
,
00001000
00000010
00010000
00000000
,
00002000
00000000
01003000
00000000
,
00010000
10000000
00010000
00000000
,
00100000
01000000
00100000
00000000
,
01000000
00010000
00001000
00010000
,
00000100
00001000
00000010
00000000
,
00001001
00000001
00000100
00000000
,
00000001
00000000
00001000
00001000
,
00000100
00001000
00000100
00000000
,
00010000
00000000
00001000
00100000
,
00001000
01000000
00100000
00000000
,
02200000
00000000
03300000
00000000
,
00020000
00000000
00000000
00030000
,
20000000
00000000
00000000
31000000
,
00200000
00000000
00000000
00300000
,
00001000
00010000
00011000
00000000
,
00010000
00000100
00001000
00000000
,
00000020
00000000
00000130
00000000
,
00001000
01000000
00010000
00000000
,
00200000
00000000
01300000
00000000
,
10000000
01000000
10000000
00000000
,
01000000
00100000
01000000
00000000
,
00010000
00001000
00010000
00000100
,
00001000
00000100
00000010
00000000
,
00000100
00010000
00001000
00000000
,
00200000
00000000
00310000
00000000
,
01000000
00001000
00010000
00000000
,
00000020
00000000
00001030
00000000
,
00000001
00000010
00000001
00000000
,
00001000
00000100
00010000
00000000
,
00001000
01000000
00010000
10000000
,
01000000
00100000
01000000
01100000
,
10000000
01000000
10000000
00000000
,
00010000
00000000
01000000
00001000
,
00010000
00001000
00010000
00000000
,
00000100
00001000
00000010
00000000
,
00000100
00000001
00000010
00000000
,
00000220
00000000
00000330
00000000
,
00000002
00000000
00000103
00000000
,
00000010
00000100
00000010
00000000
,
00020000
00000000
00031000
00000000
,
00100000
01000000
00100000
00000000
,
00020000
00000000
01030000
00000000
,
00000000
00010000
10000000
00000000
,
02000000
00000000
00100000
00000000
,
00200000
00000000
03300000
00000000
,
20000000
00000000
31000000
00000000
,
00000000
10000000
00010000
00000000
,
02000000
00000000
00100000
00000000
,
00200000
00000000
03300000
00000000
,
01000000
00000000
00001000
00000000
,
00010000
00000100
00010000
00000000
,
00000020
00000000
00000100
00000000
,
00000200
00000000
00000330
00000000
,
00000001
00000100
00001000
00000000
,
00010000
00001000
00010000
00000000
,
00022000
00000000
00000000
00000000
,
00033000
00000000
00001000
00100000
,
00001000
00000000
01000000
00010000
,
01000000
00000000
00100000
10000000
,
01000000
00000000
00010000
00001000
,
00000100
00000000
00000001
00000010
,
00000001
00000000
00001000
00000100
,
00010000
00001000
00100000
00010000
,
01000000
00000000
00100000
00000000
,
10000000
01000000
10000000
00010000
,
01000000
00000000
00001000
00000000
,
00010000
00000100
00010000
00000010
,
00000100
00000000
00000001
00000100
,
00001000
00010000
00001000
00000000
,
00100000
00001000
00100000
00000000
,
00010000
10000000
01000000
00100000
,
01000000
00000000
00100000
00001000
,
00100000
00000000
00001000
01000000
,
00010000
00000000
10000000
01000000
,
10000000
01000000
00100000
00000000
,
00001000
00010000
00000100
00000000
,
00000010
00000001
00000100
00001000
,
00010000
00001000
00010000
00000000
,
00001000
00100000
00010000
10000000
,
01000000
00000000
00100000
01000000
,
00100000
00000000
00001000
01000000
,
00001000
00000000
00010000
00000100
,
00010000
00000000
00022000
00000000
,
00000000
00000000
00033000
00000000
,
00000000
00000000
00000000
00000000
,
00200000
00000000
00301000
00000000
,
00020000
00000000
00030100
00000000
,
00000020
00000000
00000031
00000000
,
00000200
00000000
00000310
00000000
,
00001000
00000100
00010000
00000000
,
00001000
01000000
00010000
00000000
,
11000000
10000000
00010000
00000000
,
01010000
00010000
10000000
00000000
,
00000000
20020000
00000000
00000000
00000000
00000000
00000000
00000000
00000000
00000000
00000000
00000000
00000000
00000000
00000000
00000000
,
00000000
30030000
00000000
00000000
00000000
00000000
00000000
00000000
00000000
00000000
00000000
00000000
00000000
00000000
00000000
00000000
;
