#TITLE:Alexa's Theme Song;
#SUBTITLE:;
#ARTIST:Alexa;
#TITLETRANSLIT:;
#SUBTITLETRANSLIT:;
#ARTISTTRANSLIT:;
#GENRE:;
#CREDIT:;
#BANNER:Alexa's Theme Song.png;
#BACKGROUND:;
#LYRICSPATH:Alexa's Theme Song.lrc;
#CDTITLE:;
#MUSIC:Alexa's Theme Song.ogg;
#OFFSET:-0.275000;
#SAMPLESTART:14.775000;
#SAMPLELENGTH:15.000000;
#SELECTABLE:YES;
#BPMS:0.000000=128.000000
;
#STOPS:
;
#BGCHANGES:;
#KEYSOUNDS:;
#ATTACKS:;

//---------------dance-single - ----------------
#NOTES:
     dance-single:
     :
     Hard:
     6:
     0.422962,0.412561,0.291220,0.218415,0.048537,122.000000,110.000000,12.000000,9.000000,0.000000,0.000000,0.422962,0.412561,0.291220,0.218415,0.048537,122.000000,110.000000,12.000000,9.000000,0.000000,0.000000:
0000
0000
0000
0000
,
0000
0000
0000
0000
,
0010
0100
0001
1000
0001
0010
0100
0010
,
1000
0000
0000
0100
0000
0000
1000
0000
0002
0000
0000
0000
0003
0000
0000
0000
,
0100
0010
0020
0000
1000
0000
0130
0000
,
0001
0100
0010
1000
0010
0000
0001
0100
,
0002
0000
0000
0000
1003
0000
0010
0000
0100
0000
0000
0001
0000
0000
1000
0000
,
0010
0110
1001
0020
,
0130
0001
0100
0010
1000
0100
1000
0000
,
0001
0010
0100
1000
0001
0100
0010
0000
,
0110
1001
0011
1010
,
0100
0001
0100
1000
0200
0000
0310
0000
,
0001
0001
0010
0000
0100
1000
0010
0000
,
0100
0001
1000
0000
0010
0010
0110
0000
,
0001
0100
0010
1000
0100
0000
1000
0010
,
0100
0000
0010
1000
0001
0000
1001
0000
,
0010
0100
0001
1000
0002
0000
0003
0000
,
0101
0000
0000
1100
0000
0000
0000
0000
0010
0000
0100
0000
0001
0000
0000
0000
,
1000
0100
1000
0000
0002
0000
0103
0000
,
1010
0000
0000
0011
0000
0000
0000
0000
0100
0000
0001
0000
0010
0000
0001
0000
,
2000
0000
3100
0000
0010
0100
1000
0001
,
2000
3000
0000
0000
;

//---------------dance-single - ----------------
#NOTES:
     dance-single:
     :
     Medium:
     4:
     0.325889,0.335206,0.169878,0.169878,0.012134,94.000000,87.000000,7.000000,7.000000,0.000000,0.000000,0.325889,0.335206,0.169878,0.169878,0.012134,94.000000,87.000000,7.000000,7.000000,0.000000,0.000000:
0000
0000
0000
0000
,
0000
0000
0000
0000
,
0001
0000
0100
0000
0010
1000
0100
0000
,
1000
0000
0000
0001
0000
0000
1000
0000
0001
0000
0000
0000
0000
0000
0000
0000
,
0100
0000
0001
0010
0001
0000
1000
0000
,
0100
1000
0100
0000
0020
0000
0030
0000
,
0001
0100
0001
0000
1000
0100
1000
0000
,
1001
1001
1001
0000
,
0100
0001
0100
0000
0010
1000
0100
0000
,
1000
0001
1000
0000
0010
0100
0010
0000
,
1000
0001
0010
0010
,
0001
0000
0100
0000
0010
1000
0010
0000
,
0100
0000
0100
0000
0010
1000
0010
0000
,
0100
0000
0001
0000
1000
0001
1000
0000
,
0010
0100
0010
1000
,
0100
0000
0010
0000
0001
0100
0001
0000
,
1000
0010
0100
0000
0110
0000
0000
0000
,
2002
3003
0100
0001
,
0010
0100
1000
0000
0010
0000
0000
0000
,
0220
0330
1000
0100
,
0010
0001
0010
0000
0001
0000
1000
0000
,
2002
3003
0000
0000
;

//---------------dance-single - ----------------
#NOTES:
     dance-single:
     :
     Easy:
     3:
     0.235749,0.283636,0.121342,0.169878,0.000000,68.000000,63.000000,5.000000,7.000000,0.000000,0.000000,0.235749,0.283636,0.121342,0.169878,0.000000,68.000000,63.000000,5.000000,7.000000,0.000000,0.000000:
0000
0000
0000
0000
,
0000
0000
0000
0000
,
1000
0100
0010
0100
,
1000
0001
1000
0000
,
0010
0010
0110
0000
,
0001
0100
0010
0000
,
1000
0100
1000
0001
,
1000
1000
1000
0000
,
0010
0100
0001
0100
,
0010
1000
0001
0100
,
0001
0100
0010
0110
,
0100
0001
1000
1001
,
0002
0003
0020
0030
,
0200
0300
1000
0001
,
0010
0010
0010
0001
,
0100
0100
0100
0010
,
1000
0001
1001
0000
,
0020
0030
0000
1000
,
0100
0010
0100
0000
,
2000
3000
0000
0001
,
0100
0010
1000
0000
,
2002
3003
0000
0000
;

//---------------dance-single - ----------------
#NOTES:
     dance-single:
     :
     Beginner:
     1:
     0.180279,0.280299,0.121342,0.000000,0.000000,52.000000,47.000000,5.000000,0.000000,0.000000,0.000000,0.180279,0.280299,0.121342,0.000000,0.000000,52.000000,47.000000,5.000000,0.000000,0.000000,0.000000:
0000
0000
0000
0000
,
0000
0000
0000
0000
,
0001
0000
0001
0000
,
1000
1000
1000
0000
,
0010
0000
0100
0000
,
0001
0001
0001
0000
,
0100
0000
0010
0000
,
0110
0110
0110
0000
,
0001
0001
0001
0001
,
0001
0001
0001
0000
,
1000
1000
1000
1000
,
1000
1000
1000
0000
,
0010
0000
1000
0000
,
0100
0000
0001
0001
,
0000
0010
0000
0010
,
0000
1000
1000
0000
,
1001
0000
0000
0000
,
0010
0000
0000
0000
,
0100
0100
0100
0000
,
0010
0000
0000
0000
,
1000
0000
0001
0000
,
1001
0000
0000
0000
;

//---------------dance-double - ----------------
#NOTES:
     dance-double:
     :
     Easy:
     3:
     0.239216,0.257851,0.121342,0.169878,0.000000,69.000000,64.000000,5.000000,7.000000,0.000000,0.000000,0.239216,0.257851,0.121342,0.169878,0.000000,69.000000,64.000000,5.000000,7.000000,0.000000,0.000000:
// measure 0
00000000
00000000
00000000
00000000
,  // measure 1
00000000
00000000
00000000
00000000
,  // measure 2
00010000
00001000
00010000
00011000
,  // measure 3
00100000
00010000
01000000
00000000
,  // measure 4
10000000
10000000
10000000
00000000
,  // measure 5
00010000
00010000
00010000
00000000
,  // measure 6
00100000
00001000
00010000
00001000
,  // measure 7
00010000
00010000
00011000
00000000
,  // measure 8
00000100
00000001
00000100
00000001
,  // measure 9
00000010
00000100
00010000
00001000
,  // measure 10
00010000
01000000
00100000
00010000
,  // measure 11
10000000
00010000
00100000
00100000
,  // measure 12
00002000
00003000
00020000
00030000
,  // measure 13
00000200
00000300
00001000
00001001
,  // measure 14
00000010
00000010
00001000
00000100
,  // measure 15
00010000
00010000
00001000
00100000
,  // measure 16
00010000
10000000
10010000
00000000
,  // measure 17
00200000
00300000
00000000
00010000
,  // measure 18
00100000
00001000
00010000
00000000
,  // measure 19
00002000
00003000
00000000
00010000
,  // measure 20
00000100
00001000
00000100
00010000
,  // measure 21
00022000
00033000
00000000
00000000
;
