#TITLE:Albuquerque;
#SUBTITLE:;
#ARTIST:"Weird Al" Yankovic;
#TITLETRANSLIT:;
#SUBTITLETRANSLIT:;
#ARTISTTRANSLIT:;
#GENRE:Comedy;
#CREDIT:;
#BANNER:Albuquerque.png;
#BACKGROUND:;
#LYRICSPATH:;
#CDTITLE:;
#MUSIC:Albuquerque.ogg;
#OFFSET:-0.675000;
#SAMPLESTART:93.250000;
#SAMPLELENGTH:15.000000;
#SELECTABLE:YES;
#BPMS:0.000000=186.600006
,1030.000000=93.300003
,1034.000000=186.600006
,1060.000000=93.300003
,1064.000000=186.600006
,1276.000000=93.300003
,1278.000000=186.600006
,1410.000000=62.199997
,1410.500000=186.600006
,1593.000000=93.300003
,1594.000000=186.600006
,1780.000000=93.300003
,1784.000000=186.600006
,1852.000000=62.199997
,1852.500000=186.600006
,1987.000000=180.000000
,1988.000000=170.000000
,1989.000000=160.000000
,1990.000000=140.000000
,1991.000000=130.000000
,1995.000000=124.999992
,2008.000000=120.000000
,2011.000000=115.000000
,2013.000000=111.000000
,2015.000000=110.000000
,2016.000000=100.000000
,2017.000000=95.000000
,2019.000000=130.000000
,2019.500000=180.000000
,2020.000000=230.000000
,2029.000000=275.000000
,2031.000000=265.000000
,2031.500000=260.000000
,2032.000000=249.999985
,2032.500000=245.000015
,2033.000000=230.000000
,2034.000000=220.000000
,2034.500000=200.000000
,2035.000000=180.000000
,2035.500000=175.000000
,2036.000000=150.000000
,2036.500000=140.000000
,2037.000000=135.000000
,2037.500000=115.000000
,2038.000000=100.000000
,2038.500000=80.000000
,2039.000000=92.000000
,2040.000000=120.000000
,2044.000000=185.000000
,2048.000000=175.000000
,2052.000000=165.000000
,2056.000000=155.000000
,2059.000000=150.000000
,2060.000000=140.000000
,2061.000000=120.000000
,2062.000000=124.999992
,2063.000000=135.000000
;
#STOPS:284.000000=0.322000,
835.000000=0.322000
;
#BGCHANGES:;
#KEYSOUNDS:;
#ATTACKS:;

//---------------dance-single - ----------------
#NOTES:
     dance-single:
     :
     Hard:
     11:
     0.571063,0.869315,0.554956,0.502243,0.095909,2730.000000,2351.000000,379.000000,343.000000,0.000000,0.000000,0.571063,0.869315,0.554956,0.502243,0.095909,2730.000000,2351.000000,379.000000,343.000000,0.000000,0.000000:
0000
0000
0000
0000
,
0000
0000
0000
0000
,
0000
0000
0000
0000
,
0000
0000
0000
0000
,
0001
0000
1000
0000
0010
0100
0001
0000
,
1000
0000
0000
0001
0000
0000
0020
0000
0100
0000
0000
0000
0130
0000
0000
0000
,
1001
0000
0101
0000
0010
1000
0100
1000
,
0001
0010
0010
0001
0010
0010
0001
1000
,
0010
0000
0110
0000
0001
0100
0001
1000
,
0010
0000
0000
0100
0000
0000
0001
0000
1000
0000
0010
0000
1001
0000
0000
0000
,
0100
0000
0001
0000
1000
0000
0000
0010
1000
0000
0000
0010
1000
0000
0000
0010
,
0100
0001
1000
0010
0100
0001
0011
0000
,
0100
0010
1000
0100
1000
0001
0100
0010
,
0100
0002
1000
0000
1000
0000
1003
0000
,
0101
0000
2100
0000
0010
0010
3010
0000
,
0100
0001
0100
0010
1000
0100
0100
0010
,
1001
0000
0100
0001
0000
0100
0001
1000
,
0010
1001
0110
1001
,
0010
0100
0010
1000
0100
0010
0100
0001
,
0100
1000
0001
1000
0001
0000
1001
0000
,
0010
0010
0100
0000
1000
0100
0010
1000
,
0020
0000
0001
0000
0130
1000
0001
0000
,
0101
0000
1100
0000
0010
0010
0010
0000
,
0100
0001
0100
1000
0100
0001
1000
0000
,
0101
1010
2002
3003
,
0020
0000
0100
0000
1000
1000
1030
0000
,
0001
1000
0001
1000
0000
0000
0010
0100
0010
0100
0000
0000
,
2002
0000
3003
0000
0100
0001
0100
1000
,
0010
0010
0020
0000
0030
0000
0100
0001
,
1000
0101
2020
3030
,
0100
0001
0000
1000
0100
0000
0110
0000
,
0001
0100
0010
1000
0100
1000
0001
0000
,
0101
0000
1100
0000
0010
0100
1000
0000
,
0002
0000
0203
0000
0310
1000
0001
0000
,
0101
0000
1000
0000
0010
1000
0100
0000
,
0010
0001
0010
0100
1000
0000
0101
0000
,
2010
0000
0000
0001
0000
0000
3002
0000
,
0100
0100
0100
0000
0010
0010
0013
0000
,
1000
0010
1000
0000
0001
0000
0100
0000
0020
0000
0000
0000
0030
0000
0000
0000
,
0100
0001
1000
0000
0100
0000
1000
0000
0020
0000
0000
0000
0030
0000
0000
0000
,
0001
0000
1000
0000
0010
0000
0100
0000
0010
0000
0000
1000
0000
0000
0100
0000
,
0001
1000
0010
0010
0010
0100
0100
0100
,
0001
1000
2002
3003
,
0010
0010
0100
0000
0001
1000
0100
0000
,
0022
0000
0033
0000
0000
1000
0100
0000
,
0110
0101
1100
0000
,
0001
0100
1000
0100
0001
0010
0100
1000
,
0001
1000
0001
2000
0000
0000
3010
0000
,
0001
0000
1010
0000
0000
0100
0001
0100
,
0001
0000
0000
0000
1000
0000
1000
0000
0010
0000
0000
0010
0000
0000
0020
0000
,
0100
0000
1030
0001
0000
0100
0001
1000
,
0000
0002
0010
0000
0013
0100
0010
0100
,
0001
1100
0010
0101
,
1000
0100
0010
0010
0010
0010
0010
0000
,
0001
1000
0100
1000
0100
0100
0010
0100
,
1000
0000
0101
0000
0010
1000
0001
0000
,
0202
0303
2020
3030
,
0001
1000
0001
1000
0010
0010
0000
2002
,
0000
0000
3003
0000
0100
0010
0000
0100
,
0010
0000
0100
0010
1000
0100
0010
0000
,
0101
0000
0000
1010
0000
0000
1001
0000
,
0100
0000
0010
0100
0010
1000
0100
1000
,
0001
0000
0010
0010
0010
0100
0001
1000
,
0100
0100
1000
0010
0100
0001
1000
0010
,
0100
1000
0100
1000
0001
0100
0010
1000
,
0100
0100
0001
0100
1000
0001
1000
0010
,
0100
0102
0000
1003
,
0010
0000
0000
0010
0000
0000
0020
0000
0000
0000
0000
0000
0130
0000
0001
0000
,
0010
0000
1000
0100
0000
1000
0002
0000
,
0100
0000
0013
0100
1000
0001
1000
0000
,
0101
0000
1010
0000
0100
0001
1000
0100
,
0010
0000
1000
0100
0010
0100
1000
0001
,
1000
0002
0000
0100
0103
0010
1000
0100
,
0010
0002
0000
0103
0010
1000
0000
0101
,
0000
1000
0010
0100
0001
1000
0010
0010
,
1000
0020
0000
0100
0130
0000
0101
0000
,
1000
0010
0000
0100
0010
0000
0001
1000
,
0100
0020
0000
0100
0000
0031
0000
1001
,
0000
0100
0001
0100
1000
0100
0010
0001
,
0000
1002
0000
0100
0100
0100
0103
0000
,
0010
1000
0100
1000
0010
0000
0101
0000
,
0011
0000
1000
0100
1000
0000
0001
0010
,
0001
0100
0001
1000
0010
1000
0100
2000
,
0002
0000
3003
0000
0101
0000
0010
0010
,
0100
0000
0010
0010
1000
0000
0100
0100
,
0010
0000
0001
0000
0100
0000
0100
0000
0001
0000
0000
0000
1100
0000
0000
0001
,
1000
0000
0000
0000
0110
0000
0000
0001
0100
0000
0000
0000
1010
0000
0000
0100
,
0010
0000
0000
0000
1001
0000
0000
0100
0001
0000
0000
0000
0010
0000
1000
0000
,
0100
1000
0002
0010
0023
0100
0230
0000
,
2300
0000
0020
0000
3030
0000
0001
0100
,
0001
0100
0010
1000
0010
1000
0100
0010
,
0100
0010
0001
0100
0010
0010
1000
0000
,
0101
0000
0010
0100
0001
1000
0200
0000
,
0300
0011
0011
1001
,
0000
0000
0000
0100
0001
0000
0000
0000
1100
0000
0000
0000
0010
0000
0100
0000
,
0001
0000
0001
0000
1000
0000
0010
0000
0100
0000
0000
0000
0001
0100
0000
0001
,
0100
0000
0000
0000
0001
1000
0000
0001
1000
0000
0000
0000
1000
0010
0000
1000
,
0010
0000
0000
0000
1000
0100
0000
1000
0100
0000
0000
0000
0100
0010
0000
0100
,
0010
0000
0000
0000
0100
1000
0000
0100
1000
0000
0000
0000
1000
0001
0000
1000
,
0001
0000
0020
0000
0100
0000
0100
0000
0130
0000
1000
0001
2000
0000
0000
0000
,
0000
0020
0000
0000
,
3030
0000
0000
1000
0001
0010
0002
0000
,
0000
0000
1003
0000
0010
0100
0002
0000
,
1000
1003
0110
1010
,
0001
0100
0000
1100
0000
0102
0000
0010
,
0023
0000
0130
1000
0001
1000
0010
0010
,
0100
0001
2000
0000
3200
0000
0320
0000
,
0031
1000
0000
0001
1000
0000
0010
0100
,
0001
2000
0000
3100
0020
0000
0130
0000
,
0101
0000
1100
0000
0010
0010
0100
0001
,
1000
0100
0020
0000
0230
0000
2300
0000
,
3001
0100
0000
0001
0100
0000
1010
0000
,
0001
0200
0000
0310
2000
0000
3100
0000
,
0101
0000
1010
0000
0100
0001
0010
0100
,
1000
0010
0200
0000
0302
0000
0023
0000
,
0130
0000
1000
0000
0000
0000
0100
0000
1000
0000
0000
0000
0001
0100
0000
0000
,
0001
1000
0000
0000
0010
1000
0000
0000
0100
1000
0000
0000
0010
0100
0000
0000
,
0001
0010
0000
0000
0100
1000
0000
0000
0010
1000
0000
0000
0001
0100
0000
0000
,
0010
0000
0010
0000
1000
0200
0000
0000
0000
0000
0000
0000
0300
0000
0000
0000
,
0000
0000
0011
1200
,
0300
1200
0320
0032
,
0103
0000
0010
0100
0001
1000
0002
0000
,
0203
0000
0302
0000
0013
0100
1000
0001
,
1000
0001
0000
0101
0000
2010
0000
0000
,
0200
0000
0000
0000
3000
0000
0000
0000
1300
0000
0000
0000
0001
1000
0000
0001
,
1000
0010
0100
0000
0000
0000
0001
0001
,
0000
0200
0000
0000
0300
0000
1000
1000
,
0000
0200
0000
0000
0300
0000
0010
0010
,
0000
0200
0000
0000
0300
0000
0001
0001
,
0000
2000
0000
0000
3000
0000
0010
0100
,
0010
0100
0010
0100
0010
0100
0001
0100
,
0001
1000
0100
0010
0002
0000
2000
0000
,
3003
0000
0000
1001
,
0110
0000
0000
1001
0000
0000
0110
0000
0000
0001
0100
0001
,
0010
0000
0100
1000
0100
0010
0001
0000
1000
0001
0000
0000
,
0101
0000
1010
0000
0100
0002
0020
0000
,
0033
0000
1100
0000
0001
1000
0020
0200
,
0000
0000
0330
0000
0000
0000
0001
0100
,
0010
0100
0001
1000
0100
0010
0002
0000
,
0000
0000
1000
2003
0000
0000
3010
1000
,
0000
1100
0000
0101
0000
1100
0000
0010
,
0010
0000
0011
0000
1010
0000
0100
0001
,
1000
0100
0020
0000
0030
0000
0100
1000
,
0001
0100
0020
0000
0030
0000
1001
0000
,
0010
0010
0010
0010
0010
0000
1001
0000
,
0100
0000
0100
0000
0100
0000
0100
0000
0100
0000
0000
0000
0001
0100
0000
0000
,
0010
1000
0000
0000
0100
0000
0001
0000
0100
0000
1000
0000
0100
0010
0100
0000
,
0001
1000
0002
0000
0000
0000
1003
0000
,
0000
0000
0010
0010
,
0000
0000
0000
1000
0001
1000
0001
1000
0001
1000
0000
0000
,
0000
0000
0000
0000
,
0000
0000
0010
0100
0001
1000
0200
0000
,
0000
0000
0000
0300
,
0000
0000
0000
0000
0100
0002
0000
2000
,
0000
0000
0000
0000
0000
3003
0000
0000
,
0000
0000
0000
0000
0101
1100
0010
2002
,
0000
3000
0000
0203
,
0000
0000
0300
0000
0000
0000
0001
0100
,
1000
0100
0020
0000
0030
0000
1000
0002
,
0000
0020
0033
0200
,
2300
3200
0320
0032
,
0000
0000
0000
0000
0003
0000
1000
0100
,
1000
0010
0100
0000
0000
0000
1001
0000
,
0010
0100
0002
0000
0013
0000
1100
0000
,
0000
0001
0000
0000
1100
0000
0101
0000
,
0000
1000
0000
0000
0101
0000
0010
0100
,
0010
2002
3003
0100
,
0100
0000
0010
0010
0010
0000
2000
0100
,
0000
3100
0020
0100
0000
0130
1000
0001
,
1000
0001
0002
0000
0003
0000
1010
0000
,
0000
0100
0000
0000
0101
0000
2002
0000
,
3003
0000
0010
0100
0010
0100
0010
0000
,
0101
2200
3300
0220
,
0000
0330
0000
1001
,
0000
0000
0000
0000
0000
0000
0010
0010
,
0000
0000
0000
0000
0000
0000
0000
0000
0000
0000
0000
0000
0101
0000
0000
1100
,
0000
0000
0000
0000
0000
0000
0000
0000
0000
0000
0000
0000
0000
0000
0000
0020
,
0000
0000
0000
0030
1000
0000
0001
0000
1000
0000
0001
0000
0020
0000
0000
0000
,
0100
0100
0130
0101
,
1000
0100
0010
0100
1000
0001
0001
0001
,
0000
1000
1000
1000
0000
0010
0200
0000
,
0302
2003
3010
4004
,
0000
0000
0000
3003
,
0000
0440
0000
0000
,
0000
0330
0000
0000
,
0000
0002
0000
0000
0000
0000
1003
0000
,
0000
0100
0100
0200
,
0000
0300
0202
0303
,
0000
2200
0000
3300
0000
0000
0010
0100
,
0001
1000
0200
0000
0000
0000
0310
0000
,
0000
0000
0101
0000
0000
0000
1000
0010
,
0100
1000
0100
0000
0101
0000
1000
0000
,
0010
0000
0100
0000
0001
0000
1000
0010
,
0100
0001
1000
0100
0010
0001
1000
0000
,
0001
0100
0000
0010
2000
0000
3200
0000
,
0320
0031
1100
0011
,
0100
0002
0000
1003
0002
0000
1003
0000
,
0110
0000
0110
0000
0100
0001
1000
0010
,
0100
0020
0000
0000
1030
2000
0000
3002
,
0000
2003
0000
3010
0100
0010
2000
0000
,
0100
0000
0010
0000
3001
0001
0000
0202
,
0000
0000
0303
0000
1000
0010
1010
0000
,
0100
0002
0000
0013
0002
0000
1003
0000
,
0101
0000
1010
0000
0100
0001
0010
0100
,
1000
0002
0000
1003
0002
0000
0100
0000
,
0013
0100
1000
0010
0200
0000
0301
1000
,
0000
0010
2000
0000
3100
0020
0000
0230
,
0000
2300
0000
3002
0000
1003
0020
0000
,
0100
0000
1000
0000
0130
0000
1001
0100
,
0001
1000
0010
0010
1001
0000
0100
0001
,
0010
0100
0001
0100
1000
1000
0010
0200
,
0000
0000
0000
0000
0301
0000
0000
0000
1100
0000
0000
0110
0000
0000
0022
0000
,
0000
0000
0000
0000
0033
0000
0000
0000
0101
0000
0000
1001
0000
0000
2020
0000
,
0000
0000
3030
0000
0100
0001
0100
2000
,
0000
3100
0010
2000
0000
3100
0010
0002
,
0000
1003
0000
1001
0000
0220
0000
0330
,
0001
1000
0100
1000
0001
0010
0100
2000
,
0000
3000
0101
0000
,
0010
0100
0001
0000
1000
0000
0000
0000
,
0010
0000
0101
0000
1000
0100
0000
1000
,
0100
0010
0001
0000
0001
0100
0000
0001
,
0100
0000
0000
0010
0000
0000
1000
0000
0000
0000
0000
0000
0101
0000
0000
0000
0001
0000
0000
0000
0001
0000
0000
0000
,
2000
3100
0020
0030
,
1001
0000
1100
0000
0101
0000
0010
0010
,
0010
0000
0100
0001
1000
0000
2002
0000
,
0000
0000
3003
0000
0100
0001
1000
0001
,
1000
0001
0010
0001
0100
0010
1000
0100
,
0010
0002
1000
0000
0103
0010
0200
0000
,
0020
0030
0302
1000
,
0200
0300
0023
0100
,
2000
3000
0032
1000
,
2003
0010
3200
0000
,
0000
0000
0300
2002
,
0000
0000
0000
0000
3003
0000
0000
0000
0010
0100
0000
0000
0010
0100
0000
0000
,
0001
1000
0000
0000
0001
1000
0000
0000
0100
0001
0000
0000
0100
1000
0000
0000
,
0100
0010
0100
0000
0010
0000
0000
0000
1001
0000
0000
0000
0000
0000
0000
0000
,
0000
0000
0000
0000
0010
0100
0000
0010
,
0100
0110
1001
0000
,
0000
0000
0000
0000
0100
0001
0000
1000
,
0100
0010
0001
0000
0110
0000
0000
0000
,
0000
0000
0000
0000
0010
1000
0000
0100
,
0010
0001
0100
0000
1010
0000
0000
0000
,
0000
0000
0000
0000
0001
1000
0000
0100
,
0010
0100
1000
0000
0011
0000
0000
0000
,
0000
0000
1100
0011
,
1001
0110
1001
0000
,
0000
0000
0000
0000
0100
0001
1100
0000
,
0110
0011
1001
0000
,
0000
0000
0000
0000
0000
0000
0000
0000
0100
0001
0100
0000
0020
0000
0000
0000
,
2030
3100
0110
0000
,
0000
0000
0000
0000
0000
0000
0000
0000
0001
1000
0001
0000
0200
0000
0000
0000
,
0320
1030
1001
0000
,
0101
1100
0020
0000
,
0100
0130
1001
0000
,
0011
1010
0120
0000
,
0001
0000
2030
0000
3001
0000
0000
0101
,
0000
0000
1100
0000
0020
0000
0000
0100
,
0000
0130
1001
0000
,
0000
0000
0000
0000
,
0020
0100
0000
0230
0001
0000
0301
0000
,
1010
0000
0100
0001
1000
0100
0010
0000
,
0001
0100
0001
0000
0010
0000
0010
0000
1000
0100
1000
0000
0010
0000
0010
0000
,
1000
0001
1000
0000
0001
1000
0001
0000
0100
0010
0100
0000
0010
0100
0010
0000
,
2000
0000
0000
0000
0000
0000
0000
0000
0000
3000
0000
0000
0000
0000
0000
0000
0001
0000
0000
0000
0001
0000
0000
0000
,
1000
0000
0000
0000
0000
0000
0000
0000
0010
0000
0000
0000
0000
0000
0000
0000
0100
0000
0000
0000
0000
0000
0000
0000
0001
0000
0000
1000
0000
0000
0000
0000
0000
0000
0000
0000
0001
0000
0000
1000
0000
0000
0001
0000
0000
0010
0000
0000
,
0200
0000
0000
0000
,
0301
0000
1100
0000
0010
0100
0000
0000
,
0110
0000
0000
0110
0000
0000
0000
0000
,
0001
0000
1000
0000
0100
0000
0000
1000
0000
0000
0010
0000
0100
0000
0001
0000
,
0000
0202
0300
0000
1003
0000
1000
0100
,
0020
0000
0030
0001
0000
1000
0010
0010
,
0000
0000
0110
0000
1001
0000
0000
0011
,
0000
1010
0000
0100
0001
0000
1100
0000
,
0002
0000
2000
0000
0000
0000
0000
0000
3003
0000
0020
0000
0000
0000
0130
0001
,
0200
0300
0000
0000
,
0001
1000
0002
0000
0103
0010
0100
0100
,
0100
0000
1001
0000
0010
0100
0100
0001
,
0020
0000
2030
0000
0100
0000
3010
0100
,
0001
0001
0010
0200
0000
1000
1300
0010
,
0101
0000
1100
0000
0010
0100
0001
0001
,
0002
2003
3020
0030
,
0000
4004
0000
0000
0000
0000
0000
0000
,
0000
3003
0000
0000
,
0000
0000
0100
0010
0100
0001
1001
0000
,
0000
0000
0100
0000
0001
0000
0100
0000
0010
0000
1000
0000
0001
2000
0000
0000
,
0000
0020
3030
0101
,
0110
0000
0000
1001
0000
0000
0100
0001
,
0020
0000
0030
1100
,
0101
0000
0000
0010
0000
1000
0100
0100
,
0010
0000
0000
0011
0000
1000
0100
0010
,
0100
1000
0001
1000
0010
0100
0001
0000
,
0020
0000
0030
0000
,
2200
3300
0101
0001
,
1001
1100
0110
1001
,
0101
0010
0100
1000
0001
0100
0010
0000
,
1010
0101
0011
1100
,
0001
0010
0110
0000
1010
0000
0101
0000
,
1001
0000
0010
0100
0001
1000
0100
0000
,
0110
0101
2100
0002
,
0000
0000
0000
3003
,
0000
0000
0010
0100
0001
0000
0000
0000
,
1000
1000
2002
3003
,
0100
0001
0010
0100
0010
0001
1000
0000
,
0010
0100
0000
0000
0010
0100
0000
0000
0010
0100
0000
0000
0010
0100
0000
0000
,
0001
1000
0001
1000
0001
1000
0001
1000
,
0001
1000
0001
1000
0001
1000
0001
1000
,
0002
0000
0003
1100
,
0010
0000
0000
0100
0001
0100
0001
0010
,
0010
0000
0000
1100
0000
0010
0100
0001
,
0010
1000
0110
1001
,
0110
0000
0000
0000
0000
0001
0100
0010
,
1000
0001
1000
0001
0100
0000
0000
0000
,
0011
0000
1000
0000
0100
1000
0000
0010
,
0100
0000
0001
0010
0000
0100
1000
0001
,
1000
0000
0000
0110
0000
0000
1001
0000
,
0100
0001
0100
1000
0100
0010
1000
0001
,
1000
0000
0000
0101
0000
0000
1100
0000
,
0010
0010
0010
0000
0010
0100
0010
1000
,
0020
0100
0200
0000
,
0330
0000
0000
0000
1001
0100
0000
0000
,
0010
0100
0001
0000
1000
0000
2000
0000
,
0010
0010
3010
0000
0101
0000
0000
1100
,
0000
0000
0010
0100
0002
0000
1000
0000
,
1003
0000
0110
0000
1001
0000
0000
0101
,
0000
0000
1100
0000
0110
0000
0000
0011
,
0000
0000
1010
0000
0100
0001
0000
0000
,
1000
0100
0000
0000
0010
0100
0001
0010
,
0100
1000
0002
0000
1003
0000
0000
0000
,
2002
0000
0000
0000
,
3003
0000
0100
0100
0010
0000
1100
0000
,
0101
0000
0010
1000
0100
0000
0011
0000
,
1100
0000
0001
1000
0001
0000
0010
0000
,
1100
0000
0101
0000
0010
1000
0100
0010
,
0100
0001
0100
1000
0020
0000
0030
0000
,
0101
0000
1100
0010
,
0010
0010
0100
0001
0020
0000
0000
0000
,
0000
0100
0200
0000
,
0330
0000
1001
0000
,
0000
0000
0000
0000
,
0000
0000
0100
0001
0100
0000
0000
0000
,
0000
1000
0100
0000
0100
0000
0000
0000
,
0000
0000
0011
0000
,
1010
0000
0200
0000
,
0000
0000
0320
0000
,
2030
0000
0002
0000
,
3003
0000
0220
0000
,
0330
0000
0000
0000
0000
0000
0000
0001
0100
0000
0000
0010
1000
0000
0000
0100
,
0010
0000
0000
0001
1000
0000
0000
0000
0101
0000
0010
0000
0010
0000
0000
0000
,
1100
0010
0010
0000
1000
0001
0100
0010
,
1000
0100
0020
0000
0130
0000
0000
0102
,
0000
0000
1000
0000
2000
0000
0000
3003
,
0000
0010
0110
1001
,
0101
0000
1100
0000
0020
0130
0001
1000
,
0001
1000
0010
0100
0000
1002
0000
0000
,
0103
0010
1000
0100
0010
2000
0000
3010
,
0100
1000
0000
0102
0000
0000
1003
0000
,
0110
0000
0001
1000
0001
0200
0010
0010
,
0310
0000
0101
0000
0010
1000
0000
0100
,
1000
0100
0020
0000
0130
1000
0001
1000
,
0001
0000
0101
0000
1100
0000
0010
0010
,
0010
0010
0010
0000
0101
0000
0010
0000
,
1100
0000
0001
2000
0000
3010
2000
0000
,
3100
2000
0000
3001
0100
0020
0000
1030
,
0001
0000
0000
0100
0000
0000
0001
0000
0000
0000
0100
0000
0000
0000
0001
0000
0000
0000
0010
0000
0000
0000
0100
0000
,
0000
0000
0000
0000
1000
0000
0000
0000
0000
0000
0000
0000
0001
0000
0000
0000
0000
0000
1000
0000
0000
0000
0000
0000
0010
0000
0000
0000
0000
0000
0100
0000
0000
0010
0000
0000
1000
0000
0000
0000
0000
0000
0001
0000
0000
0010
0000
0000
,
0100
1000
0001
2000
0000
0000
0000
3000
,
0000
0010
0100
0002
0000
0000
0000
0003
,
1000
0100
0010
0200
0000
1300
0001
0200
,
0000
0000
0300
0000
0000
0000
0000
0000
0010
0100
0001
0000
0020
0000
0000
0000
,
0130
1000
0002
0000
1003
0000
0000
0000
,
0101
0010
1100
0110
,
0011
0000
1000
0001
1000
0001
1000
0000
,
0000
0000
0101
0000
1000
0100
0010
0000
,
1001
0200
0010
0020
,
0030
0000
0300
0001
1000
0002
0000
0000
,
0003
0101
0010
2200
,
3000
0020
0000
0000
0000
0330
0000
0000
,
1001
0000
0100
0001
0100
1000
0010
0000
,
0101
0000
1100
0000
0010
0100
0000
0010
,
0100
0000
0020
0200
0000
0000
0330
0000
,
0000
0000
0100
0010
0100
0001
0010
0100
,
1000
0001
2002
3003
,
0110
0000
0000
0000
0001
0000
1000
0000
0010
0100
0001
0000
2000
0000
0000
0000
,
0000
0000
3010
0000
0101
0000
0010
0010
,
0010
0000
1000
0200
0000
0000
0000
2000
,
0300
0000
0010
0000
3010
0000
0101
0001
,
1000
0001
1000
0001
1000
0001
0002
0000
,
0003
0000
0110
0000
0000
0000
0000
0101
,
0000
1200
0000
0320
,
0100
2030
0000
3001
,
0110
0000
0000
1001
0000
0000
0001
0000
0000
1000
0001
1000
,
0001
0000
0000
0000
0100
0000
0000
0000
0020
0100
0000
0000
0030
0000
0000
0000
,
0001
0000
1000
0000
0001
0000
2000
0000
0000
0000
0000
0000
0010
0000
0000
0020
0000
0000
0000
0000
0000
0000
0000
0000
,
3030
0101
0000
1001
,
0000
0000
0010
0100
0010
0100
0010
0000
,
0000
0000
0002
2000
0000
0000
0003
0000
,
3020
0200
0300
2000
,
3000
0200
0030
0002
,
0000
0000
0000
0000
0303
0000
0000
0000
0000
0000
0000
0000
0000
0000
0001
1000
,
0001
0000
0010
0001
0100
0001
0000
2002
,
0000
3003
0000
0010
0100
0010
0100
0000
,
0202
0303
2020
3030
,
2200
3300
0022
0033
,
0101
0000
1100
0000
0110
0000
0001
1000
,
0001
0100
0010
0010
0020
0200
0000
0000
,
0330
0000
0001
0100
0000
0010
1000
0000
,
2002
0000
0000
0000
3003
0000
0000
1000
,
0001
1000
0010
0000
0110
0000
0000
1001
,
0000
0000
0000
0000
0110
0000
0000
0000
0101
0000
0000
1100
0000
0000
0020
0000
,
0200
0000
0330
0001
0100
0010
0010
1000
,
0001
0100
0001
1000
0100
1000
0010
0100
0010
1000
0100
0010
,
0002
0000
0003
0000
,
2000
0000
0000
0000
3010
0100
0010
0000
,
1001
0000
0000
0000
0000
0000
0000
0100
,
0001
0000
0010
0000
0100
0000
1000
0001
,
1000
0000
0110
0000
,
0002
0023
0230
2300
,
0002
0000
3003
0000
,
0010
0010
0010
0000
,
1002
0000
0000
0103
0000
0000
0000
0000
,
2001
0000
0000
3100
0010
0100
0010
0100
,
0001
0101
1100
0110
,
1001
0000
0011
0000
1010
0000
0100
0010
,
0200
0300
0000
0101
,
0010
0000
0000
0000
0000
0000
1000
0000
0010
1000
0100
0000
0010
0001
1000
0000
,
0010
0010
0101
0000
1100
0000
0010
0100
,
0001
1000
0100
1000
0010
0010
0010
0000
,
4000
0000
0000
3000
0004
0000
0000
0003
,
4004
0000
0000
3003
,
0010
0100
0010
0000
2100
0000
0000
0000
,
3002
0000
0000
0203
0000
0000
0310
1000
,
0001
0000
0101
1100
,
0020
0000
0000
0000
,
0130
0000
0000
0000
,
0000
0000
0000
0000
0000
0000
0000
0001
,
1000
0000
0000
0000
,
0000
0000
0000
0000
0000
0000
0010
0010
,
0010
0000
0000
0000
,
0000
0000
0000
0000
0000
0100
0001
1000
,
0001
0000
0000
0100
,
0110
0000
0000
0000
0000
0000
1000
0010
,
0100
0000
0101
0010
,
1100
0000
0000
0000
0000
0001
0100
0010
,
1000
0000
1001
0001
,
1001
0000
0010
0100
0010
0100
0010
0000
,
0010
1001
0100
1001
,
0220
0000
0330
0000
0000
0100
0001
1000
,
0010
0010
0010
0100
0002
0000
0000
1003
,
1000
0010
0101
1000
,
0101
0000
0010
1000
0100
0100
0100
1000
,
0010
0000
0101
0000
0010
0100
1000
0001
,
1000
0010
0100
0001
0020
0000
0030
0000
,
1100
0000
0000
0101
0000
0000
0110
0000
,
1001
0000
0000
0110
0000
0000
1001
0000
,
0100
0001
0100
1000
0100
0010
1000
0100
,
0001
0100
0010
0001
1000
0001
0100
0000
,
0110
0000
0101
0000
1000
0100
2000
0010
,
3020
0000
0130
0000
0102
0000
0010
0010
,
0023
0000
0130
1000
0001
1000
0001
0000
,
0101
0000
1010
0000
0100
0010
1000
0100
,
0020
0000
0200
0000
,
0030
0000
0301
1010
,
0100
0001
1000
0001
0000
0010
0100
0000
,
1002
0000
1003
0000
0010
0100
0000
0010
0100
0000
0001
0000
1100
0000
0010
0000
,
0100
0002
0000
1000
1003
0100
0010
1000
,
0010
0002
0000
1000
1003
0010
0000
0110
,
0000
0001
0100
0010
0100
1000
0100
0001
,
1000
0001
2000
0000
3010
0000
0101
0000
,
1000
0020
0000
0130
0001
1000
0100
1000
,
0010
0200
0000
0301
1000
0001
0000
1001
,
0000
0110
0000
0001
1000
0100
0010
0000
,
1100
0000
0101
0000
0010
0010
0000
0110
,
0000
0000
1100
0000
0001
0100
0000
1001
,
0000
0000
0101
0000
0010
1000
0000
0101
,
0000
0000
1100
0000
0010
0001
0000
1100
,
0000
0000
0010
0100
1000
0100
0000
1001
,
0000
0000
0100
0001
1000
0100
0000
0110
,
0000
0000
0001
0100
0010
0001
0000
1010
,
0000
0000
1000
0100
0010
1000
0000
0011
,
0000
1000
0001
1000
0001
1000
0010
0000
,
0000
1001
0000
0100
,
0000
0011
0000
1000
,
0100
0000
1001
0000
0000
0000
0010
0100
,
0001
1001
0000
0200
,
0010
0001
0010
2300
,
3200
0000
0302
0000
2003
0000
3010
0100
,
0001
0100
0010
1000
0100
0010
0001
0000
,
1002
0000
0100
0000
0103
0000
0010
1000
,
0010
1000
0100
0010
0100
0010
0001
1000
,
0001
1000
0010
1000
1010
0000
0100
0001
,
0010
0100
1000
0100
1000
0010
0100
0001
,
0010
0100
1000
0001
1001
0000
0100
0001
,
0101
0000
0010
1000
1010
0000
0100
0010
,
0110
0000
1000
0001
1001
0000
0010
0100
,
1000
0100
0001
1000
1001
0000
0100
0010
,
1000
0100
0010
0100
0110
0000
0001
1000
,
0100
1000
0001
0010
0011
0000
1000
0010
,
0100
1000
0010
1000
1010
0000
2002
0000
,
0000
0000
0000
0000
,
0000
0000
0000
0000
,
3003
0000
0101
1001
,
0010
0000
0000
0100
0000
0000
0010
0000
0000
1000
0000
0000
0001
0000
0000
0000
0000
0000
0100
0000
0000
0000
0000
0000
0101
0000
0000
0000
0000
0000
1100
0000
0000
0000
0000
0000
0010
0000
0000
0000
0100
0000
0000
0000
0001
0000
0000
0000
,
0200
0000
0300
0000
0001
0010
1000
0010
,
0100
0001
0010
0000
2000
0000
0000
0000
3000
0000
0000
0000
0101
0000
0000
0000
,
1100
0011
1010
2002
,
3003
0000
0001
0010
0001
0000
1000
0100
,
1000
0000
0000
0000
0100
0010
0000
0000
0101
0000
0000
0000
1100
0000
0000
0000
,
0010
0000
0100
1001
0000
0000
0100
0010
,
0100
0001
1000
0100
1000
0010
0100
0001
,
1000
0001
1000
0100
1000
0010
0100
0000
,
1001
0000
0000
0000
,
4004
0000
0000
0000
,
0000
0000
0000
0000
,
0000
0000
0000
0000
,
0000
0000
3003
0200
,
0320
2030
3002
0003
,
2002
3003
0000
0000
;

//---------------bm-single5 - ----------------
#NOTES:
     bm-single5:
     :
     Hard:
     1:
     0.000000,0.000000,0.000000,0.000000,0.000000,0.000000,0.000000,0.000000,0.000000,0.000000,0.000000,0.000000,0.000000,0.000000,0.000000,0.000000,0.000000,0.000000,0.000000,0.000000,0.000000,0.000000:
// measure 0
000000
000000
000000
000000
;
