#TITLE:Albuquerque;
#SUBTITLE:(Part 1);
#ARTIST:"Weird Al" Yankovic;
#TITLETRANSLIT:;
#SUBTITLETRANSLIT:;
#ARTISTTRANSLIT:;
#GENRE:;
#CREDIT:;
#MUSIC:Albuquerque (Part 1).ogg;
#BANNER:;
#BACKGROUND:;
#CDTITLE:;
#SAMPLESTART:90.100;
#SAMPLELENGTH:12.000;
#SELECTABLE:YES;
#OFFSET:0.615;
#BPMS:0.000=186.620
,421.000=183.000
,422.000=179.000
,423.000=178.000
,424.000=175.000
,425.000=170.000
,426.000=161.000
,427.000=150.000
,428.000=139.000
,440.000=119.000
,442.000=124.000
,446.000=115.000
,448.000=119.000
,451.000=120.000
,453.000=100.000
,454.000=104.000
,455.000=97.000
,456.000=96.000
,457.000=101.000
,466.000=90.000
,466.500=70.000
,467.000=55.000
,467.500=36.000
,468.000=186.620
;
#STOPS:;
#DISPLAYBPM:187.000;
#BGCHANGES:;
#FGCHANGES:;

//--------------- dance-single - ----------------
#NOTES:
     dance-single:
     :
     Hard:
     9:
     0,0,0,0,0:
0000
0000
0000
0000
,
0000
0000
0000
0000
,
0000
0000
0000
0000
,
0000
0000
0000
0000
,
0000
0000
0000
0000
,
1001
0000
0001
0000
0010
0001
1000
0000
,
0100
1000
0010
1000
0001
0010
0100
0000
,
2000
0000
3010
0000
1000
0001
0010
0000
,
0002
0000
0103
0000
0010
1000
0100
0000
,
1000
0001
0010
0000
0010
0001
0010
0010
,
0100
0000
1000
0001
0000
0001
1000
0000
,
1010
0101
0200
0310
,
0100
0001
1000
0000
0010
1000
0010
0000
,
1000
0100
1000
0000
0001
0000
0010
0000
,
0001
0200
0001
0000
1000
0000
0301
0000
,
2100
0000
3002
0000
1003
0100
1000
0000
,
0010
0000
0000
0000
1010
0000
0000
0000
1000
0000
0000
0010
1000
0000
0001
0000
,
0010
0001
0100
0000
0110
0000
1000
0000
,
0012
0000
1000
0000
0103
0010
1000
0000
,
0100
1000
0100
0000
2000
0000
3010
0000
,
0100
0000
1001
0000
0010
0000
0001
0001
,
0010
0001
1000
0100
,
2000
0000
3020
0000
0100
0100
0130
0000
,
0101
1001
1100
1001
,
0010
1000
0100
0000
0010
0001
0100
0000
,
1010
0011
2002
3003
,
0100
0000
1000
0010
1000
0000
0001
0000
,
1001
0000
0010
0000
0001
1000
0200
0000
,
0320
0000
0130
0000
1000
0010
1000
0000
,
0001
1100
0000
1000
,
0001
0000
1000
0010
0000
0010
1000
0000
,
0001
0100
0000
0000
0001
0000
0010
0000
0001
0000
0000
0000
1000
0100
0000
0000
,
1000
0000
1001
0000
0010
0001
1000
0200
,
0010
0310
0200
0000
,
1300
0000
0001
1000
0001
0000
0200
0000
,
0310
0000
1001
0000
,
0001
0000
0010
0000
0001
1000
0001
1000
,
2001
0000
3010
0210
0000
0000
0020
0000
,
0300
0100
0000
0130
,
0001
0010
0001
1000
0100
1000
0010
0100
,
1000
0000
0100
0000
0001
0000
0010
0000
0001
0000
0000
1000
0010
0000
1000
0000
,
0100
1000
0010
0000
0100
0100
0001
0000
,
0010
0000
0002
0000
1000
0000
0000
0003
1000
0000
0100
0000
2000
0000
0000
0000
,
3020
0000
0030
0000
,
0100
0000
0001
0000
0000
0010
0001
1000
,
0100
1000
0002
0003
,
1000
1001
1000
0100
,
0010
0100
0010
0000
0001
0000
1000
0000
,
0010
1000
0001
1000
0000
0000
0100
0000
,
1001
0010
1000
0010
,
1001
0000
0100
0001
0100
0000
0002
0000
,
0013
0001
2000
3010
,
0100
0100
0001
0000
0010
0001
1000
0100
,
2100
0000
3010
0000
1000
0010
1000
0000
,
0001
0000
0102
0000
0013
0000
0001
1000
,
0100
0000
1000
0100
1000
0000
0001
0100
,
0001
0000
0100
0000
0100
0000
0001
1000
,
0100
0010
0100
0001
,
1010
0000
0011
0000
1000
0001
0000
2002
,
0000
3003
1000
0000
,
0000
0000
0100
0000
1000
0001
1000
0000
,
0010
0010
1000
0010
,
1000
0000
0001
0010
0100
0000
0010
0000
,
0001
1000
0100
0000
1000
0000
0010
0000
,
0100
0101
0001
1001
,
2000
3010
2000
3001
,
0010
0001
0100
0000
0002
0000
0100
0000
,
0203
0000
0300
0010
,
1000
0010
0100
0000
0002
0000
0003
0000
,
2001
0000
0000
0100
0000
0000
3100
0000
,
0010
0000
0100
0000
0010
0001
1000
0000
,
0010
1000
0100
0000
1000
0001
0100
0000
,
2002
0000
3003
1001
,
0002
0000
0013
0002
0000
1003
0100
0000
,
2000
0000
3010
2000
0000
3001
0100
0000
,
0101
0000
0001
1000
0100
0000
1000
0000
,
1100
0000
1000
0001
0010
0000
0100
0000
,
0120
0000
0130
0020
0000
0031
1000
0001
,
2000
0000
3100
1000
0002
0000
0103
0000
,
0110
0000
1000
0000
0001
1000
0100
0000
,
0020
0000
1030
0000
0001
1000
0100
0000
,
2200
0000
3300
0000
1000
0001
0100
0000
,
0202
0303
0010
1000
,
1001
0001
0010
0001
,
0110
0000
0000
0000
0100
0001
1000
0000
,
2020
0000
3030
0000
0001
1000
0100
0000
,
0022
0000
0033
0000
0010
0100
0010
0000
,
0011
1010
1000
0001
,
2002
0000
3003
0001
,
2000
0000
0100
0000
3100
0000
0100
1000
,
0002
0000
0100
0000
0103
0000
0100
0001
,
0020
0000
0001
0000
0031
0000
0010
0001
,
0200
0010
0310
1000
,
1001
0000
0001
1000
0000
0000
0100
0000
,
1000
0000
0010
0100
0000
0000
0001
0000
,
1000
0100
2000
0000
0010
0000
3002
0000
,
0203
0020
0000
0330
,
0011
0000
0011
0000
1000
0010
1000
0000
,
1010
0000
1010
0000
0001
0010
0001
0000
,
0110
0000
0110
0000
0001
0100
1000
0000
,
1001
0000
1001
0000
1000
0100
0001
0000
,
0100
1000
0010
0000
0100
0001
0010
0000
,
0100
1000
0001
0000
0100
0001
1000
0000
,
0010
1000
0010
1000
0001
1000
0001
0000
,
0010
0001
0010
0001
1000
0001
1000
0000
,
0100
1000
0001
0000
0010
0001
0100
0000
,
0100
0001
1000
0000
0010
1000
0100
0000
,
2002
0000
0000
0000
,
0000
0000
0000
0000
,
0000
0000
0000
3003
,
0110
0000
1001
0000
0200
0000
0000
1300
,
0001
0100
0010
0100
0020
0000
0000
0000
,
0030
1000
0001
0010
0001
1000
0200
0000
,
0000
0300
0000
0000
1100
0000
0000
0000
1010
0000
0000
0000
0101
0000
0000
0000
,
0011
2002
0000
0000
,
0000
0000
0000
0000
,
0000
0000
3003
0000
0001
0010
0100
1000
,
2002
0000
0000
3003
0000
0000
0000
0000
;

//--------------- dance-single - ----------------
#NOTES:
     dance-single:
     :
     Challenge:
     10:
     0,0,0,0,0:
0000
0000
0000
0000
,
0000
0000
0000
0000
,
0000
0000
0000
0000
,
0000
0000
0000
0000
,
0000
0000
0000
0000
,
0001
0000
1000
0000
0010
0100
0001
0000
,
1000
0000
0000
0001
0000
0000
0020
0000
0100
0000
0000
0000
0130
0000
0000
0000
,
1001
0000
0101
0000
0010
1000
0100
1000
,
0001
0010
0010
0001
0010
0010
0001
1000
,
0010
0000
0110
0000
0001
0100
0001
1000
,
0010
0000
0000
0100
0000
0000
0001
0000
1000
0000
0010
0000
1001
0000
0000
0000
,
0100
0000
0001
0000
1000
0000
0000
0010
1000
0000
0000
0010
1000
0000
0000
0010
,
0100
0001
1000
0010
0100
0001
0011
0000
,
0100
0010
1000
0100
1000
0001
0100
0010
,
0100
0002
1000
0000
1000
0000
1003
0000
,
0101
0000
2100
0000
0010
0010
3010
0000
,
0100
0001
0100
0010
1000
0100
0100
0010
,
1001
0000
0100
0001
0000
0100
0001
1000
,
0010
1001
0110
1001
,
0010
0100
0010
1000
0100
0010
0100
0001
,
0100
1000
0001
1000
0001
0000
1001
0000
,
0010
0010
0100
0000
1000
0100
0010
1000
,
0020
0000
0001
0000
0130
1000
0001
0000
,
0101
0000
1100
0000
0010
0010
0010
0000
,
0100
0001
0100
1000
0100
0001
1000
0000
,
0101
1010
2002
3003
,
0020
0000
0100
0000
1000
1000
1030
0000
,
0001
1000
0001
1000
0000
0000
0010
0100
0010
0100
0000
0000
,
2002
0000
3003
0000
0100
0001
0100
1000
,
0010
0010
0020
0000
0030
0000
0100
0001
,
1000
0101
2020
3030
,
0100
0001
0000
1000
0100
0000
0110
0000
,
0001
0100
0010
1000
0100
1000
0001
0000
,
0101
0000
1100
0000
0010
0100
1000
0000
,
0002
0000
0203
0000
0310
1000
0001
0000
,
0101
0000
1000
0000
0010
1000
0100
0000
,
0010
0001
0010
0100
1000
0000
0101
0000
,
2010
0000
0000
0001
0000
0000
3002
0000
,
0100
0100
0100
0000
0010
0010
0013
0000
,
1000
0010
1000
0000
0001
0000
0100
0000
0020
0000
0000
0000
0030
0000
0000
0000
,
0100
0001
1000
0000
0100
0000
1000
0000
0020
0000
0000
0000
0030
0000
0000
0000
,
0001
0000
1000
0000
0010
0000
0100
0000
0010
0000
0000
1000
0000
0000
0100
0000
,
0001
1000
0010
0010
0010
0100
0100
0100
,
0001
1000
2002
3003
,
0010
0010
0100
0000
0001
1000
0100
0000
,
0022
0000
0033
0000
0000
1000
0100
0000
,
0110
0101
1100
0000
,
0001
0100
1000
0100
0001
0010
0100
1000
,
0001
1000
0001
2000
0000
0000
3010
0000
,
0001
0000
1010
0000
0000
0100
0001
0100
,
0001
0000
0000
0000
1000
0000
1000
0000
0010
0000
0000
0010
0000
0000
0020
0000
,
0100
0000
1030
0001
0000
0100
0001
1000
,
0000
0002
0010
0000
0013
0100
0010
0100
,
0001
1100
0010
0101
,
1000
0100
0010
0010
0010
0010
0010
0000
,
0001
1000
0100
1000
0100
0100
0010
0100
,
1000
0000
0101
0000
0010
1000
0001
0000
,
0202
0303
2020
3030
,
0001
1000
0001
1000
0010
0010
0000
2002
,
0000
0000
3003
0000
0100
0010
0000
0100
,
0010
0000
0100
0010
1000
0100
0010
0000
,
0101
0000
0000
1010
0000
0000
1001
0000
,
0100
0000
0010
0100
0010
1000
0100
1000
,
0001
0000
0010
0010
0010
0100
0001
1000
,
0100
0100
1000
0010
0100
0001
1000
0010
,
0100
1000
0100
1000
0001
0100
0010
1000
,
0100
0100
0001
0100
1000
0001
1000
0010
,
0100
0102
0000
1003
,
0010
0000
0000
0010
0000
0000
0020
0000
0000
0000
0000
0000
0130
0000
0001
0000
,
0010
0000
1000
0100
0000
1000
0002
0000
,
0100
0000
0013
0100
1000
0001
1000
0000
,
0101
0000
1010
0000
0100
0001
1000
0100
,
0010
0000
0000
0000
1000
0100
0010
0100
,
1100
0010
0100
0002
0000
1000
1003
0100
,
0010
1000
0010
0002
0000
1000
1003
0010
,
0000
0110
0000
0001
0100
0010
0100
1000
,
0100
0001
1000
0001
2000
0000
3010
0000
,
0101
0000
1000
0020
0000
0130
0001
1000
,
0100
1000
0010
0200
0000
0301
1000
0001
,
0000
1001
0000
0110
0000
0001
1000
0100
,
0010
0000
1100
0000
0101
0000
0010
0010
,
0000
0110
0000
0000
1100
0000
0001
0100
,
0000
1001
0000
0000
0101
0000
0010
1000
,
0000
0101
0000
0000
1100
0000
0010
0001
,
0000
1100
0000
0000
0010
0100
1000
0100
,
0000
1001
0000
0000
0100
0001
1000
0100
,
0000
0110
0000
0000
0001
0100
0010
0001
,
0000
1010
0000
0000
1000
0100
0010
1000
,
0000
0011
0000
1000
0001
1000
0001
1000
,
0010
0000
1001
0000
,
0100
0000
0011
0000
,
1000
0100
1001
0000
,
0010
0100
0001
0000
1001
0000
0000
0000
,
0200
0010
0001
0010
,
2300
3200
0302
2003
,
3010
0100
0001
0100
0010
1000
0100
0010
,
0001
1002
0100
0103
,
0010
1000
0010
1000
0100
0010
0100
0010
,
0001
1000
0001
1000
0010
1000
1010
0000
,
0100
0001
0010
0100
1000
0100
1000
0010
,
0100
0001
0010
0100
1000
0001
1001
0000
,
0100
0001
0101
0000
0010
1000
1010
0000
,
0100
0010
0110
0000
1000
0001
1001
0000
,
0010
0100
1000
0100
0001
1000
1001
0000
,
0100
0010
1000
0100
0010
0100
0110
0000
,
0001
1000
0100
1000
0001
0010
0011
0000
,
1000
0010
0100
1000
0010
1000
1010
0000
,
2002
0000
0000
0000
,
0000
0000
0000
0000
,
0000
0000
3003
0000
,
0101
0000
0000
0000
1001
0000
0000
0000
0010
0100
0010
1000
0001
0000
0100
0000
,
0101
0000
0000
1100
0000
0000
0010
0000
0100
0000
0001
0000
0200
0000
0000
0000
0000
0000
0300
0000
0000
0000
0000
0000
,
0001
0000
0010
0000
1000
0000
0010
0000
0100
0001
0010
0000
2000
0000
0000
0000
,
3000
0101
1100
0011
,
1010
4004
0000
0000
,
0000
0000
0000
0000
,
0000
0000
0000
0000
0000
0000
0000
0000
0000
0000
0000
0000
3003
0000
0000
0000
0200
0000
0000
0000
0320
0000
0000
0000
2030
0000
0000
0000
3002
0000
0000
0003
,
2002
0000
0000
3003
0000
0000
0000
0000
;
