#TITLE:Airport Terminal;
#SUBTITLE:(8Chasey Cut);
#ARTIST:N.M.R;
#TITLETRANSLIT:;
#SUBTITLETRANSLIT:;
#ARTISTTRANSLIT:;
#GENRE:;
#CREDIT:8Chasey 2025;
#MUSIC:Airport Terminal (8Chasey Cut).ogg;
#BANNER:;
#BACKGROUND:;
#CDTITLE:;
#SAMPLESTART:53.310;
#SAMPLELENGTH:12.000;
#SELECTABLE:YES;
#OFFSET:-3.847;
#BPMS:0.000=126.144;
#STOPS:;
#DISPLAYBPM:126.000;
#BGCHANGES:;
#FGCHANGES:;

//--------------- dance-single - BASIC ----------------
#NOTES:
     dance-single:
     BASIC:
     Easy:
     3:
     0,0,0,0,0:
0000
0000
0000
0000
,
0000
0000
0000
0000
,
0001
0100
0001
0100
,
0010
0000
0010
0000
0000
0010
0000
0000
,
1000
0100
1000
0100
,
0010
0010
0100
0100
,
1000
0001
1000
0001
,
0010
0000
0010
0000
0000
0010
0000
0000
,
0001
0100
0001
0100
,
0001
1000
0001
0000
,
1001
0000
1000
0010
,
1000
0000
0100
0000
0000
0100
0000
0000
,
1000
0000
0001
0010
,
0001
0100
0100
0100
,
0001
1000
0001
1000
,
0010
0000
0100
0000
0000
0100
0000
0000
,
0010
1000
0100
1000
,
0001
0001
1000
1000
,
1001
0000
0000
0001
0000
0000
0001
0000
,
0100
0000
0000
0100
0000
0010
0010
0000
,
1000
0000
0000
1000
0000
0000
1000
0000
,
0010
0000
0000
0100
0000
0100
0100
0000
,
0001
0100
0001
0001
,
1000
0010
1000
1000
,
0100
1000
0100
0100
,
0010
0001
0010
0010
,
0110
0100
0010
0100
,
1000
1000
0100
0100
,
1000
0010
0100
0100
,
0001
0001
0010
0010
,
0110
0100
0010
0100
,
1000
1000
0100
0100
,
1000
0010
1000
1000
,
0001
0001
0100
0100
,
1001
0000
0000
0000
;

//--------------- dance-single - ANOTHER ----------------
#NOTES:
     dance-single:
     ANOTHER:
     Medium:
     5:
     0,0,0,0,0:
0000
0000
0000
0000
,
0000
0000
0000
0000
,
0001
0000
1000
0000
0010
0100
0000
0010
,
0000
0000
1000
0000
0100
1000
0100
0000
,
0010
0000
0100
0000
1000
0001
0000
1000
,
0000
0000
0001
0000
0100
0001
0100
0000
,
0010
0000
1000
0000
0100
1000
0000
0100
,
0000
1000
0001
0000
0100
0000
0001
0000
,
0010
0000
0001
0000
0100
0001
0000
0100
,
0000
0010
0000
0010
0000
0100
0010
0000
,
1001
0000
1000
0000
0001
0010
0001
0000
,
0010
0000
0001
0000
0100
0001
0100
0000
,
0010
0000
0010
0000
1000
0010
0000
1000
,
0000
0100
0000
0010
0000
0100
0100
0000
,
1001
0000
0001
0000
1000
0100
1000
0000
,
0100
0000
1000
0000
0010
0100
0010
0000
,
0100
0000
0001
0100
0001
0000
1000
0100
,
1000
0000
0001
0000
1000
0001
1000
0001
,
1000
0100
1000
0100
0000
0010
0010
0000
,
0001
0100
0001
1000
0000
0100
1000
0000
,
0001
0100
0001
0100
0000
0010
0010
0000
,
1000
0010
1000
0100
0000
0010
0010
0000
,
0001
0010
0001
0010
0000
0100
0100
0000
,
1000
0010
1000
0001
0000
0010
0001
0000
,
1000
0010
1000
0010
0000
0100
0100
0000
,
0001
0100
0001
1000
0000
0100
1000
0000
,
0110
0000
0010
0100
0000
0010
1000
0000
,
0100
0000
1000
0100
0000
1000
0001
0000
,
0100
0000
0001
1000
0000
0100
0000
0010
,
0100
0010
0100
1000
0000
0001
1000
0000
,
0001
1000
0001
1000
0000
0100
1000
0000
,
0010
0000
1000
0001
0000
0100
0001
0000
,
0010
0001
0010
0001
0000
1000
1000
0000
,
0010
0100
0001
0100
0000
0010
1000
0000
,
1001
0000
0000
0000
;

//--------------- dance-single - MANIAC ----------------
#NOTES:
     dance-single:
     MANIAC:
     Hard:
     7:
     0,0,0,0,0:
0000
0000
0000
0000
,
0000
0000
0000
0000
,
0100
0000
1000
0010
1000
0010
0000
0100
,
0000
0001
0100
0000
0001
1000
0000
0001
,
0100
0000
0010
0100
0010
0100
0000
0001
,
0000
0000
1000
0000
0100
0000
1000
0100
0000
1000
0000
0000
0100
0000
0000
0000
,
0010
0000
0001
0100
0001
0100
0000
0010
,
0000
1000
0100
0000
1000
0001
0000
1000
,
0100
0000
0010
0100
0010
0100
0000
0010
,
0000
0001
0000
1000
0000
0001
1000
0001
,
1001
0000
1000
0010
1000
0001
0100
0001
,
0000
0100
0010
0000
0010
0100
0010
0000
,
0100
0000
0001
0010
0001
1000
0010
1000
,
0000
0000
0100
0000
0010
0000
0001
0010
0000
0001
0000
0000
0010
0000
0010
0000
,
1001
0000
0001
0010
0001
1000
0100
1000
,
0000
0010
0100
0000
0100
0010
0100
0000
,
0001
0000
1000
0100
1000
0001
0000
0100
,
0010
1000
0001
0100
0010
1000
0001
0000
,
1000
0000
0000
1000
0000
0000
1000
0000
0000
0000
0100
0000
0000
1000
0000
0000
,
0001
0000
0000
0001
0000
0000
0001
0000
0000
0000
0100
0000
0000
0001
0000
0000
,
0010
0000
0000
0010
0000
0000
0010
0000
0000
0000
0001
0000
0000
1000
0000
0000
,
0100
0000
0000
0100
0000
0000
0100
0000
0000
0000
0010
0000
0110
0000
0000
0000
,
0100
0000
0000
1000
0000
0000
0100
0000
0000
0000
1000
0000
1000
0000
1000
0000
,
0001
0000
0000
0100
0000
0000
0001
0000
0000
0000
0010
0000
0000
0100
0000
0000
,
0010
0000
0000
0001
0000
0000
0010
0000
0000
0000
0001
0000
0001
0000
0001
0000
,
0100
0001
1000
0010
0100
0001
1000
0010
,
0110
0000
0000
0000
0100
0000
0001
0000
0000
0000
0100
0000
0010
0100
0000
0000
,
0100
0000
0000
0000
0010
0000
0000
1000
0000
0000
0010
0000
0100
0010
0000
0000
,
0010
0000
0000
0000
1000
0000
0100
0000
0000
0000
1000
0000
0001
1000
0000
0000
,
1000
0000
0010
0000
0010
0000
1000
0000
0000
0000
0001
0000
1000
0001
0000
0000
,
0001
0000
1001
0000
0000
0000
1000
0000
0000
0100
1000
0000
0100
1000
0000
0000
,
0010
0000
1000
0000
0000
0000
0001
0000
0000
0010
0001
0000
0010
0001
0000
0000
,
0100
0000
0001
0000
0100
0000
0010
0000
0000
0100
0010
0000
0100
0010
0000
0000
,
1000
0000
0010
0000
1000
0000
0001
0000
0000
0100
0001
0000
1000
0000
0001
0000
,
1001
0000
0000
0000
;

//--------------- dance-double - D.BASIC ----------------
#NOTES:
     dance-double:
     D.BASIC:
     Easy:
     3:
     0,0,0,0,0:
00000000
00000000
00000000
00000000
,
00000000
00000000
00000000
00000000
,
00001000
01000000
00001000
00010000
,
00000100
00000000
00000010
00000000
00000000
00000010
00000000
00000000
,
00000001
00000100
00000001
00001000
,
00000100
00010000
00001000
00001000
,
00010000
00000100
00010000
00001000
,
01000000
00000000
00100000
00000000
00000000
00100000
00000000
00000000
,
10000000
01000000
10000000
00010000
,
01000000
00001000
00010000
00010000
,
00011000
00001000
00000000
00100000
,
00010000
00000000
10000000
00000000
00000000
10000000
00000000
00000000
,
10010000
01000000
00000000
00001000
,
00010000
00001000
00000001
00000100
,
00001000
00000001
00000000
00000100
,
00000010
00000000
00001000
00000000
00000000
00001000
00000000
00000000
,
00001001
00000001
00001000
00010000
,
00100000
00010000
01000000
00100000
,
10010000
00000000
00000000
01000000
00000000
00000000
01000000
00000000
,
00001000
00000000
00000000
00010000
00000000
00010000
00010000
00000000
,
00011000
00000000
00000000
00000100
00000000
00000000
00000100
00000000
,
00001000
00000000
00000000
00000001
00000000
00000001
00000001
00000000
,
00000100
00000001
00000100
00001000
,
01000000
00000000
00010000
00000000
01000000
00000000
00100000
10000000
,
01000000
10000000
01000000
00010000
,
00000100
00000001
00000100
00000010
,
00000110
00000100
00000001
00000100
,
00001000
00001000
00010000
00010000
,
00011000
00100000
00010000
00100000
,
00010000
01000000
10000000
00000000
,
01100000
00100000
01000000
00100000
,
10000000
10000000
00010000
00010000
,
00100000
00001000
00010000
00000100
,
00000010
00000001
00001000
00000001
,
00001001
00000000
00000000
00000000
;
