#VERSION:0.83;
#TITLE:Ain't No Other Man;
#SUBTITLE:(Just Dance 4 Mix);
#ARTIST:The Girly Team;
#TITLETRANSLIT:;
#SUBTITLETRANSLIT:;
#ARTISTTRANSLIT:;
#GENRE:;
#ORIGIN:;
#CREDIT:;
#BANNER:;
#BACKGROUND:;
#PREVIEWVID:;
#JACKET:;
#CDIMAGE:;
#DISCIMAGE:;
#LYRICSPATH:;
#CDTITLE:;
#MUSIC:Ain't No Other Man (Just Dance 4 Mix).ogg;
#OFFSET:-1.130000;
#SAMPLESTART:55.400002;
#SAMPLELENGTH:15.000000;
#SELECTABLE:YES;
#BPMS:0.000=127.960;
#STOPS:;
#DELAYS:;
#WARPS:;
#TIMESIGNATURES:0.000=4=4;
#TICKCOUNTS:0.000=4;
#COMBOS:0.000=1;
#SPEEDS:0.000=1.000=0.000=0;
#SCROLLS:0.000=1.000;
#FAKES:;
#LABELS:0.000=Song Start;
#BGCHANGES:;
#KEYSOUNDS:;
#ATTACKS:
;

//---------------dance-single - ----------------
#NOTEDATA:;
#CHARTNAME:;
#STEPSTYPE:dance-single;
#DESCRIPTION:;
#CHARTSTYLE:;
#DIFFICULTY:Beginner;
#METER:1;
#RADARVALUES:0.099757,0.151205,0.056315,0.000000,0.000000,62.000000,57.000000,5.000000,0.000000,0.000000,0.000000,0.000000,0.000000,0.000000,0.099757,0.151205,0.056315,0.000000,0.000000,62.000000,57.000000,5.000000,0.000000,0.000000,0.000000,0.000000,0.000000,0.000000;
#CREDIT:;
#NOTES:
0000
0000
0000
0000
,
0000
0000
0000
0000
,
0000
0000
0000
0000
,
0000
0000
0000
0000
,
0000
0000
0000
0000
,
0000
0000
0000
0000
,
0000
0000
0000
0000
,
0000
0000
0000
0000
,
0000
0000
0000
0000
,
0010
0000
0000
0000
,
0000
0000
0100
0000
,
0100
0000
0000
0000
,
0000
0000
0001
0000
,
0001
0000
0000
0000
,
0000
0000
1000
0000
,
1000
0000
0000
0000
,
0000
0000
0010
0000
,
1000
0000
0001
0000
,
0100
0000
0000
0000
,
0010
0000
0010
0000
,
0010
0000
0000
0000
,
0001
0000
0001
0000
,
0001
0001
0001
0000
,
1000
0000
1000
0000
,
1000
1000
1000
0000
,
0010
0000
0000
0000
,
0100
0000
0000
0000
,
1001
0000
0000
0000
,
0000
0000
0000
0000
,
0000
0010
0000
0010
,
0000
0010
0010
0000
,
0000
0100
0000
0100
,
0000
0100
0100
0000
,
0000
0001
0000
1000
,
0000
0000
1001
0000
,
0010
0000
0100
0000
,
0110
0000
0000
0000
,
0001
0000
0001
0000
,
1000
0000
1000
0000
,
0010
0000
0100
0000
,
0110
0000
0000
0000
,
0100
0100
0000
0000
,
0001
0001
0000
0000
,
1000
1000
0000
0000
,
0010
0010
0000
1001
;

//---------------dance-single - ----------------
#NOTEDATA:;
#CHARTNAME:;
#STEPSTYPE:dance-single;
#DESCRIPTION:;
#CHARTSTYLE:;
#DIFFICULTY:Easy;
#METER:3;
#RADARVALUES:0.178598,0.226807,0.101366,0.000000,0.000000,111.000000,102.000000,9.000000,0.000000,0.000000,0.000000,0.000000,0.000000,0.000000,0.178598,0.226807,0.101366,0.000000,0.000000,111.000000,102.000000,9.000000,0.000000,0.000000,0.000000,0.000000,0.000000,0.000000;
#CREDIT:;
#NOTES:
0000
0000
0000
0000
,
0000
0000
0000
0000
,
0000
0000
0000
0000
,
0000
0000
0000
0000
,
0000
0000
0000
0000
,
0000
0000
0000
0000
,
0000
0000
0000
0000
,
0001
0000
1000
0000
,
1001
0000
0000
0000
,
0001
0000
0010
0000
,
0100
0000
1000
1000
,
0100
0001
0000
0010
,
0000
0001
1000
1000
,
0010
0001
0000
0100
,
0000
1000
0100
0100
,
0001
0010
0000
1000
,
0000
0010
0001
1000
,
0000
0001
0001
1000
,
1000
0000
0010
0100
,
0001
0000
0010
0000
,
0100
1000
0001
0000
,
1000
0010
0001
0000
,
0001
0100
1000
0000
,
0010
1000
0100
0000
,
1000
0001
0010
0000
,
0110
0000
1001
0000
,
0001
0010
0100
1000
,
0010
0000
0100
0000
,
0110
0000
0000
0000
,
0001
0001
0000
0010
,
0000
0100
1000
0010
,
0000
1000
0000
0001
,
0000
0100
0010
1001
,
0000
0001
0000
0010
,
0000
0100
1000
0001
,
0100
0100
1000
1000
,
0001
0000
1001
0000
,
0010
1000
0001
0100
,
0010
0000
0110
0000
,
0001
0000
1000
0000
,
0110
0000
0000
0000
,
0001
0001
0010
0000
,
1000
1000
0100
0000
,
0010
0010
1000
0000
,
0100
0100
0001
1001
;

//---------------dance-single - ----------------
#NOTEDATA:;
#CHARTNAME:;
#STEPSTYPE:dance-single;
#DESCRIPTION:;
#CHARTSTYLE:;
#DIFFICULTY:Medium;
#METER:5;
#RADARVALUES:0.294445,0.327610,0.213995,0.000000,0.000000,183.000000,164.000000,19.000000,0.000000,0.000000,0.000000,0.000000,0.000000,0.000000,0.294445,0.327610,0.213995,0.000000,0.000000,183.000000,164.000000,19.000000,0.000000,0.000000,0.000000,0.000000,0.000000,0.000000;
#CREDIT:;
#NOTES:
0000
0000
0000
0000
,
0000
0000
0000
0000
,
0000
0000
0000
0000
,
0000
0000
0000
0000
,
0000
0000
0000
0000
,
0000
0000
0000
0000
,
0000
0000
0000
0000
,
0000
0001
0000
0000
1000
0001
0000
1000
,
0000
0000
0000
0000
,
0010
0000
1000
0000
1000
0100
1000
0000
,
0010
0000
0100
0000
0001
0000
0000
0110
,
0000
0010
1000
0000
0100
0100
0001
0000
,
0100
0000
0010
0000
1000
0001
0000
0101
,
0000
0000
0010
0000
0100
0001
1000
0000
,
0010
0000
0010
0000
0100
0001
0000
0011
,
0000
0010
0100
1000
,
0010
0100
0001
0000
1000
0000
0000
1100
,
0000
0010
0100
0000
0001
0010
0100
1000
,
0010
0000
0000
0000
1010
0000
0100
0001
,
0000
0001
0010
0000
0010
0100
1000
0000
,
0001
1000
0001
0000
1000
0001
1000
0000
,
0001
0011
1000
1010
,
0001
1000
1001
0000
,
0100
0101
0010
1010
,
0100
0001
1000
0000
0010
0000
0000
0000
,
1000
0000
1000
0100
0001
0000
0001
0100
,
0010
0000
0001
1000
0010
0000
0100
0010
,
0000
1001
0000
0000
0100
0001
0000
1000
,
0000
0010
0000
0010
,
1000
0100
0001
0000
0000
0010
0010
0000
,
0000
0001
1000
0000
0010
0000
0100
0010
,
0000
1000
0100
0000
0000
0001
0100
0000
,
0000
0010
0010
0000
1000
0001
0010
0100
,
0000
1000
0010
0000
0000
0100
0001
0000
,
0000
0001
1000
0000
0010
0100
0001
0010
,
0000
0100
1000
0000
0100
1000
0001
0000
,
0010
0000
1001
0000
0100
0100
0001
0000
,
1001
0010
0010
0100
,
0100
0000
0000
0000
1000
0001
1000
0001
,
0000
1001
0000
0000
0100
0010
0000
0010
,
1000
0001
1000
0001
,
0010
0001
0101
0000
,
0010
1000
1100
0000
,
1000
0001
0011
0000
,
1010
0100
0001
1001
;

//---------------dance-single - ----------------
#NOTEDATA:;
#CHARTNAME:;
#STEPSTYPE:dance-single;
#DESCRIPTION:;
#CHARTSTYLE:;
#DIFFICULTY:Hard;
#METER:8;
#RADARVALUES:0.445689,0.529216,0.315361,0.000000,0.101366,277.000000,249.000000,28.000000,0.000000,0.000000,0.000000,0.000000,0.000000,0.000000,0.445689,0.529216,0.315361,0.000000,0.101366,277.000000,249.000000,28.000000,0.000000,0.000000,0.000000,0.000000,0.000000,0.000000;
#CREDIT:;
#NOTES:
0000
0000
0000
0000
,
0000
0000
0000
0000
,
0000
0000
0000
0000
,
0000
0000
0000
0000
,
0000
0000
0000
0000
,
0000
0000
0000
0000
,
0000
0000
0000
0000
,
0000
0000
0000
0000
,
0000
0000
0000
0000
,
0001
0000
0100
0000
0010
0000
0000
1000
0100
0000
0010
0000
0100
0000
1000
0000
,
0001
0010
0110
0000
1000
0010
0000
0100
,
0000
0000
0001
0000
0010
0000
0000
1000
0100
0000
1000
0000
0010
0000
0100
0000
,
0001
0010
0001
0000
0100
0000
1000
0000
0100
0000
0010
0000
0000
0000
1000
0000
,
0000
0000
0001
0000
0010
0000
0100
0000
1000
0010
1000
0000
0001
0000
0100
0000
,
0010
1000
0101
0000
0001
1000
0000
0010
,
0000
0000
0100
0010
0100
0000
0001
0000
1000
0000
0100
0000
0001
0000
0100
0000
,
1000
0010
0101
0000
0001
0001
0010
1100
,
0000
0000
0100
0000
0100
0000
0010
0001
0010
0000
0100
0000
1000
0000
0001
0000
,
0010
0000
0100
0000
1000
0010
0100
0011
,
0000
0001
0100
1000
0100
0010
0010
1000
,
0100
0010
0100
0000
1000
0000
0001
0000
0010
0001
0000
0010
0001
0000
0100
0000
,
0010
0000
0010
0000
1010
0000
0000
0100
0001
0000
0001
0000
1001
0000
0000
0010
,
0100
1000
0100
0010
0001
0100
0100
1100
,
0000
0000
1000
0010
1000
0000
0000
0000
0010
0000
0100
0000
0101
0000
0000
0000
,
0001
0010
0100
1000
0010
0010
0100
0101
,
1000
0010
0100
1000
0100
0010
1000
0001
,
0010
0000
0001
0000
0100
0000
0010
0000
1000
0000
1000
0100
1000
0000
0010
0000
,
0000
0101
0000
0000
0010
0001
0000
1100
,
0000
0001
0001
0001
,
1000
0010
0101
0000
0100
0001
0011
0000
,
0010
0100
0010
0000
0100
0000
1000
0000
0010
0000
0100
0000
0001
0000
1001
0000
,
0000
0100
0010
0000
1000
0100
1000
0000
,
0001
1000
0001
0000
0100
0000
0010
0000
0100
0000
0100
0000
0001
0000
0011
0000
,
0000
0000
0010
0000
0100
0000
0000
1000
0100
0000
0010
0000
1000
0000
0000
0000
,
0010
0001
0100
1000
0100
0100
0010
1000
,
0001
0000
0000
0000
0010
0000
0100
0000
1000
0000
0000
0100
0010
0000
0001
0000
,
1100
0000
0011
0000
0100
0010
0100
0101
,
0001
0001
0010
0000
0100
1000
0010
0100
,
0000
0000
0101
0000
0000
0000
0000
0000
0001
0000
0010
0100
0010
0000
0100
0000
,
0000
1100
0000
0100
1000
0010
0000
0100
,
0001
0001
0001
0001
1000
1000
1000
1000
,
0001
0010
0100
0010
0110
0000
1001
0000
,
1000
0010
0100
0001
0011
0000
1100
0000
,
0010
0100
1000
0100
0101
0000
1010
0000
,
0010
0010
0100
0001
1000
0000
1001
0000
;

//---------------dance-single - ----------------
#NOTEDATA:;
#CHARTNAME:;
#STEPSTYPE:dance-single;
#DESCRIPTION:;
#CHARTSTYLE:;
#DIFFICULTY:Challenge;
#METER:9;
#RADARVALUES:0.577626,0.604818,0.495568,0.000000,0.371676,359.000000,315.000000,44.000000,0.000000,0.000000,0.000000,0.000000,0.000000,0.000000,0.577626,0.604818,0.495568,0.000000,0.371676,359.000000,315.000000,44.000000,0.000000,0.000000,0.000000,0.000000,0.000000,0.000000;
#CREDIT:;
#NOTES:
0000
0000
0000
0000
,
0000
0000
0000
0000
,
0000
0000
0000
0000
,
0000
0000
0000
0000
,
0000
0000
0000
0000
,
0000
0000
0000
0000
,
0000
0000
0000
0000
,
0000
0101
0000
0000
1100
0010
0000
1001
,
0000
0000
0000
0000
,
0001
0000
0010
0000
0001
0000
0000
0001
0100
0000
0100
0000
0010
0000
1000
0100
,
1000
0001
0101
0000
1100
0010
0100
0101
,
0000
0000
1000
0010
0100
0000
0010
0000
1000
0000
0100
0000
0101
0000
0000
0000
,
0010
0000
1000
0000
0100
0000
0010
0000
0001
0000
0100
0010
1000
0000
0010
0000
,
0000
0000
1000
0000
1100
0000
0000
0010
0001
0000
0100
0000
0010
0000
0010
0100
,
0001
0000
0010
0100
1000
0000
0001
0000
0010
0000
0100
0000
0010
0000
1100
0000
,
0000
0000
1000
0100
0010
0000
0100
0000
1000
0000
0010
0000
0101
0000
0000
0001
,
0100
0000
0010
0000
0100
0000
0001
0000
0010
0100
0010
0000
0100
0000
1100
0000
,
0000
1000
0010
0000
0110
0000
0100
0001
0010
0000
0011
0000
0010
0100
1000
0000
,
1001
0000
0100
0000
0001
0000
0000
0000
0010
0100
1000
0100
0010
0000
0001
0000
,
0000
0100
0010
0000
1000
0000
0000
0001
0010
0100
0010
0000
0100
0000
1000
0000
,
0001
0000
0100
0000
1010
0000
0000
0000
0100
0001
0000
0010
0100
0000
1000
0000
,
0010
0000
0100
0000
0101
0000
0000
0100
0010
0000
1000
0000
1100
0000
0000
1000
,
0100
0000
0010
0000
0001
0100
1000
0000
0100
0000
0010
0000
1000
0000
0101
0000
,
0000
0000
0001
0010
0100
0000
1000
0100
1000
0000
0010
0000
0101
0000
0100
0010
,
1000
0100
0010
0001
0100
0010
1100
0110
,
0010
0001
0010
0100
1000
0010
0100
1000
,
0100
0000
0100
0000
0001
0000
0001
0000
1000
0010
1000
0100
0010
0000
0001
0000
,
0000
1001
0000
0000
0011
1100
0000
0110
,
0001
0000
0010
0000
1000
0000
0010
0000
0100
0000
1000
0000
0001
0000
0100
0001
,
0000
0001
0100
0010
1000
0000
0100
0000
1000
0100
0010
0000
1001
0000
0000
0001
,
0010
0000
0100
0000
0010
0100
1000
0000
0100
1000
0010
0100
1000
0000
0100
0000
,
0001
0010
0100
0000
0011
0000
0000
0010
0001
0100
1000
0000
0100
0000
0000
0010
,
1000
0100
0011
0100
1010
0100
0010
1001
,
0100
0010
1000
0100
0010
0000
0000
0000
0010
0001
1000
0000
0010
0000
0100
0000
,
0101
0000
0010
0000
1010
0000
0100
0000
1001
0000
0000
1000
0100
0000
0010
0000
,
0001
0000
0000
0010
0100
0000
0010
0000
1100
0000
1000
0100
0010
0000
0001
0000
,
0101
0000
0000
0000
1001
0000
0000
0000
0010
1000
0010
0100
0001
0000
0010
0000
,
0000
0000
0010
0100
1000
0000
0001
0000
0100
0000
0010
0000
1001
0000
1001
0000
,
0000
0000
0010
1000
0001
0000
0000
0000
1000
0010
0100
0001
0010
0000
0110
0000
,
0000
1001
0000
0000
1010
0101
0000
0110
,
1000
1000
0100
0100
0010
0010
0001
0001
,
1000
0010
0000
1000
0100
0000
0010
0000
0001
0100
0001
0100
0010
0000
0100
0000
,
0010
1000
0000
1000
0001
0000
0010
0000
0100
1000
0100
1000
0010
0000
0000
0000
,
0100
0001
0000
0010
0100
0000
1000
0000
0001
1000
0001
1000
0010
0000
0100
0000
,
0001
0010
0000
0100
1000
0000
0010
0000
0100
0000
0100
0000
1001
0000
0000
0000
;

//---------------dance-double - ----------------
#NOTEDATA:;
#CHARTNAME:;
#STEPSTYPE:dance-double;
#DESCRIPTION:;
#CHARTSTYLE:;
#DIFFICULTY:Easy;
#METER:3;
#RADARVALUES:0.185034,0.226807,0.180207,0.000000,0.000000,115.000000,99.000000,16.000000,0.000000,0.000000,0.000000,0.000000,0.000000,0.000000,0.185034,0.226807,0.180207,0.000000,0.000000,115.000000,99.000000,16.000000,0.000000,0.000000,0.000000,0.000000,0.000000,0.000000;
#CREDIT:;
#NOTES:
// measure 0
00000000
00000000
00000000
00000000
,  // measure 1
00000000
00000000
00000000
00000000
,  // measure 2
00000000
00000000
00000000
00000000
,  // measure 3
00000000
00000000
00000000
00000000
,  // measure 4
00000000
00000000
00000000
00000000
,  // measure 5
00000000
00000000
00000000
00000000
,  // measure 6
00000000
00000000
00000000
00000000
,  // measure 7
00010000
00000000
00001000
00000000
,  // measure 8
00011000
00000000
00000000
00000000
,  // measure 9
00010000
00000000
00000100
00000000
,  // measure 10
00001000
00000000
00000110
00000000
,  // measure 11
00000001
00000000
00000100
00000000
,  // measure 12
00001000
00000000
00011000
00000000
,  // measure 13
00100000
00000000
01000000
00000000
,  // measure 14
10000000
00000000
01010000
00000000
,  // measure 15
00100000
00000000
00001000
00000000
,  // measure 16
00010000
00000100
00001100
00000000
,  // measure 17
00001000
00000100
00000001
00000100
,  // measure 18
00010000
00001000
00100000
00000000
,  // measure 19
11000000
00000000
00100000
00000000
,  // measure 20
00001000
00010000
00000100
00001000
,  // measure 21
00000010
00000000
00000100
00000000
,  // measure 22
00001000
00100000
01000000
00000000
,  // measure 23
10000000
00000000
00010000
00000000
,  // measure 24
00100000
00001000
00010000
00000000
,  // measure 25
00010100
00000000
01001000
00000000
,  // measure 26
00010000
00000100
00001000
00000001
,  // measure 27
00000010
00000000
00001000
00000000
,  // measure 28
01100000
00000000
00000000
00000000
,  // measure 29
00100000
00001000
00000000
01000000
,  // measure 30
00010000
00100000
01100000
00000000
,  // measure 31
00100000
00001000
00000000
00010000
,  // measure 32
00000100
00001000
00000110
00000000
,  // measure 33
00000100
00000001
00000000
00001000
,  // measure 34
00000000
00000100
00011000
01000000
,  // measure 35
00100000
00000000
01000000
00000000
,  // measure 36
10010000
00000000
00100000
00001000
,  // measure 37
00000100
00000100
00000010
00000010
,  // measure 38
00001000
00000100
00000001
00000100
,  // measure 39
00010000
00000000
00001000
00000000
,  // measure 40
10010000
00000000
00000000
00000000
,  // measure 41
00100000
00001000
00010000
00000000
,  // measure 42
00000010
00010000
00001000
00000000
,  // measure 43
01000000
00100000
10010000
00000000
,  // measure 44
00100000
00001000
00010000
00011000
;
