#TITLE:Again, My Lovely Day;
#SUBTITLE:(取り返してやる!);
#ARTIST:Akko's;
#TITLETRANSLIT:;
#SUBTITLETRANSLIT:(Torikaeshite yaru!);
#ARTISTTRANSLIT:;
#GENRE:Cute;
#CREDIT:8Chasey;
#MUSIC:Again, My Lovely Day.mp3;
#BANNER:Again, My Lovely Day.png;
#BACKGROUND:Again, My Lovely Day-bg.png;
#CDTITLE:;
#SAMPLESTART:68.202;
#SAMPLELENGTH:12.000;
#SELECTABLE:YES;
#OFFSET:-0.698;
#BPMS:0.000=134.000;
#STOPS:;
#BGCHANGES:;
#FGCHANGES:;

//--------------- dance-single - 8Chasey ----------------
#NOTES:
     dance-single:
     8Chasey:
     Beginner:
     1:
     0,0,0,0,0:
0000
0000
0000
0000
,
0000
0000
0000
0000
,
0000
0000
0000
0000
,
0000
0000
0000
0000
,
0001
0000
1000
0000
,
0001
0001
0001
0000
,
1000
0000
0001
0000
,
1000
1000
1000
0000
,
1001
0000
0000
0000
,
1001
0000
0000
0000
,
0100
0000
0000
0000
,
0100
0000
0010
0000
,
0000
0010
0010
0010
,
0010
0000
0000
0000
,
0010
0000
0000
0000
,
1000
0000
0001
0000
,
0000
0100
0100
0100
,
0100
0000
0000
0000
,
0000
0000
0000
0000
,
1001
0000
0000
0000
,
0110
0000
0000
0000
,
1001
0000
0110
0000
,
1001
0000
0001
0000
,
0000
0000
1000
0000
,
1000
0000
0001
0000
,
0000
0000
1000
0000
,
0110
0000
0100
0000
,
0000
0010
0010
0010
,
0010
0000
0100
0000
,
0000
0010
0010
0010
,
0010
0000
0000
0000
,
0100
0000
0001
0000
,
1000
0000
0000
0000
,
0100
0000
0010
0000
,
1001
0000
1000
0000
,
0001
0000
0000
0000
,
0100
0000
0010
0000
,
0100
0100
0100
0000
,
0110
0000
0000
0000
,
1000
0000
0000
0000
,
0001
0000
0000
0000
,
0100
0000
0001
0000
,
1000
0000
0000
0000
,
0010
0000
0000
0000
,
1000
0000
0000
0000
,
0001
0000
0100
0000
,
1001
0000
0000
0000
;

//--------------- dance-single - 8Chasey ----------------
#NOTES:
     dance-single:
     8Chasey:
     Easy:
     4:
     0,0,0,0,0:
0000
0000
0000
0000
,
0000
0000
0000
0000
,
0000
0000
0000
0000
,
0000
0000
0000
0000
,
0001
0000
0010
0000
0000
0001
0000
0100
,
0000
1000
1000
1000
,
1001
0100
0010
0000
,
2000
3001
0002
1003
,
0200
0000
0000
0000
0310
0000
0100
0010
,
0100
0000
1000
0000
,
0001
0010
0001
0000
,
0100
0000
0001
0000
,
1000
0010
0100
0100
,
0200
0000
0310
0000
,
1000
0100
1000
0001
,
0100
0100
0100
0000
,
0100
0010
1000
0001
,
0002
0000
1003
0000
,
2000
0000
0000
0000
3001
0000
0000
1001
,
0000
0000
0001
0000
1000
0000
0000
1001
,
0000
0000
1000
0000
0001
0000
0000
1001
,
0000
0010
0100
0010
,
1001
1000
0001
0000
,
0010
0001
0010
0001
,
0010
0001
0001
1000
,
0010
1000
0010
1000
,
0010
0100
0100
0000
,
0100
0001
1000
0100
,
0010
0000
0100
0000
,
1000
0001
1000
0001
,
2000
0000
3002
0000
,
1003
0001
1000
0000
,
0001
0010
0001
0000
,
1000
0100
1000
0000
,
0110
0000
1000
0000
,
0001
0000
0010
0000
,
0100
0010
0100
0010
,
0100
0100
1000
0001
,
0110
0000
0200
0300
,
0001
0000
0010
0001
,
1000
0000
0200
0300
,
1000
1000
0001
0001
,
1000
0000
0020
0030
,
1000
0001
0010
0000
,
0100
0000
0020
0030
,
0001
0001
1000
1000
,
1001
0000
0000
0000
;

//--------------- dance-single - 8Chasey ----------------
#NOTES:
     dance-single:
     8Chasey:
     Medium:
     6:
     0,0,0,0,0:
0000
0000
0000
0000
,
0000
0000
0000
0000
,
0000
0000
0000
0000
,
0000
0000
0000
0000
,
0110
0000
0010
0000
1000
0001
0000
1000
,
0001
0000
0100
0000
1000
0001
0100
0000
,
0010
0000
1000
0000
0001
0000
1000
0100
,
0000
1000
0001
0100
0010
0000
1001
0000
,
0200
0000
0000
0000
0300
0000
0010
0100
,
1001
0000
1000
0000
0100
1000
0010
0000
,
0100
0001
1000
0010
,
1000
0100
1000
0000
0001
1000
0001
0000
,
0010
2000
3002
0103
,
1001
0000
1000
0100
1000
0000
0001
0000
,
0010
0001
1000
0100
,
1000
0010
1000
0000
0100
0001
0100
0010
,
1000
0010
1000
0001
,
0110
0010
0100
0010
,
1000
0000
0001
0000
1000
0000
0100
1000
,
0000
0100
1000
0010
0100
0000
0100
0001
,
0000
0100
0001
0010
0100
0000
1000
0001
,
0000
0010
0001
1000
0100
0010
0100
0000
,
0110
0000
0001
0000
1000
0010
0000
1000
,
0100
1000
0001
0001
,
1001
0000
0001
0000
0010
0001
1000
0010
,
0000
1000
0001
0010
0100
0000
0010
0000
,
1100
0000
1000
0001
0010
0001
0000
0100
,
0010
0000
0100
0000
0010
1000
0100
0000
,
0011
0000
0001
1000
0100
0000
1000
0010
,
0000
0100
0010
1000
0100
1000
0001
0000
,
2001
0000
0100
0000
,
3001
0000
0010
0200
0000
0000
0300
0000
,
1000
0010
1000
0000
0001
0100
0001
0000
,
0010
0001
1000
0200
0000
0000
0300
0010
,
0100
1000
0010
0000
0100
0001
0010
0000
,
0001
1000
0100
2000
0000
0000
3001
0000
,
0011
0000
0100
0000
1000
0010
1000
0000
,
0001
0100
0020
0000
2030
0000
3002
0000
,
0103
0000
0001
0010
0001
1000
0000
0100
,
1000
0110
0001
1000
,
1001
0000
0001
0010
0001
0000
1000
0100
,
0000
1000
0001
0100
0010
1000
0100
0000
,
0101
0000
0010
0000
1000
0001
0000
0010
,
0100
0000
1000
0010
0100
0001
1000
0000
,
1100
0000
0010
0001
1000
0100
1000
0010
,
0000
1000
0001
0010
0100
0000
0010
0000
,
1001
0000
0000
0000
;

//--------------- dance-single - Vivaldi ----------------
#NOTES:
     dance-single:
     Vivaldi:
     Hard:
     7:
     0,0,0,0,0:
0000
0000
0000
0000
,
0000
0000
0000
0000
,
0000
0000
0000
0000
,
0000
0000
0000
0000
,
1001
0000
1100
0000
0001
0010
0100
1000
,
1001
0000
0101
0000
0001
0010
0100
0000
,
1100
0000
0101
0000
0001
1000
0010
0100
,
0110
0000
1001
0001
0010
0100
1000
0001
,
2000
0000
0100
0000
3100
0000
0100
0010
,
1000
0100
0001
0100
1000
0000
1001
0000
,
0000
0001
0001
1000
0010
0000
1000
0000
,
0100
1000
0001
0100
0010
1000
0100
0100
,
0000
0001
0100
0000
1000
0000
1100
0000
,
0101
0001
0010
0100
1000
0000
0001
1000
,
0000
1000
0001
0000
0001
0010
0100
0000
,
0100
1000
0010
1000
0001
0000
0001
0000
,
1001
0000
0100
0000
0010
0001
1000
0000
,
1001
0000
0001
1000
0010
1000
0100
1000
,
0001
0100
0001
0010
0100
1000
0010
1000
,
0000
0001
0001
0001
0001
1001
1001
0100
,
0000
1000
1000
1000
1000
1010
1010
0010
,
0000
1000
1000
0100
1000
0001
1000
0000
,
1010
1000
1001
0000
1001
0001
1000
0000
,
0100
0000
0001
0000
1000
0100
0100
0000
,
1001
0000
0110
0001
1000
0000
0001
0000
,
0110
0000
1001
0010
1000
0000
1100
0000
,
0001
0100
0010
1000
0100
0000
1000
0000
,
1100
0000
0011
0001
0000
1010
1000
0000
,
1000
0001
1000
0010
0100
0000
1001
1001
,
0000
0100
0010
0110
0000
0100
1000
0000
,
0001
1000
0100
1000
0001
0100
0100
0010
,
1000
0001
1000
0100
0010
0000
1010
0000
,
0001
1000
0010
0100
0001
0001
1000
0100
,
0010
0100
1000
0001
0100
0000
0110
0000
,
0001
0010
0100
1000
0001
1000
0010
0000
,
0100
0000
0100
0000
0001
0000
2000
0000
0000
0000
0100
0000
0100
3000
0000
0000
,
1100
0011
1001
0110
,
0001
0010
0100
1000
0200
0000
1000
0300
,
1100
0000
0101
0000
0001
0010
0100
1000
,
1001
0000
0011
0000
0001
1000
0010
0100
,
0110
0000
1001
0000
0001
1000
0100
0000
,
0100
1000
0001
0000
0001
1000
0100
1000
,
0001
0100
0010
1000
0001
0000
1001
0000
,
0100
0010
0001
0000
1001
0000
0101
0001
,
0000
1000
0010
1000
0100
0000
1000
0001
,
0000
0001
1000
0001
0000
0001
0100
0010
,
0110
0000
0000
0000
;

//--------------- dance-single - Vivaldi ----------------
#NOTES:
     dance-single:
     Vivaldi:
     Challenge:
     8:
     0,0,0,0,0:
0000
0000
0000
0000
,
0000
0000
0000
0000
,
0000
0000
0000
0000
,
0000
0000
0000
0000
,
0001
1000
0100
1000
0001
0000
1100
0000
,
0001
0000
1000
0000
0001
0000
0100
0010
,
0000
0010
0110
0001
1000
0000
0100
1000
,
0000
1000
0001
0100
0000
0010
1000
0000
,
0001
0000
0000
0000
1000
0000
0000
0000
0100
0000
0000
0000
1000
0000
0001
0010
,
0100
1000
0100
0000
1000
0000
0001
0000
1000
0000
0000
0000
1001
0000
0000
0000
,
0000
0001
1000
0000
0010
0000
1100
0100
,
0000
0100
1000
0001
1000
0010
1100
0100
,
1000
1000
0001
0000
1001
0000
0110
0000
,
0100
0000
0001
0010
0100
1000
1001
0001
,
0000
0001
1000
0000
1100
0000
0101
0001
,
0000
0001
0010
0100
0110
0001
1001
0001
,
0000
0001
0100
0000
0110
0000
1001
0000
,
1001
0001
1001
0001
1100
0100
1100
0100
,
1010
0010
1010
0010
1001
0001
1001
1001
,
0000
0100
1000
0001
0100
0101
0101
1000
,
0000
0100
1100
0001
0010
0011
0011
0001
,
0000
0010
0110
0100
1000
0001
1000
0000
,
0001
1000
0001
0000
1000
0000
0010
0000
0100
0000
0000
0000
0110
0000
0000
0000
,
1001
0000
0000
0000
1001
0000
0001
0000
1001
0000
0000
0000
0100
0010
0100
0000
,
0110
0000
0000
0000
0100
0000
1000
0000
0001
0000
1000
0001
1000
0000
0001
0000
,
0000
0000
0100
1000
0100
0000
1000
0000
0000
0000
0001
1000
0001
0000
0001
0000
,
1001
0000
1000
0000
0100
0010
0100
0000
0010
0000
0000
0000
0110
0000
0000
0000
,
0001
1000
0100
0000
1100
0000
0001
0101
,
0000
0001
0011
0100
0110
0000
0100
1100
,
0000
0001
1001
0001
0100
0010
1000
0001
,
0010
0000
0100
0000
1000
0000
0001
1000
0001
0000
1000
0000
0010
0000
0100
0000
,
1000
0001
0100
0020
0000
0100
0000
0000
,
0000
0030
0100
0000
0001
0000
1000
0000
0100
0000
1000
0000
0001
0000
1000
0000
,
0001
0000
0010
0000
0100
0000
1000
0000
0000
0000
0000
0000
0000
0000
0100
1000
,
0100
0000
0001
0000
0000
0000
0100
1000
0100
0000
0001
0000
0000
0000
0100
0001
,
0100
0001
1000
0200
0000
1000
1000
0300
,
0000
0000
0100
0000
1000
0000
0010
0000
0100
0000
0001
0000
1000
0001
1000
0001
,
0100
0010
0100
0001
1000
0001
1000
0001
1000
0001
0100
0010
0100
0000
0100
0000
,
0101
0000
0001
1000
0100
0000
1000
0100
,
1000
0001
0101
0000
0011
0000
0100
1100
,
0000
0100
1100
0001
1001
0000
0001
0101
,
0000
0010
0110
0010
0000
0010
1000
0100
,
0000
0100
1100
0001
0101
0000
0011
0000
,
1100
0000
0001
0000
0100
0000
0010
0110
,
0000
0010
1010
0100
1000
0000
1000
0001
,
0000
0001
0100
0010
0000
0010
0110
0000
,
2002
0000
3003
0000
;
