#TITLE:Again, My Lovely Day;
#SUBTITLE:(Best Hits! REMIX);
#ARTIST:Akko's;
#TITLETRANSLIT:;
#SUBTITLETRANSLIT:;
#ARTISTTRANSLIT:;
#GENRE:Cute;
#CREDIT:;
#MUSIC:Again, My Lovely Day (Best Hits! REMIX).ogg;
#BANNER:Again, My Lovely Day (Best Hits REMIX).png;
#BACKGROUND:Again, My Lovely Day (Best Hits REMIX)-bg.png;
#CDTITLE:;
#SAMPLESTART:43.010;
#SAMPLELENGTH:12.000;
#SELECTABLE:YES;
#OFFSET:-0.482;
#BPMS:0.000=134.015;
#STOPS:;
#BGCHANGES:;
#FGCHANGES:;

//--------------- dance-single - 8Chasey (Description - CHALLENGE-ONLY CONCEPT) ----------------
#NOTES:
     dance-single:
     8Chasey (Description - CHALLENGE-ONLY CONCEPT):
     Challenge:
     8:
     0,0,0,0,0:
0000
0000
0000
0000
,
0000
0000
0000
0000
,
0000
0000
0000
0000
0000
0000
0001
0002
,
0000
0003
1000
2000
0000
3000
0010
0000
,
1001
0000
1000
0001
0020
0000
0031
1000
,
0200
0000
0310
0100
2000
0000
3010
0100
,
0002
0000
2003
0000
0100
0000
3001
0020
,
0000
0000
0031
0000
1000
0000
0020
0000
0100
0000
0130
0000
0001
0100
0001
0000
,
0010
0001
0011
0000
1000
0100
0001
0100
,
0010
0000
0100
1000
0000
0001
0100
0010
,
0000
1000
1001
0000
0002
0000
0013
0020
,
0000
0031
1000
0020
0000
0100
0130
0002
,
0000
1000
1000
0000
0103
0001
1000
0100
,
0000
1000
0010
0110
0000
0100
0010
2000
,
0000
0001
0001
0000
3100
0000
0010
0011
,
0000
0000
0100
0000
1100
0000
0000
0000
1001
0000
1001
0000
1000
0001
0000
0000
,
2000
0000
0000
0000
3020
0000
0000
1000
0000
0000
0100
0000
0130
0000
0200
0000
,
0000
0001
0000
0010
0000
0302
1003
0000
,
0001
0000
2000
0000
0001
0000
0000
0100
0000
0000
3100
0000
1000
0000
0020
0000
,
0000
0000
1030
0100
1000
0000
0002
0000
0003
0000
0202
0000
0300
0000
0103
0000
,
0001
0000
0010
0000
0010
0000
0001
0100
0000
0000
0001
0000
1000
0010
2000
0000
,
0000
3100
1000
0002
0000
0013
0001
0200
,
0000
0310
0210
0000
0001
0000
1000
0000
,
0310
1010
0000
0011
0000
1100
1000
0100
,
2000
0000
3001
0100
0002
0000
0100
0103
,
0010
1000
1020
0000
1030
0001
0010
0020
,
0000
0000
0130
0000
1000
0000
0100
1000
0000
0000
0001
0000
0100
0000
0200
0000
,
0000
0301
1000
0020
0000
1000
1030
0001
,
2000
0000
0100
0100
3002
0000
0103
0001
,
0000
0000
0010
0000
0001
0000
0200
0000
0000
0000
0310
0000
1000
0010
1000
0000
,
0002
0000
0013
0010
0001
1000
0100
1100
,
0000
1001
1001
0000
0011
0001
0010
0200
,
0000
1000
0010
1000
,
0320
0000
0000
0000
0001
0001
0031
0200
,
0000
0001
0001
0000
0301
0010
0001
0020
,
0000
0100
0100
0000
0130
1000
0100
2000
,
0000
0001
0010
0000
3010
0000
0100
0202
,
0000
0000
0303
0000
0101
0000
0000
0000
1010
0000
0100
0010
0000
0100
0010
0000
,
2000
0000
3100
0100
0020
0000
0130
0010
,
0001
0100
0002
0000
1003
0100
0200
0010
,
0300
0100
0010
0001
1000
0010
0100
1001
,
0000
0100
0010
1001
0000
1000
0001
2000
,
0000
0010
3010
1000
0002
0010
0013
0002
,
0000
0000
0103
0000
0001
1000
0020
0000
0000
0000
1030
0000
0200
0000
1000
0000
,
1300
0010
0100
0001
0011
0010
0001
1001
,
0000
1100
1100
0000
0011
0011
0100
0020
,
0000
0000
0000
0000
,
0000
0000
0000
0030
;
