#TITLE:21 Guns;
#SUBTITLE:;
#ARTIST:Green Day;
#TITLETRANSLIT:;
#SUBTITLETRANSLIT:;
#ARTISTTRANSLIT:;
#GENRE:Punk Rock;
#CREDIT:8Chasey 2025;
#MUSIC:21 Guns.ogg;
#BANNER:;
#BACKGROUND:;
#CDTITLE:;
#SAMPLESTART:65.300;
#SAMPLELENGTH:12.000;
#SELECTABLE:YES;
#OFFSET:-4.726;
#BPMS:0.000=79.000
,80.000=81.000
,88.000=82.500
,92.000=81.500
,108.000=82.000
,116.000=79.000
,184.000=81.000
,192.000=82.000
,200.000=81.000
,208.000=82.500
,212.000=82.000
,224.000=83.500
,228.000=82.500
,232.000=83.000
,256.000=83.500
,264.000=83.000
,296.000=79.000
,344.000=81.000
,352.000=82.000
,360.000=81.000
,368.000=82.000
,376.000=81.000
,384.000=83.000
,388.000=81.000
,396.000=82.000
;
#STOPS:;
#DISPLAYBPM:80.000;
#BGCHANGES:;
#FGCHANGES:;

//--------------- dance-single - 8Chasey ----------------
#NOTES:
     dance-single:
     8Chasey:
     Easy:
     2:
     0,0,0,0,0:
0000
0000
0000
0000
,
0000
0000
0000
0000
,
0000
0000
0000
0000
,
0000
0000
0000
0000
,
0001
0000
1000
0000
,
0001
0010
0001
0000
,
1000
0000
0001
0000
,
1000
0010
1000
0000
,
0100
0000
0010
0000
,
0100
0010
0100
0000
,
0010
0100
0010
0000
,
0200
0000
0000
0300
,
0010
0000
0100
0000
,
1000
0001
1000
0000
,
0010
0000
0100
0000
,
0001
1000
0001
0000
,
1000
0000
0010
0000
,
0100
0000
0001
0000
,
0020
0000
0000
0000
,
0030
0000
0000
0010
,
0100
0000
1000
1000
,
0100
0000
0001
0001
,
0100
0000
0010
0100
,
0020
0000
0030
0000
,
0100
0000
0001
0001
,
0010
0000
1000
1000
,
0010
0000
0100
0010
,
0200
0000
0300
0000
,
0002
0003
2000
3000
,
0020
0000
0030
0000
,
0100
0000
0001
0000
,
0100
0010
0100
0000
,
0010
0000
1000
0000
,
0010
0100
0010
0000
,
1000
0000
0001
0000
,
1000
0001
1000
0000
,
0001
1000
0001
0000
,
0020
0000
0000
0030
,
0100
0000
1000
0000
,
0100
0010
0100
0000
,
0010
0000
0001
0000
,
0010
0100
0010
0000
,
0001
0000
0100
0000
,
0010
0000
1000
0000
,
0200
0000
0000
0000
,
0300
0000
0000
0100
,
0001
0000
0010
0010
,
0001
0000
0100
0100
,
0001
0000
1000
0001
,
2000
0000
3000
0000
,
1000
0000
0100
0100
,
1000
0000
0010
0010
,
1000
0000
0001
1000
,
0002
0000
0003
0000
,
2000
3000
0002
0003
,
2002
0000
3003
0000
,
1000
0000
0001
0000
,
1000
0100
1000
0000
,
0001
0000
1000
0000
,
0001
0100
0001
0000
,
0100
0000
0010
0000
,
0100
0010
0100
0000
,
0010
0100
0010
0000
,
0200
0300
0020
0030
,
2000
0000
3001
0000
,
0002
0000
1003
0000
,
0001
0001
1000
1000
,
0002
0003
2000
3000
,
0200
0000
0310
0000
,
0020
0000
0130
0000
,
1000
1000
0001
0001
,
1000
0001
1000
0001
,
2000
3000
0002
0003
,
2002
0000
3003
0000
,
0020
0000
0030
0000
,
0200
0000
0300
0000
,
0002
0000
0003
0000
,
2000
0000
3000
0000
,
0001
0000
0010
0000
,
0002
0000
0003
0000
,
1000
0000
0010
0000
,
2000
0000
3000
0000
,
0020
0000
0030
0000
,
0200
0000
0300
0000
,
0020
0000
0000
0000
,
0030
0000
0000
0000
,
1000
0000
0001
0001
,
1000
0000
0001
0001
,
0010
0000
0100
0000
,
0020
0000
0030
0000
,
0001
0000
1000
1000
,
0001
0000
1000
1000
,
0100
0000
0010
0000
,
0200
0000
0300
0000
,
1000
1000
1000
0000
,
0001
0001
0001
0000
,
0100
0000
0010
0000
,
0100
0000
0100
0000
,
0001
0001
0001
0000
,
1000
1000
1000
0000
,
0010
0000
0100
0000
,
0010
0000
0010
0000
,
0100
0000
0100
0000
,
0020
0000
0000
0000
,
0000
0000
0000
0000
,
0030
0000
0000
0000
;

//--------------- dance-single - 8Chasey ----------------
#NOTES:
     dance-single:
     8Chasey:
     Medium:
     3:
     0,0,0,0,0:
0000
0000
0000
0000
,
0000
0000
0000
0000
,
0000
0000
0000
0000
,
0000
0000
0000
0000
,
0001
0000
1000
0100
1000
0000
0010
0000
,
0200
0000
0001
0000
0310
0100
0010
0000
,
1000
0000
0001
0010
0001
0000
0100
0000
,
0020
0000
1000
0000
0130
0010
0100
0000
,
0010
0000
1000
0100
1000
0000
0001
0100
,
0002
0000
0010
0000
1003
0100
1000
0000
,
0010
0000
1000
0010
1000
0000
0001
0002
,
0000
0203
0000
0000
0310
0100
0010
0000
,
0110
0000
0100
0001
0100
0000
0001
0000
,
2000
0000
0010
0000
3100
0010
0100
0000
,
0010
0000
0100
1000
0100
0000
1000
0000
,
0002
0000
0100
0000
0013
0100
0010
0000
,
0001
0000
0100
0001
1000
0000
0010
0000
,
1000
0000
0100
1000
0001
0000
0100
0000
,
0020
0000
0000
0000
,
0200
0000
0330
0110
,
0100
0001
0100
0000
0001
0000
1000
0000
,
0100
1000
0100
0000
1000
0000
0001
0001
,
0010
0000
0001
0000
1000
0010
1000
0000
,
0010
0000
1000
0000
0100
0010
0100
0000
,
1000
0010
1000
0000
0010
0000
0100
0000
,
0001
0010
0001
0000
0100
0000
0010
0100
,
0010
0000
1000
0000
0100
0000
1000
1000
,
0001
0000
0010
0000
0001
0001
1000
0000
,
0200
1000
0010
1300
,
0002
0000
0000
0103
,
1010
0000
1000
0001
1000
0000
0100
0000
,
0010
0000
0100
0000
0010
0010
0001
0000
,
0100
0000
0001
1000
0001
0000
0010
0000
,
0100
0000
0010
0000
0100
0100
1000
0000
,
0001
0000
0100
0001
0100
0000
0010
0000
,
1000
0000
0100
0000
1000
0001
1000
0000
,
0002
0010
0103
0010
,
2000
0000
0000
0000
3100
0010
0001
0000
,
0100
0000
0010
0100
0010
0000
1000
0000
,
0100
0000
1000
0000
0001
0001
1000
0000
,
0010
0000
0100
0010
0100
0000
0001
0000
,
0010
0000
0001
0000
1000
0001
1000
0000
,
0100
0000
1000
0010
1000
0000
0010
0100
,
0010
0000
0100
0000
0001
1000
0001
0000
,
0200
0000
0000
0000
,
0020
0000
0330
0110
,
0001
0000
0010
0000
0001
0100
0001
0000
,
1000
0000
0010
0000
1000
0100
1000
0001
,
0100
0000
0100
0000
0001
0001
0010
0000
,
0100
0000
0100
0000
1000
1000
0010
0000
,
0100
0100
0010
0000
0100
0000
0001
0000
,
0010
0010
0100
0000
1000
0000
0100
1000
,
0100
0000
1000
0000
0001
0100
0001
0000
,
0010
0000
0100
0000
0010
0100
0010
0000
,
0002
0000
0100
0000
0013
0010
0001
0000
,
2000
0000
0100
0000
3010
0010
1000
0000
,
0020
0100
0100
0130
,
0001
0100
0001
0000
1000
0100
1000
0000
,
0020
0100
0100
0130
,
0001
1000
2002
3003
,
2000
0100
0010
3010
,
0100
0001
0100
0000
0010
0000
1000
0000
,
0002
0010
0100
0103
,
0010
0000
0100
0000
0001
1000
0001
2000
,
0000
0000
0100
0000
3100
0000
1000
0002
,
0000
0000
0100
0000
0103
0000
0010
0200
,
0000
0010
0310
0100
,
0001
0000
1000
0000
0010
1000
0020
0000
,
0130
0001
0100
0000
0001
0000
0010
0200
,
0000
1300
0100
0000
1000
0000
0010
0200
,
0000
0310
0100
0000
0001
0100
0001
0000
,
1000
0100
1000
0000
0001
0000
0020
0000
,
0130
0000
1000
0000
0001
0001
0100
0000
,
0210
0010
0010
0310
,
0002
0000
0203
0000
,
0320
0000
2030
0000
,
3020
0000
0230
0000
,
0302
0000
2003
0000
,
3100
0000
0010
0100
0010
0000
0100
0000
,
1000
0000
0100
1000
0001
0000
0010
0001
,
0010
0000
0100
0010
0100
0000
0010
0000
,
0001
0000
0010
0001
1000
0000
0100
1000
,
0100
0000
0010
0100
0010
0000
0001
0000
,
0100
0000
1000
0000
0100
0010
0100
0000
,
2002
0000
0000
0000
,
0000
0000
3003
0000
,
1001
0000
0001
0000
1000
0010
1000
0000
,
1001
0000
1000
0000
0001
0100
0001
0001
,
0010
0000
0100
0000
0100
1000
0100
0000
,
1000
0000
0010
0000
0100
0001
0100
0000
,
0110
0000
0010
0000
1000
0100
0010
0000
,
0110
0000
0010
0000
0001
0100
0010
0010
,
0100
0000
0001
0100
0010
0000
1000
0100
,
0010
0000
0100
0000
1000
0001
1000
0000
,
0002
0000
0100
0000
1000
0000
0103
0001
,
2000
0000
0100
0000
0001
0000
3100
1000
,
0020
0000
0130
0000
0001
0100
0001
0000
,
0010
0000
0001
0000
1000
0100
1000
0000
,
0020
0000
0100
0000
1000
0000
0130
0001
,
0200
0000
0010
0000
0001
0000
0310
1000
,
0100
0000
1000
0100
0010
0000
0001
0010
,
0100
0000
0010
0000
0100
0010
0100
0010
,
0100
0000
1000
0001
1000
0000
0001
0000
,
2002
0000
0000
0000
,
0000
0000
0000
0000
,
3003
0000
0000
0000
;

//--------------- dance-single - 8Chasey ----------------
#NOTES:
     dance-single:
     8Chasey:
     Hard:
     6:
     0,0,0,0,0:
0000
0000
0000
0000
,
0000
0000
0000
0000
,
0000
0000
0000
0000
,
0000
0000
0000
0000
,
1001
0000
1000
1000
0020
0000
1030
0100
,
2000
0000
0000
0000
3001
0000
0100
0001
0100
0000
0010
0000
0100
0000
0000
0000
,
0110
0000
0010
1000
0020
0000
1030
0100
,
2000
0000
0000
0000
3001
0000
0010
0001
0010
0000
0100
0000
0010
0000
0000
0000
,
0011
0000
0001
0001
0200
0000
0310
1000
,
0020
0000
0000
0000
1030
0000
0100
1000
0100
0000
1000
0000
0010
0000
1000
0000
,
1020
0000
0000
0000
1030
0000
0000
1000
0001
0000
1000
0000
0001
0000
0000
0000
,
0201
0000
0000
0000
0301
0000
0000
0001
1000
0000
0001
0000
1000
0000
0000
0000
,
1001
0000
0001
1000
0001
0001
0100
0010
,
0200
0000
0000
0000
0310
0000
0100
0010
0100
0000
0001
0000
0100
0000
0010
0000
,
0110
0000
0010
1000
0100
0100
1000
0001
,
0200
0000
0000
0000
0301
0000
0010
0001
0010
0000
0001
0000
1000
0000
0010
0000
,
1010
0000
1000
0001
0010
0010
0001
0010
,
0200
0000
0000
0000
1300
0000
0100
1000
0100
0000
1000
0000
0001
0000
0100
0000
,
0020
0100
0130
0010
,
0200
0010
0310
1001
,
0201
0001
0310
0000
1000
0010
1000
0100
,
1200
0000
1000
0000
0310
0000
0000
0000
0001
0000
1000
0000
0001
0000
1000
0100
,
1000
0100
0010
0000
0001
0100
0010
0000
,
0100
0100
0010
0010
1000
0001
1000
0001
,
1020
1000
0130
0000
0001
0100
0001
0010
,
0021
0000
0001
0000
0130
0000
0000
0000
1000
0000
0010
0000
1000
0000
0001
1000
,
0001
0100
0010
0000
1000
0100
0010
0000
,
0001
0001
1000
1000
0010
0100
0010
0100
,
0001
0010
0001
0000
1000
0010
1000
0000
,
2002
0000
0000
3003
,
1001
0000
0001
0010
0001
0001
0200
0000
,
0310
0000
1000
0000
0010
0000
1000
0001
1000
0000
0001
0000
0100
0000
0000
0000
,
0110
0000
0010
1000
0100
0100
2000
0000
,
3001
0000
0100
0000
0001
0000
0010
0001
0010
0000
0100
0000
1000
0000
0000
0000
,
1100
0000
1000
0001
0010
0010
0002
0000
,
0013
0000
0100
0000
0010
0000
0001
0010
0001
0000
0100
0000
0100
0000
0001
0000
,
0201
0000
0310
1000
0001
1000
0100
1000
,
1200
0000
0000
0000
0310
0000
0001
0000
1000
0000
0001
0000
0100
0010
0100
0000
,
0002
0000
0010
0013
0001
0100
0001
1000
,
1100
0000
0000
0000
0010
0000
0100
0010
0100
0000
0001
0000
0100
0000
0010
0000
,
2000
0000
0010
3010
1000
0100
1000
0001
,
0101
0000
0000
0000
0010
0000
0001
1000
0001
0000
0001
0000
1000
0000
0010
0000
,
2010
0000
0100
3100
1000
0100
1000
0001
,
0020
0000
0001
0000
0031
0000
0100
0001
0100
0000
0001
0000
1000
0000
1000
0000
,
0002
1000
1003
0001
,
2000
0001
3001
0110
,
1001
0001
1000
0000
0010
1000
0001
0100
,
0110
0000
0010
0000
0100
0000
0000
0000
0001
0000
0010
0000
0100
0000
1000
0100
,
1000
0010
0100
0000
0001
0010
0100
0000
,
1000
0000
0010
0000
1000
0000
0001
0000
0010
0000
0001
0000
0100
0000
0010
0100
,
0010
1000
1100
0000
1000
1000
0001
0001
,
0010
0000
0001
0000
0101
0000
0000
0000
0001
0000
0001
0000
1000
0000
0001
1000
,
0001
0010
0100
0000
1000
0010
0100
0000
,
0001
0100
0010
1000
0100
0010
0200
0000
,
0310
0001
0100
0000
0010
1000
0100
0000
,
0210
0000
0000
0000
0310
0000
0000
0000
0100
0010
0000
0100
0010
0000
0100
0000
,
1000
1000
0010
1000
0001
0001
0100
0001
,
0010
0100
0010
0000
0110
0000
1001
0000
,
1000
1000
0100
1000
0001
0001
0100
0001
,
1001
0000
0000
0000
1000
0000
0001
0010
0001
0000
1000
0000
0010
0000
1000
0000
,
0010
0010
1000
0010
0100
0100
0001
0100
,
0010
0100
0010
0000
1010
0000
0011
0000
,
1001
0000
1000
0100
0001
0100
1000
0020
,
1000
0000
1030
0000
0010
0000
0100
0000
0001
0100
0001
0000
1000
0000
0001
0000
,
1001
1000
0010
1000
0002
0000
0100
0203
,
0000
0301
0010
0001
2000
0000
0100
3200
,
0000
1300
0001
0100
0010
0100
0010
0000
,
0110
0000
1001
0000
1000
0001
0100
0000
,
0110
0010
1000
0010
0200
0000
0001
0302
,
0000
0013
0001
0010
0200
0000
1000
2300
,
0000
3001
0100
0001
1000
0100
1000
0000
,
1010
0000
0101
0000
0100
0001
0010
0000
,
0011
0000
1100
0000
0100
1000
0010
0000
,
2010
0010
0001
3001
0102
0100
1000
1003
,
2200
0300
0020
3030
,
0202
0300
0020
0033
,
0220
0030
2000
3300
,
2002
3000
0020
0033
,
0110
0000
0100
1000
0020
0000
0130
0001
,
0100
0000
0010
0000
1000
0000
0010
1000
0010
0000
1000
0000
0001
0000
0000
0000
,
1001
0000
1000
0001
0020
0000
0031
0100
,
0100
0000
0001
0000
0010
0000
0100
0010
0100
0000
1000
0000
0001
0000
0000
0000
,
0012
0000
0103
0100
0020
0000
1030
0100
,
2100
0000
0000
0000
3001
0000
0010
0001
0010
0000
0001
0000
0100
0000
0010
0000
,
2002
0000
0000
0000
,
0000
0000
0000
0000
0000
0000
0000
3003
,
0110
0100
0101
0000
0001
0010
0001
1000
,
1001
0000
1000
0000
1100
0000
0000
0000
1000
0000
0010
0000
1000
0000
0001
0010
,
0002
0010
0013
0001
2000
0100
3100
1000
,
0010
0000
0100
0000
0010
0000
1000
0100
1000
0000
1000
0000
0001
0000
0100
0000
,
0110
0001
1000
0000
0001
0010
0001
1000
,
1001
0000
1000
0000
0001
0000
0000
0000
1000
0000
0010
0000
1000
0000
0001
0100
,
0002
0100
0103
0001
2000
0010
3010
1000
,
0020
0000
0100
0000
0130
0000
0000
0000
0010
0000
1000
0000
0010
0100
0010
0100
,
0020
0130
0020
0130
0002
0103
0002
0103
,
0020
1030
0020
1030
0200
1300
0200
1300
,
1100
1000
0010
0000
0101
0001
0010
0000
,
0210
0000
0010
0000
0310
0001
1000
0010
,
0200
0310
0200
0310
2000
3010
2000
3010
,
0200
0301
0200
0301
0020
0031
0020
0031
,
0101
0001
1000
0000
1100
1000
0001
0000
,
0010
0010
0001
0001
1000
1000
1001
0000
,
0101
0001
1000
0000
1100
1000
0001
0100
,
0220
0000
0000
0000
,
0000
0000
0000
0000
,
0330
0000
0000
0000
;

//--------------- dance-double - 8Chasey ----------------
#NOTES:
     dance-double:
     8Chasey:
     Easy:
     1:
     0,0,0,0,0:
00000000
00000000
00000000
00000000
,
00000000
00000000
00000000
00000000
,
00000000
00000000
00000000
00000000
,
00000000
00000000
00000000
00000000
,
00001000
00000000
00010000
00000000
,
00001000
00000000
00001000
00000000
,
00010000
00000000
00001000
00000000
,
00010000
00000000
00010000
00000000
,
00001000
00000000
00010000
00000000
,
00001000
00000000
00010000
00000000
,
00002000
00000000
00003000
00000000
,
00020000
00000000
00030000
00000000
,
00000100
00000000
00000010
00000000
,
00000100
00000000
00000100
00000000
,
00000010
00000000
00000100
00000000
,
00000010
00000000
00000010
00000000
,
00000001
00000000
00000001
00000000
,
00001000
00000000
00001000
00000000
,
00000200
00000000
00000000
00000000
,
00000300
00000000
00000000
00000000
,
00010000
00000000
00010000
00000000
,
00001000
00000000
00001000
00001000
,
00001000
00000000
00010000
00000000
,
00001000
00000000
00000000
00000000
,
00100000
00000000
00100000
00000000
,
01000000
00000000
01000000
01000000
,
01000000
00000000
00100000
00000000
,
01000000
00000000
00000000
00000000
,
00100000
00000000
00100000
00000000
,
00200000
00000000
00300000
00000000
,
00001000
00000000
00010000
00000000
,
00001000
00000000
00001000
00000000
,
00010000
00000000
00001000
00000000
,
00010000
00000000
00010000
00000000
,
00001000
00000000
00010000
00000000
,
00001000
00000000
00001000
00000000
,
00020000
00000000
00030000
00000000
,
00002000
00000000
00003000
00000000
,
00100000
00000000
01000000
00000000
,
00100000
00000000
00100000
00000000
,
01000000
00000000
00100000
00000000
,
01000000
00000000
01000000
00000000
,
10000000
00000000
10000000
00000000
,
00010000
00000000
00010000
00000000
,
02000000
00000000
00000000
00000000
,
03000000
00000000
00000000
00000000
,
00001000
00000000
00001000
00000000
,
00010000
00000000
00010000
00010000
,
00010000
00000000
00001000
00000000
,
00010000
00000000
00000000
00000000
,
00000100
00000000
00000100
00000000
,
00000010
00000000
00000010
00000010
,
00000010
00000000
00000100
00000000
,
00000010
00000000
00000000
00000000
,
00000100
00000000
00000100
00000000
,
00000200
00000000
00000300
00000000
,
00001000
00000000
00001000
00000000
,
00000001
00000000
00000000
00000000
,
00000001
00000000
00000001
00000000
,
00001000
00000000
00000000
00000000
,
00000100
00000000
00000100
00000000
,
00010000
00000000
00010000
00000000
,
00001000
00000000
00001000
00000000
,
01000000
00000000
01000000
00000000
,
00200000
00000000
00300000
00000000
,
00200000
00000000
00300000
00000000
,
10000000
00000000
00010000
00000000
,
10000000
10000000
10000000
00000000
,
02000000
00000000
03000000
00000000
,
02000000
00000000
03000000
00000000
,
00010000
00000000
00001000
00000000
,
00010000
00010000
00010000
00000000
,
00001000
00001000
00001000
00000000
,
00020000
00000000
00030000
00000000
,
00000020
00000000
00000030
00000000
,
00000020
00000000
00000030
00000000
,
00000200
00000000
00000300
00000000
,
00000200
00000000
00000300
00000000
,
00000001
00000000
00001000
00000000
,
00000002
00000000
00000003
00000000
,
00001000
00000000
00000001
00000000
,
00002000
00000000
00003000
00000000
,
00000200
00000000
00000300
00000000
,
00000020
00000000
00000030
00000000
,
00000200
00000000
00000000
00000000
,
00000300
00000000
00000000
00000000
,
00010000
00000000
00001000
00000000
,
00010000
00000000
00001000
00001000
,
00001000
00000000
00010000
00000000
,
00001000
00000000
00000000
00000000
,
00100000
00000000
01000000
00000000
,
00100000
00000000
01000000
01000000
,
01000000
00000000
00100000
00000000
,
00010000
00000000
10000000
00000000
,
00010000
00000000
00010000
00000000
,
10000000
00000000
10000000
10000000
,
10000000
00000000
00010000
00010000
,
00010000
00000000
10000000
00000000
,
01000000
00000000
00100000
00100000
,
00100000
00000000
01000000
01000000
,
01000000
00000000
00100000
00000000
,
00001000
00000000
00001000
00000000
,
00010000
00000000
00010000
00000000
,
00002000
00000000
00000000
00000000
,
00000000
00000000
00000000
00000000
,
00003000
00000000
00000000
00000000
;
