#TITLE:(go build a) magnet;
#SUBTITLE:;
#ARTIST:Bill Wurtz;
#TITLETRANSLIT:;
#SUBTITLETRANSLIT:;
#ARTISTTRANSLIT:;
#GENRE:;
#CREDIT:;
#MUSIC:(go build a) magnet.ogg;
#BANNER:magnet.png;
#BACKGROUND:;
#CDTITLE:cdtitle.png;
#SAMPLESTART:13.18;
#SAMPLELENGTH:12;
#SELECTABLE:YES;
#OFFSET:-0.140;
#BPMS:0.000=130.000
,4.000=132.000
,10.000=120.000
,16.000=140.000
,20.000=32.000
,24.000=127.000
,39.000=129.000
;
#STOPS:;
#BGCHANGES:-0.125=magnet.avi=1.000=0=0=0=StretchNoLoop====,
45.000=magnet-bg.png=1.000=0=0=1,
99999.000=-nosongbg-=1.000=0=0=0=StretchNoLoop====
;
#FGCHANGES:;

//--------------- dance-single - ----------------
#NOTES:
     dance-single:
     :
     Beginner:
     1:
     0,0,0,0,0:
0000
0000
0000
0000
,
0001
0000
0001
0000
,
0001
0000
0000
0000
,
1000
0000
1000
0000
,
1000
0000
0000
0000
,
0100
0000
0100
0000
,
0010
0010
0010
0000
,
0100
0100
0100
0000
,
0001
0000
1000
0000
,
0010
0000
1001
1001
;

//--------------- dance-single - ----------------
#NOTES:
     dance-single:
     :
     Easy:
     2:
     0,0,0,0,0:
0000
0000
0000
0000
,
1001
0000
1000
0000
,
0001
0000
0000
0000
,
0010
0010
0010
0000
,
0100
1000
0001
0010
,
0100
0000
0100
0000
,
1000
1000
0001
0000
,
0001
0001
1000
0000
,
0010
0000
0010
0000
,
1000
0001
0010
1001
;

//--------------- dance-single - ----------------
#NOTES:
     dance-single:
     :
     Medium:
     4:
     0,0,0,0,0:
0000
0000
0000
0000
,
0001
1000
0001
1000
,
0110
0000
0000
1000
0100
0000
0001
0000
,
0010
0000
0100
0010
0100
0000
0000
0000
,
1000
0010
0001
0010
,
0100
0000
0100
0000
,
1000
0001
0001
0110
,
1000
0001
0001
1000
,
0001
1000
1000
0110
,
0000
1000
0100
0010
0001
0100
0110
0000
;

//--------------- dance-single - ----------------
#NOTES:
     dance-single:
     :
     Hard:
     6:
     0,0,0,0,0:
0000
0000
0000
0000
,
0001
0001
0001
0000
1000
0100
0010
0001
,
1000
0110
0001
1001
,
0001
0000
0000
1001
0000
0000
1000
0000
0010
0000
0000
0000
0000
0000
1001
0000
,
0000
1000
0001
0010
0100
1000
0001
0000
,
0200
0000
0000
0300
0200
0000
0000
0300
,
0001
0010
0001
0100
1000
0100
0010
0000
,
1000
0001
0010
0001
1000
0100
0010
0000
,
1000
0010
0100
0001
1000
0100
0001
0010
,
0000
0001
0100
0001
0100
0000
0000
0010
1000
0010
1000
0000
0220
0000
0000
0000
,
0000
0000
0000
0000
,
0000
0000
0000
0000
,
0000
0000
0330
0000
;

//--------------- dance-solo - ----------------
#NOTES:
     dance-solo:
     :
     Beginner:
     1:
     0,0,0,0,0:
000000
000000
000000
000000
,
000001
000000
000000
000000
,
100001
000000
000000
000000
,
100000
000000
000000
000000
,
010010
000000
000000
000000
,
000100
000000
000100
000000
,
010000
000000
000000
000000
,
000010
000000
000000
000000
,
010010
000000
000000
000000
,
000000
000000
000000
100001
;
