#TITLE:(fly higher than) the stars;
#SUBTITLE:;
#ARTIST:Sugi & Reo;
#TITLETRANSLIT:;
#SUBTITLETRANSLIT:;
#ARTISTTRANSLIT:;
#GENRE:Neo-Aco;
#CREDIT:Vivaldi Amuro (Battoken) Originals - Pop'nMusic 2 Mix;
#MUSIC:(fly higher than) the stars.mp3;
#BANNER:(fly higher than) the stars-bn.png;
#BACKGROUND:(fly higher than) the stars-bg.png;
#CDTITLE:;
#SAMPLESTART:56.890;
#SAMPLELENGTH:12.000;
#SELECTABLE:YES;
#OFFSET:-0.820;
#BPMS:0.000=153.990;
#STOPS:;
#BGCHANGES:;
#FGCHANGES:;

//--------------- dance-single - 8Chasey ----------------
#NOTES:
     dance-single:
     8Chasey:
     Beginner:
     1:
     0,0,0,0,0:
0000
0000
0000
0000
,
0000
0000
0000
0000
,
0000
0000
0000
0000
,
0000
0000
0000
0000
,
1000
0000
0000
0000
,
0001
0000
0000
0000
,
0100
0000
0000
0000
,
0100
0100
0100
0000
,
1001
0000
0000
0000
,
0010
0000
0000
0000
,
0100
0000
0000
0000
,
0010
0000
0000
0000
,
1000
0000
0000
0001
,
0001
0000
0000
1000
,
1000
0000
0000
0010
,
0010
0000
0100
0000
,
0010
0000
0000
0000
,
1000
0000
0001
0000
,
1000
0000
0000
0000
,
0001
0000
1000
0000
,
0001
0000
0000
1000
,
1000
0000
0000
0001
,
0001
0000
0000
0100
,
0100
0000
0010
0000
,
0100
0000
0000
0000
,
0001
0000
1000
0000
,
0010
0000
0000
0000
,
0100
0100
0100
0000
,
1001
0000
0000
0000
,
1000
0000
0000
0000
,
0010
0000
0000
0000
,
0001
0000
0000
0000
,
1001
0000
0000
0000
,
0100
0000
0000
0010
,
0010
0000
0010
0000
,
0100
0100
0100
0100
,
0000
1001
0000
0000
,
0001
0000
1000
0000
,
0000
1001
0000
0000
,
1000
0000
0001
0000
,
1000
1000
1000
0000
,
0001
0001
0001
0000
,
1000
0000
0001
0000
,
0010
0010
0010
0000
,
0100
0000
0000
0000
,
0001
0000
0001
0000
,
0001
0000
0000
0000
,
1000
0000
1000
0000
,
1000
0000
0000
0000
,
0010
0000
0000
0000
,
0100
0000
0010
0000
,
1000
1000
1000
1000
;

//--------------- dance-single - 8Chasey ----------------
#NOTES:
     dance-single:
     8Chasey:
     Easy:
     3:
     0,0,0,0,0:
0000
0000
0000
0000
,
0000
0000
0000
0000
,
0000
0000
0000
0000
,
0000
0000
0000
0000
,
0001
0001
0100
0000
,
0001
1000
0001
0000
,
1000
0000
0010
0000
0100
0000
0000
0010
,
0000
0010
0000
0010
0000
0010
0000
0000
,
1001
0000
0100
0000
,
0001
0000
1000
0000
,
0001
0000
0000
0000
,
1000
0000
0001
0000
,
1000
0000
0000
0010
,
1000
0000
0000
0010
,
0001
0000
0000
0100
,
0010
0000
0100
0001
,
1000
0000
0010
0000
,
0001
0000
0010
0000
,
0100
0001
1000
0000
,
0010
0010
0010
0000
,
1000
0000
0000
0100
,
1000
0000
0000
0001
,
0100
0000
0000
0100
,
0001
0000
0010
0100
,
1000
0000
0010
0000
,
0001
0000
0100
0000
,
0001
0001
0010
0000
,
0001
1000
1001
0000
,
1000
0000
0000
0010
,
0100
0000
0000
0000
,
0001
0000
0000
0010
,
0100
0000
0000
0000
,
1001
0000
0000
0010
,
0110
0000
0000
1001
,
0001
0000
1000
0000
,
0001
1000
1001
1001
,
0000
0110
0000
0000
,
0100
0000
0001
0000
,
0100
0000
0010
0000
,
1000
0000
0010
0000
,
0100
0100
0100
0000
,
0001
0000
1000
0000
,
0100
0100
0100
0000
,
0010
0000
0000
0000
,
0010
0000
0001
1000
,
0001
0000
1000
0010
,
0100
0000
1000
0001
,
1000
0000
0100
0000
,
0010
0000
0100
1000
,
0100
0000
0001
0000
,
1001
0000
0000
0000
0100
0000
0000
0001
,
0000
0010
0000
0010
0000
0010
0000
0100
;

//--------------- dance-single - 8Chasey ----------------
#NOTES:
     dance-single:
     8Chasey:
     Medium:
     5:
     0,0,0,0,0:
0000
0000
0000
0000
,
0000
0000
0000
0000
,
0000
0000
0000
0000
,
0000
0000
0000
0000
,
0001
1000
1001
0000
,
0100
0010
1010
0000
,
0011
0000
0010
0000
0100
0000
0000
0001
,
0000
1000
0000
0001
0000
1000
0010
0000
,
0110
0000
0001
0000
0000
0100
0001
0000
,
0010
0100
1000
0010
,
0010
0000
1000
0000
0000
0100
1000
0000
,
0001
1000
0010
1001
,
0100
0000
0001
0100
,
0010
0000
1000
0010
,
1000
0000
0001
0100
,
0001
0000
1000
0010
,
0110
0000
0001
1000
,
1001
0001
1000
0010
,
1000
0100
1000
0000
0010
0000
1000
0000
,
0001
0100
0001
0000
0010
0000
0001
0000
,
1000
0000
0010
0110
,
0100
0000
0001
1001
,
0010
0000
0100
1100
,
1000
0000
0010
0101
,
1001
1000
0010
0100
,
0100
0001
1000
0100
,
0010
1000
0010
0000
0100
0001
0100
0010
,
0000
1010
0000
0011
0000
1001
0000
0000
,
0101
0000
0001
0010
,
1100
0000
1000
0010
,
0011
0000
0001
0100
,
1010
0000
1000
0100
,
1001
0000
0100
0010
,
0110
0000
0001
1001
,
0010
0001
0010
0000
0001
1000
0001
0000
,
1000
0010
0100
0010
0100
0000
0100
0000
,
0010
1001
1000
0010
,
0001
0000
0100
0000
0010
0100
0010
0000
,
1000
1001
0001
0100
,
0001
0010
0001
0000
1000
0000
0010
0000
,
0100
0000
0001
0001
0100
0000
0100
0000
,
0010
0000
1000
1000
0010
0000
0010
0000
,
1001
0000
0000
0000
0001
1000
0001
1000
,
0000
1100
0000
0011
0000
0110
0000
0000
,
0100
0000
1000
0000
0001
0000
0000
0100
,
0001
0100
0000
0010
0000
0010
0100
0000
,
0001
0000
0100
0000
0010
1000
0000
0100
,
0000
1000
0010
1000
0000
0001
0100
0000
,
1001
0001
1000
0100
,
0110
0010
0100
1000
,
0010
0000
1000
0000
0001
0000
0100
0001
,
0000
1000
0000
0100
0000
0010
0000
0100
;

//--------------- dance-single - 8Chasey ----------------
#NOTES:
     dance-single:
     8Chasey:
     Hard:
     7:
     0,0,0,0,0:
0000
0000
0000
0000
,
0000
0000
0000
0000
,
0000
0000
0000
0000
,
0000
0000
0000
0000
,
0001
0010
0001
0000
1000
0001
0000
1001
,
1000
0010
1000
0000
0010
0100
0000
0110
,
0100
0001
1000
0000
0100
1000
0001
0010
,
0000
0101
0000
1100
0000
1001
0100
0000
,
0010
1000
0001
0000
0100
0000
1001
0000
,
0010
0001
1000
0000
0100
0000
1001
0000
,
0100
0001
0100
0000
0010
1000
0100
0000
,
1000
0010
1000
0001
0010
0001
0100
0000
,
0001
0000
0000
0001
0010
0000
0011
0000
,
1000
0000
0000
0010
1000
0000
1010
0000
,
0100
0000
0000
0010
0100
0000
0110
0000
,
0001
0000
0000
1000
0001
0000
1001
0000
,
0100
0000
0001
1000
0000
1000
0000
0110
,
0000
0100
0001
0000
0101
0000
1100
0000
,
1000
0010
0100
0000
1000
0100
0001
0010
,
0000
0010
0001
0000
1000
0010
0110
0000
,
1000
0000
0000
0010
1000
0000
1010
0000
,
0001
0000
0000
0010
0001
0000
0011
0000
,
1000
0000
0000
0100
1000
0000
1001
0000
,
0010
0000
0000
0001
0010
0000
0110
0000
,
1001
0000
1000
0010
0000
0010
0000
0101
,
0000
0001
1000
0000
1100
0000
0110
0000
,
0010
0001
0100
0000
0010
1000
0001
1000
,
0000
1001
0000
0101
0000
1010
1000
0010
,
0110
0000
0100
0001
1000
0000
0100
0000
,
1001
0000
0100
0001
1000
0000
0100
0000
,
0011
0000
0100
0001
1000
0000
0100
0000
,
1010
0000
0100
0001
1000
0000
0100
0000
,
1100
0000
0100
1000
0001
0000
0100
0000
,
0101
0000
0100
0001
1000
0000
0100
0000
,
1000
0010
0100
0000
0001
0010
0001
0000
,
1000
0010
0010
0010
0010
0100
0010
0100
,
0001
1000
1001
0000
1000
0010
1000
0001
,
0000
0100
0001
0000
0010
0100
0010
0000
,
0110
0000
1001
0000
1000
0010
0010
1000
,
0000
0001
0100
0000
0010
1000
0001
0000
,
0100
0000
0001
0000
0010
0001
1000
0000
,
0100
0000
1000
0000
0010
1000
0001
0000
,
0100
0001
0010
0000
0100
1000
0010
1010
,
0000
0011
0000
1100
0000
0101
0000
0100
,
0010
0000
1000
0000
0001
0010
0010
0001
,
0000
0101
0000
1100
0000
1000
0010
0000
,
0100
0000
1001
0000
0100
0001
1000
0010
,
0000
1000
0010
1000
1000
0001
0010
0000
,
0011
0000
1100
0000
1000
0001
1000
0010
,
0000
0000
1010
0000
0100
0001
1000
0100
,
0000
1000
0010
0000
1000
0001
0010
0110
,
0000
1100
0000
0011
0000
1001
0000
0100
;

//--------------- dance-single - Vivaldi ----------------
#NOTES:
     dance-single:
     Vivaldi:
     Challenge:
     10:
     0,0,0,0,0:
0000
0000
0000
0000
,
0000
0000
0000
0000
,
1010
0000
1001
0000
1100
0000
0000
0100
1000
0000
0001
0000
0010
0000
0210
0000
,
0000
0310
0000
1000
0000
0001
1001
0000
,
1100
0000
0000
0000
1000
0000
0000
0100
1000
0000
0001
0000
0010
0000
1100
0000
,
0000
0000
0100
0000
1000
0000
0000
0010
1000
0000
0101
0000
1000
0000
1100
0000
,
0000
0000
0100
0000
0100
0000
0000
0001
1000
0000
0100
0000
1001
0000
1001
0000
,
0010
1100
0001
0101
0010
0110
1000
0100
,
1010
0000
0100
0110
0000
0100
1100
0000
,
0001
0000
0001
1001
0000
0001
0010
0100
,
1100
0000
0001
1001
0000
0001
0100
0010
,
1010
1000
0001
0000
0001
1000
1000
0100
,
1100
0000
0000
0001
1001
0000
1100
0000
,
1001
0001
0010
0001
0011
0000
0100
0000
,
0001
0010
0001
1000
0010
0100
0000
0001
,
0000
0001
0001
0000
0001
0010
0100
1000
,
0010
0000
1000
0000
1001
0000
0100
0000
0010
0000
1000
0000
1001
0000
0000
1000
,
0001
1000
0110
0100
0001
1000
0210
0000
,
1000
0000
0010
0000
1000
1300
0001
1001
,
0000
1001
1001
0000
0001
0010
0100
1000
,
0002
0000
0000
0100
0103
0000
0110
0000
,
0020
0000
0000
1000
1030
0000
1100
0000
,
0200
0000
0000
1000
1300
0000
0110
0000
,
1001
0000
0000
0001
1000
0110
0101
0001
,
1000
0000
1000
0000
0011
0000
0100
0000
0010
0000
1000
0000
1010
0000
0000
1000
,
0001
0100
1001
1000
0010
0100
0101
0000
,
0001
0000
1000
0001
1000
0011
0110
1100
,
0000
0000
0010
0000
0000
0000
1000
0000
0001
0000
1000
0001
1000
0001
1000
0001
,
1000
0010
0100
0010
0100
0000
1002
1000
,
0203
0000
0000
1000
1300
0100
0010
0001
,
0011
0010
0100
2000
0000
3001
1001
0000
,
0110
0000
0110
0000
0001
1000
0200
0000
,
0010
0000
0000
0010
0310
0000
0011
0000
,
1200
0000
0000
1000
1300
0000
0001
1000
,
0010
1000
0010
1000
0010
0000
0010
0001
0010
0001
0010
0000
1100
0000
1001
0000
,
0000
1001
1001
0110
1001
1001
1001
0100
,
0001
0000
0010
1000
0100
0000
1100
0000
0000
0000
1100
0010
0100
0000
0011
0000
,
0000
0000
0011
1000
0010
0000
1100
0000
0000
0000
1100
0010
0001
0000
1010
0000
,
0000
0000
1001
1000
0001
0000
1010
0000
0000
0000
0101
0001
0100
0000
0110
0000
,
0000
0000
1001
0100
1000
0000
1001
0000
0000
0000
0110
0000
0001
1000
0001
1000
,
0002
0000
0000
0000
1000
0000
1003
0000
1001
0000
0000
0000
0001
1000
0001
1000
,
0002
0000
0000
0000
1000
0000
1000
0000
1003
0000
0010
0000
0100
0010
0000
0010
,
0100
0000
0100
0010
0100
0000
0001
0000
1000
0000
0100
0000
0010
0000
0001
0010
,
0001
0000
0100
1000
0100
0000
1000
0000
0001
0000
1000
0000
0001
0000
0000
0000
,
1001
0000
1000
0000
0001
0000
0000
1000
0001
0000
1000
0000
0000
0000
0110
0000
,
0000
1001
0000
0110
0000
1002
0000
0000
,
1000
0000
0000
0000
0000
0000
0003
1000
0001
0000
1000
0000
0000
0000
1001
0000
,
0000
0110
0000
1001
0000
0001
0010
0100
,
2000
0000
0000
0000
3000
0000
0000
1000
0100
0000
1100
0000
0000
0000
1100
0000
,
0000
0000
1000
0000
0100
0000
0000
0010
0001
0000
0011
0000
0000
0000
0011
0000
,
0000
0000
0001
0000
0010
0000
0000
0010
0100
0000
0110
0000
0000
0000
1001
0000
,
0000
0110
0001
0100
1001
0010
1001
0200
,
0000
0000
0000
0000
,
0000
0000
0000
0000
0000
0000
0000
0300
;

//--------------- dance-single - Failsafe Maniac ----------------
#NOTES:
     dance-single:
     Failsafe Maniac:
     Edit:
     8:
     0,0,0,0,0:
1002
1000
1003
0000
1000
0001
0000
0100
,
0000
0001
0000
0100
0000
1000
0000
0000
,
1020
1000
1030
0000
1000
0100
0000
0001
,
0000
0001
0000
0100
0000
0010
0000
0000
,
2000
0000
0000
0000
0010
0001
0000
0001
,
0000
0000
0000
3000
0000
0000
0100
0000
0001
0000
0100
0000
0000
0000
0002
0000
,
0000
0000
0003
0000
0000
0000
0010
0000
0100
0000
0010
0000
0000
0000
0000
0020
,
0000
0000
1000
0000
0000
0030
0100
0000
0000
0000
0002
0000
0100
0000
0100
0003
,
0100
0000
1000
0100
0000
0001
0100
0000
,
1000
0000
0010
1000
0000
0100
0001
0100
,
0100
0000
1000
0100
0000
0010
1000
0000
,
0001
0000
0100
0001
0000
0100
0100
0100
,
0001
0000
0000
1000
1010
0000
0100
0000
,
0001
0100
0001
0100
0001
0000
1100
0000
,
0010
0000
1000
0010
1000
0010
0000
0002
,
0000
0000
0000
0003
0010
0010
0100
0100
,
0200
0000
0001
0000
0300
0100
1100
0000
,
0100
0000
0101
0000
0000
0010
1010
0000
,
0100
0010
0001
0100
1000
0010
1000
0100
,
0000
1000
0100
0000
1000
0100
0001
0001
,
0100
0000
0100
1000
1000
0000
0110
0001
,
0010
0000
0100
0001
0100
0000
0110
0000
,
1000
0010
1000
0010
0010
0000
0110
0000
,
0001
0000
0101
0000
0100
0100
1000
1000
,
0020
0100
0030
0101
,
0001
0000
0101
0001
0100
0000
1000
0000
,
1010
0000
0000
0100
0001
0100
0000
0100
,
0000
1000
0000
0010
0000
0001
0100
0001
,
0100
0000
0000
0000
0000
0000
0001
0100
0001
0000
0100
0000
1000
0000
0010
0000
,
1000
0000
0000
0000
0000
0000
0010
1000
0010
0000
0100
0000
0010
0000
0000
0000
,
0100
0000
0000
0000
0000
0000
0001
0100
0001
0000
0100
0000
1000
0000
0010
0000
,
1000
0000
0000
0000
0000
0000
0010
1000
0010
0000
0000
0000
0010
0000
0000
0000
,
0100
0000
0000
0000
0000
0000
1000
0100
1000
0000
0100
0000
1000
0000
1000
0000
,
0100
0000
0000
0100
1000
0000
0001
0000
,
0001
0100
0001
0100
0000
0000
0000
0000
0100
1000
0100
1000
0000
0000
1010
0000
,
0000
1001
1001
0110
0110
1001
0110
1001
,
0100
0001
0100
1000
0000
1000
0010
0001
,
0000
0001
0100
1000
0000
1000
0010
0100
,
0000
0100
0010
1000
0000
0100
0001
0010
,
0000
0100
0001
0010
0000
0010
0001
0100
,
0000
0010
0001
0100
0000
0100
1000
0010
,
0000
0010
1000
0100
0000
0001
0010
0100
,
0000
0001
0100
1000
0010
0001
0100
0101
,
0000
0100
1000
0010
0000
0010
0000
0000
,
0010
0000
0000
0000
0000
0000
1000
0100
0000
0000
0001
0000
0000
0000
0100
0000
,
0000
1010
0000
0100
0000
0001
0000
0000
,
0100
0000
0000
0000
0000
0000
0001
0100
0000
0000
0100
0000
0000
0000
1000
0000
,
0000
1010
0000
0100
0000
0001
0000
0000
,
0100
0000
0000
0000
0000
0000
0001
0100
0000
0000
0101
0000
0000
0000
0101
0000
,
0000
0000
0000
0000
0000
0000
0100
1000
0000
0000
1100
0000
0000
0000
1100
0000
,
0000
0000
0000
0000
0000
0000
1000
0010
0000
0000
1010
0000
0000
0000
1010
0000
,
0000
1010
0000
1010
1000
0001
0010
0002
,
0000
0000
0000
0003
0000
0000
0000
0000
;

//--------------- dance-double - 8Chasey - 2025 chart ----------------
#NOTES:
     dance-double:
     8Chasey - 2025 chart:
     Easy:
     3:
     0,0,0,0,0:
00000000
00000000
00000000
00000000
,
00000000
00000000
00000000
00000000
,
00000000
00000000
00000000
00000000
,
00000000
00000000
00000000
00000000
,
00100000
00001000
00100000
00000000
,
00000100
00001000
00000100
00000000
,
00010000
00000000
00001000
00000000
00010000
00000000
00000000
00000010
,
00000000
00000010
00000000
00000010
00000000
00000010
00000000
00000000
,
00001001
00000000
00000010
00000000
,
00010000
00000000
00001000
00000000
,
00100000
00000000
01000000
00000000
,
10000000
00010000
10000000
00010000
,
01000000
00000000
00000000
00100000
,
10000000
00000000
00000000
00010000
,
00100000
00000000
00000000
00001000
,
00010000
00000000
00000100
00001000
,
00000001
00000000
00000010
00000000
,
00001000
00000000
00010000
00000000
,
00001000
00100000
10000000
00000000
,
00100000
01000000
00100000
01000000
,
10000000
00000000
00000000
00001000
,
00010000
00000000
00000000
00000010
,
00000100
00000000
00000000
00010000
,
00001000
00000000
00000010
00000100
,
00000010
00000000
00010000
00000000
,
00001000
00000000
01000000
00000000
,
00001000
00100000
00001000
00000000
,
00010000
00001000
00011000
00000000
,
00100000
00000000
00000000
01000000
,
10000000
00000000
00000000
01000000
,
00010000
00000000
00000000
00001000
,
00000100
00000000
00000000
00000000
,
00001001
00000000
00000000
00000001
,
00000100
00000000
00000000
00011000
,
00010000
00000000
00001000
00000000
,
00010000
00001000
00011000
00011000
,
00000100
00000110
00000000
00000010
,
00000000
00000001
00000000
00001000
,
00000001
00001001
00000000
00010000
,
00000000
00001000
00000000
00100000
,
01000000
01000000
01000000
00000000
,
00100000
00001000
01000000
00000000
,
00010000
00000000
00010000
00000000
00010000
00000000
00000000
10000000
,
00000000
10000000
00000000
10000000
00000000
10000000
00000000
00000000
,
10010000
00000000
10000000
00010000
,
10000000
01000000
00010000
00000000
,
00011000
00000000
00001000
00000000
,
00000100
00000001
00000100
00000000
,
00001001
00000000
00000100
00010000
,
00001000
00000000
01000000
00010000
,
00100000
00000000
00000000
00000000
00001000
00000000
00000000
00010000
,
00000000
00000100
00000000
00000100
00000000
00000100
00000000
00000010
;

//--------------- dance-double - 8Chasey - 2025 chart ----------------
#NOTES:
     dance-double:
     8Chasey - 2025 chart:
     Medium:
     5:
     0,0,0,0,0:
00000000
00000000
00000000
00000000
,
00000000
00000000
00000000
00000000
,
00000000
00000000
00000000
00000000
,
00000000
00000000
00000000
00000000
,
00000001
00000000
00001000
00000000
00000100
00010000
00001000
00000000
,
00100000
00000000
01000000
00000000
10000000
00100000
01000000
00000000
,
00001000
00000000
00010000
00000000
00000010
00000100
00000000
00000001
,
00000000
00000001
00000000
00001000
00000000
00001000
00000000
00000000
,
00001001
00000000
00010000
00000000
00000000
00001000
00010000
00000000
,
00001000
00000000
00100000
00000000
00000000
01000000
00100000
00000000
,
01000000
00000000
10000000
00000000
00001000
00010000
00001000
00000000
,
00010000
00000100
00000010
00001001
,
00000010
00000000
00010000
00010010
,
00001000
00000000
00100000
00101000
,
01000000
00000000
00000100
00000110
,
00000010
00000000
00001000
00010000
,
00011000
00000000
00100000
01000000
,
10000000
10000000
00010000
10000000
,
00010000
00100000
00010000
00000000
10000000
00000000
00100000
00000000
,
10000000
01000000
10000000
00000000
00001000
00010000
00001000
00000000
,
00100000
00000000
01000000
10010000
,
01000000
00000000
00001000
00011000
,
00010000
00000000
00000010
00000110
,
00000100
00000000
00000001
00000101
,
00010100
00000000
00001000
00000000
00100000
00001000
00100000
00000000
,
00010000
10000000
01000000
00100000
,
00001000
00010000
00001000
00000000
01000000
00001000
00010000
00000100
,
00000000
00000110
00000000
00001001
00000000
00000110
00000000
00000000
,
00011000
00000000
00100000
01000000
,
10010000
00000000
00001000
00010000
,
00011000
00000000
00000100
00000010
,
00001001
00000000
00000010
00010000
,
00010100
00000000
00010000
00001000
,
00101000
00000000
00010000
10000000
,
01000000
10000000
01000000
00000000
00010000
00001000
00010000
00000000
,
00000010
00000100
00000010
00000100
00000010
00000000
00011000
00000000
,
00100000
10010000
01000000
00001000
,
00010000
00000000
00000010
00000000
00000100
00000010
00000100
00000000
,
00001000
00110000
00100000
00001000
,
01000000
00100000
01000000
00000000
00100000
00000000
10000000
00000000
,
01000000
00000000
10000000
10000000
00001000
00000000
00010000
00000000
,
00000100
00000000
00000001
00000001
00010000
00000000
00001000
00000000
,
00011000
00000000
00000000
00000000
00100000
01000000
00100000
01000000
,
00000000
10010000
00000000
00011000
00000000
00001001
00000000
00000000
,
00000010
00000000
00000100
00000000
00000010
00000000
00000000
00010000
,
00001000
00010000
00000000
00001000
00000000
00001000
01000000
00000000
,
00100000
00000000
10000000
00000000
00100000
01000000
00000000
00001000
,
00000000
00010000
00001000
00010000
00000000
00000100
00000010
00000000
,
00001001
00000001
00001000
00010000
,
00011000
00001000
00010000
10000000
,
10010000
00000000
01000000
00000000
00100000
00000000
10000000
00010000
,
00000000
00001000
00000000
00000001
00000000
00000100
00000000
00000010
;

//--------------- dance-double - 8Chasey - 2025 chart ----------------
#NOTES:
     dance-double:
     8Chasey - 2025 chart:
     Hard:
     7:
     0,0,0,0,0:
00000000
00000000
00000000
00000000
,
00000000
00000000
00000000
00000000
,
00002100
00000100
00003001
00000000
00000010
00000100
00000000
00001001
,
00000000
00000000
00000000
00001000
00000000
00000000
00000001
00000000
00000000
00000000
00000000
00000000
00000010
00000000
00000100
00000000
00000010
00000000
00000100
00000000
00000000
00000000
00000000
00000000
,
00010000
00001000
00010000
00000000
00001000
01000000
00000000
01100000
,
00000000
00100000
10000000
00000000
01000000
00100000
00000000
01100000
,
00000000
00010000
00001000
00000000
00010000
00000100
00000000
00000020
,
00000000
00000001
00000000
00000130
00000000
00002002
00000000
00003003
,
00000001
00000000
00000100
00000010
00000000
00000100
00000010
00000000
,
00001000
00000100
00010000
00000000
00001000
00100000
00001000
00100000
,
00001000
00000000
01000000
00100000
00000000
00100000
01000000
00000000
,
00010000
00100000
00010000
10000000
00100000
10000000
01000000
00000000
,
00200000
00000000
00000000
00301000
00010000
00000000
00011000
00000000
,
00000200
00000000
00000000
00001300
00000001
00000000
00000011
00000000
,
00000020
00000000
00000000
00000130
00000010
00000000
00000110
00000000
,
00000200
00000000
00000000
00010300
00001000
00010000
00011000
00000000
,
02000000
00000000
03010000
10000000
00000000
00100000
00000000
01100000
,
00000000
01000000
00010000
00000000
10000000
00000000
10010000
00000000
,
00010000
00100000
00010000
00000000
10000000
01000000
00010000
00001000
,
00000000
00010000
00000100
00000000
00001000
00000100
00000110
00000000
,
00000020
00000000
00000000
00000031
00001000
00000000
00001001
00000000
,
00000200
00000000
00000000
00010300
00001000
00000000
00011000
00000000
,
00200000
00000000
00000000
00310000
10000000
00000000
10010000
00000000
,
02000000
00000000
00000000
03010000
01000000
00100000
01100000
00000000
,
00200000
00000000
01300000
00001000
00000000
00010000
00000000
00011000
,
00000000
00000100
00000010
00000100
00000000
00001000
00000001
00001000
,
00000020
00000000
00000000
00000130
00000001
00000100
00000000
00000110
,
00000000
00001001
00000000
00011000
00000000
00010000
00001000
00100000
,
00020000
00000000
01000000
00000000
10030000
00100000
10000000
00000000
,
02000000
00000000
13000000
11000000
,
20000000
00000000
00000000
30010000
10000000
00000000
01000000
00000000
,
00200000
00001000
00301000
00010000
,
00000020
00000000
00000000
00000130
00000001
00000000
00001100
00000000
,
00000200
00000000
00000000
00010300
00001000
00000000
00011000
00000000
,
00001000
00100000
00001000
00000000
01000000
00100000
01000000
00000000
,
00010000
10000000
10000000
10000000
00010000
10000000
01000000
00100000
,
00010000
00000000
10010000
10000000
00000000
01000000
00100000
00010000
,
00000000
10000000
01000000
10000000
00000000
00001000
00010000
00001000
,
00010000
00000000
00001100
00001000
00000000
00000001
00000010
00000001
,
00000000
00000100
00000010
00000100
00000000
00000010
00001000
00000100
,
00010000
00001000
00010000
00001000
00000000
00100000
00010000
00000000
,
10000000
00010000
10000000
00010000
00000000
01000000
00100000
01000000
,
00000000
00010000
10000000
00010000
00000000
00100000
00000000
01100000
,
00000000
10010000
00000000
00011000
00000000
00002002
00000000
00003003
,
00000110
00000000
00000010
00000000
00000100
00000001
00000000
00002000
,
00000000
00000100
00000000
00000001
00000000
00003100
00010000
00000000
,
00001000
00000000
00011000
00000000
00001000
00100000
00000000
00020000
,
00000000
01000000
00000000
10000000
00000000
01030000
00100000
00000000
,
10010000
00000000
10000000
00100000
10000000
00010000
00000000
10010000
,
00000000
00000000
00100000
00001000
00010000
00000100
00000000
00000110
,
00000000
00000000
00000001
00000010
00000001
00001000
00000100
00001000
,
00000000
00000110
00000000
00001001
00000000
00000110
00000000
00002002
,
00000000
00000000
00000000
00000000
,
00000000
00000000
00000000
00003003
;

//--------------- dance-double - 8Chasey (based on Single CHALLENGE) ----------------
#NOTES:
     dance-double:
     8Chasey (based on Single CHALLENGE):
     Challenge:
     10:
     0,0,0,0,0:
00000000
00000000
00000000
00000000
,
00000000
00000000
00000000
00000000
,
01001000
00000000
00011000
00000000
00010100
00000000
00000000
00000100
00001000
00000000
00000010
00000000
00000100
00000000
00001002
00000000
,
00000000
00000000
00000000
00001003
00000000
00000000
00000010
00000000
00000000
00001000
00000000
00000000
00000100
00000000
00001000
00000000
00000100
00000000
00010000
00000000
00000000
00000000
00000000
00000000
,
00201000
00000000
00000000
00000000
00310000
00000000
00000000
01000000
00010000
00000000
10000000
00000000
00100000
00000000
12000000
00000000
,
00000000
00000000
00000000
00000000
03100000
00000000
00000000
00010000
00100000
00000000
00101000
00000000
00010000
00000000
00010200
00000000
,
00000000
00000000
00001000
00000000
00001300
00000000
00000000
00000010
00001000
00000000
00000010
00000000
00000110
00000000
00000110
00000000
,
00000100
00000101
00000010
00001010
00010000
00011000
00001000
00100000
,
00120000
00000000
10030000
21000000
00000000
30100000
01100000
00000000
,
20010000
00000000
31000000
01200000
00000000
00301000
00011000
00010000
,
00010200
00000000
00001300
00002010
00000000
00003001
00000011
00000010
,
00000110
00000100
00001000
00000001
00000100
00000101
00001100
00000000
,
00012000
00000000
00100000
00103000
00010000
00000000
10010000
00000000
,
12000000
00000000
00100000
03100000
00001000
00000000
00011000
00000000
,
00010100
00001000
00000010
00000100
00000001
00001000
00000010
00000200
,
00000000
00000000
00001300
00000000
00010000
00000000
00001000
00000000
00100000
00000000
00010000
00100000
00010000
00000000
10000000
00000000
,
01000000
00000000
10000000
00000000
10100000
00000000
01000000
00000000
00010000
00000000
00100000
00000000
00110000
00000000
00000000
00100000
,
00001000
00010000
00011000
00010000
00000100
00000010
00000120
00000000
,
00000001
00000001
00000230
00000000
00010300
00010000
00001000
00200000
,
00000000
00310000
10010000
10000000
00100000
01100000
01100000
00000000
,
01020000
00000000
00130000
00001000
00010000
00000000
00010100
00000000
,
00002100
00000000
00003010
00010000
00001000
00000000
01001000
00000000
,
00200000
00010000
00310000
10000000
01000000
10000000
01100000
01000000
,
00020000
00000000
00130000
00001000
00010000
00011000
00010100
00001000
,
00000010
00000000
00000010
00000000
00000101
00000000
00000100
00000000
00000010
00000000
00001000
00000000
00001100
00000000
00000000
00000100
,
00010000
00001000
00011000
00100000
00010000
01000000
01020000
00000000
,
10030000
10000000
00100000
10000000
01000000
00110000
01100000
11000000
,
00000000
00000000
01010000
00000000
00000000
00000000
00101000
00000000
00000000
00000000
00010000
00001000
00010000
00001000
00010000
00001000
,
00020000
00000100
00030100
00001000
00000010
00000100
00000101
00000000
,
00001020
00001000
00001030
00000100
00000100
00010000
00001000
00100000
,
00120000
00100000
00130000
02000000
10000000
13000000
00100000
10000000
,
10010000
00100000
10010000
00000000
01000000
00001000
00010000
00000000
,
00010200
00001000
00001300
00000010
00001000
00000100
00000011
00000000
,
00002100
00000010
00003010
00000100
00000001
00001000
00001001
00000000
,
00000010
00001000
00000010
00001000
00000010
00000000
00000100
00000001
00000100
00000001
00000100
00000000
00001010
00000000
00010100
00000000
,
00000000
00011000
00011000
00100000
00110000
00010000
10010000
10000000
,
01000000
10000000
00100000
00000000
10100000
00000000
01000000
00010000
01000000
00000000
00001000
00000000
00010000
00000000
00011000
00000000
,
00010000
00000000
00010100
00001000
00000100
00000000
00001000
00000000
00000010
00000000
00001010
00000100
00000001
00000000
00000010
00000000
,
00000110
00001000
00000010
00000100
00001001
00000000
00000100
00000000
00000001
00000000
00000011
00000001
00001000
00000000
00001010
00000000
,
00001000
00000000
00001100
00010000
00001000
00000000
00100000
00000000
00001000
00000000
00101000
00000000
00010000
00001000
00010000
00001000
,
00020000
00000000
00000000
00000000
01030000
00000000
10000000
00000000
00100000
00000000
01000000
00010000
01000000
00000000
00010000
00000000
,
20000000
00000000
00000000
00000000
31000000
00000000
00100000
00000000
00001000
00010000
00001000
00000000
00010000
00000100
00000000
00000100
,
00001000
00000000
00000010
00001000
00000001
00000000
00000020
00000000
00000100
00000000
00000130
00000000
00000010
00000000
00000002
00000000
,
00001000
00000000
00002003
00000000
00000100
00000000
00003200
00000000
00010000
00000000
00010300
00000000
00001000
00010000
00001000
00000000
,
00011000
00000000
00100000
00000000
00010000
00000000
00000000
00100000
01000000
00000000
10000000
00000000
00100000
00000000
01100000
00000000
,
00000000
01010000
00000000
10100000
10000000
00010000
00100000
01000000
,
01100000
00000000
00100000
00000000
00001000
00000000
00000000
00001000
00010000
00000000
00000100
00000000
00000010
00000000
00000011
00000000
,
00000000
00001100
00000000
00000110
00000001
00001001
00001000
00000100
,
00010100
00000000
00010000
00000000
00010000
00000000
00000000
00001000
00100000
00000000
00010000
00000000
01000000
00000000
01010000
00000000
,
20000000
00000000
00100000
00000000
30100000
00000000
00000000
10000000
01000000
00000000
00100000
00000000
01000000
00000000
11000000
00000000
,
00200000
00000000
00010000
00000000
00310000
00000000
00000000
00100000
00001000
00000000
00010000
00000000
00000100
00000000
00001100
00000000
,
00000010
00000101
00000010
00001010
00010000
00011000
00100000
02000000
,
00000000
00000000
00000000
00000000
,
00000000
00000000
00000000
00000000
00000000
00000000
00000000
03000000
;
