#TITLE:me & u;
#SUBTITLE:;
#ARTIST:succducc;
#TITLETRANSLIT:;
#SUBTITLETRANSLIT:;
#ARTISTTRANSLIT:;
#GENRE:;
#CREDIT:;
#BANNER:me__u-bn.png;
#BACKGROUND:me__u-bg-wide.png;
#LYRICSPATH:;
#CDTITLE:cd-title-benpai.png;
#MUSIC:me & u.ogg;
#OFFSET:0.009000;
#SAMPLESTART:47.991001;
#SAMPLELENGTH:12.000000;
#SELECTABLE:YES;
#BPMS:0.000000=160.000000
;
#STOPS:
;
#BGCHANGES:;
#KEYSOUNDS:;
#ATTACKS:;

//---------------dance-single - XO FS DS DH BR----------------
#NOTES:
     dance-single:
     no u:
     Challenge:
     12:
     0.878383,1.231268,0.096537,0.245056,1.058197,828.000000,815.000000,13.000000,33.000000,32.000000,0.000000,0.878383,1.231268,0.096537,0.245056,1.058197,828.000000,815.000000,13.000000,33.000000,32.000000,0.000000:
0000
0000
0000
0000
,
0000
0000
0000
0000
,
0000
0000
0000
0000
,
0000
0000
0000
0000
,
0000
0000
0000
0000
,
0000
0000
0000
0000
,
0022
0000
0000
0033
2200
0000
0000
3300
,
0202
0303
0202
0303
0110
0100
0010
1000
,
0001
1000
0001
0000
0010
0000
0100
0010
0001
1000
0010
0000
1000
0000
0100
0100
,
0001
0000
0001
0000
0100
0000
0001
0000
0010
0000
0100
0000
1000
0100
0010
0001
,
1000
0000
0010
0100
0010
1000
0001
0000
1000
0001
1000
0100
0010
0000
0010
0001
,
1000
0000
0010
0000
0100
0000
0001
1000
0100
0000
1000
0000
0020
0000
0000
0000
,
0130
0001
1000
0001
0010
0100
1000
0001
,
0100
0001
1000
0100
0010
0001
0100
0010
,
1000
0000
0001
0000
1000
0000
0100
0100
0001
0000
0100
0000
0010
1000
0010
0100
,
0001
0010
0001
1000
0010
0100
0001
1000
0100
0010
0001
1000
0100
0100
0100
0100
,
0001
0000
0000
0000
1000
0000
0000
0000
1000
0000
0000
0100
0000
0010
0100
0010
,
0001
0000
0000
0000
0001
0000
0000
0000
0100
0000
0000
0010
0100
0001
1000
0001
,
0010
0000
0000
0000
0100
0000
0000
0000
0100
0000
1000
0100
2000
0000
3001
0000
,
0001
0000
0000
0000
0001
0000
0000
0000
0100
0000
0000
0010
0100
0001
1000
0001
,
0010
0000
0100
0000
1000
0000
0001
0000
0010
0000
0001
1000
0010
0000
0100
0100
,
1000
0000
0001
0000
1000
0000
0100
0000
1000
0000
0010
0M00
0010
0100
1000
0001
,
0100
0000
0010
0000
1000
0000
0001
0000
1000
0000
0100
1000
0002
0000
0103
0100
,
1000
0000
0100
0000
1000
0000
0001
0000
0010
0000
1000
0000
0010
0001
1000
0001
,
0100
0000
0000
0000
1000
0M00
0001
0000
0100
0000
0000
0000
1000
0M00
0001
0000
0100
0000
0000
0000
1000
0M00
0001
0000
0100
0000
0100
0000
0100
0000
0100
0000
,
1000
0000
0000
0000
0010
M000
0100
0000
1000
0000
0000
0000
0010
M000
0100
0000
1000
0000
0000
0000
0010
M000
0100
0000
1000
0000
0001
0010
0001
0000
1000
0000
,
0010
0000
0000
0000
0001
00M0
1000
0000
0010
0000
0000
0000
0100
0000
0100
0000
1000
0000
0000
0000
0100
0000
0010
0000
0001
0000
0000
0000
0010
0000
0010
0000
,
0100
0000
0000
0000
1000
0M00
0001
0000
0100
0000
0000
0000
1000
0M00
0001
0000
0100
0000
0000
0000
0010
0000
1000
0000
0001
0000
0100
0000
0010
0000
0100
0000
,
0001
0000
0000
0000
0010
000M
1000
0000
0001
0000
0000
0000
0010
000M
1000
0000
0001
0000
0000
0000
0010
000M
1000
0000
0001
0000
0000
0000
0100
0000
0100
0000
,
1000
0000
0000
0000
0010
M000
0100
0000
1000
0000
0000
0000
0010
M000
0100
0000
1000
0000
0000
0000
M010
0000
0001
0000
1000
0000
0001
0000
1000
0000
0010
0000
,
0100
0000
0000
0000
1000
0M00
0001
0000
0100
0000
0000
0000
1000
0M00
0001
0000
0100
0000
0000
0000
1000
00M0
0001
0000
0010
0000
0000
0000
0100
0000
0100
0000
,
0001
0000
0000
0000
0010
000M
1000
0000
0001
0000
0000
0000
0010
000M
1000
0000
0001
0000
0000
0000
0100
0000
0100
0000
1000
0000
0001
0000
0100
0000
0000
0000
,
0210
0000
0000
0000
0000
0000
0301
0000
1000
0000
0100
0000
1000
0000
0001
0001
,
0000
0000
0100
0000
0010
0000
1000
0000
0100
0000
0010
0001
1000
0000
0001
0000
,
0200
0000
0000
0000
0301
1000
0001
1000
0100
0000
0001
0000
0100
0000
0020
0000
,
0001
0000
0130
0000
1000
0000
0100
0100
0001
0000
0100
0100
0010
0001
0010
0100
,
1000
0000
0100
0000
1000
0000
0001
0100
0010
0100
0001
0000
1000
0010
1000
0001
,
0010
0000
0001
1000
0100
1000
0001
0000
0100
0010
0100
0001
1000
0010
1000
0001
,
0010
0100
0010
0100
1000
0001
1000
0001
0100
0010
1000
0001
0010
0001
0100
0100
,
1000
0000
0000
0001
0000
0000
0010
0000
0000
0001
0000
0000
1000
0000
0000
0001
0000
0000
0100
0000
0000
0010
0000
0000
1000
0000
0001
0000
1000
0000
0100
0000
0010
0000
0001
0000
1000
0000
0001
0000
0100
0000
0010
0000
1000
0000
0001
0000
,
0020
0000
0000
0130
1000
0001
1000
0020
,
0000
0030
0010
0000
0100
0000
0001
0000
0010
0000
0100
0010
0100
1000
0001
0000
,
2000
0000
0000
3100
0010
1000
0010
0002
,
1003
0000
0100
1000
0001
1000
0010
0000
0100
0010
1000
0001
0010
0000
0100
0000
,
20M0
00M0
00M0
31M0
10M0
00M1
01M0
2000
,
0000
0000
3100
0000
0010
0000
1000
0000
0001
0000
0010
0000
0100
0010
0100
0010
,
0001
0001
0100
0010
1000
0001
2000
0000
,
3001
0100
0010
0100
0001
0000
1000
0000
0100
0000
0010
0000
0001
0000
1000
0000
,
1001
0001
0010
0001
1000
0001
0100
0010
,
1000
0000
0001
0000
0100
0010
0100
0000
0001
0000
1000
0000
0001
0000
0010
0100
,
1000
0001
0200
0000
0000
0000
0310
0000
2000
0000
0000
0000
3001
0000
1000
0010
,
0100
0000
0010
1000
0001
0000
0010
0000
1000
0000
0010
0000
0100
0000
1000
0000
,
0001
0100
0001
1000
0000
0100
0010
0000
,
0001
0000
0100
0000
1000
0000
0000
0000
0100
00M0
0100
0000
0010
0000
0001
0000
,
1000
0000
0010
0000
0100
0000
0001
1000
0100
0000
0010
0000
0200
0000
0000
1300
,
0001
0100
0001
0000
0010
0000
0100
0000
1000
0000
0001
0000
0100
0000
0010
0000
,
1010
0000
1000
0000
0100
0010
0100
1000
,
0001
1000
0001
0100
0010
0100
0001
0001
,
1000
0000
0100
0010
0001
0000
1000
0000
,
0001
0100
0001
1000
0001
0010
0100
1000
0010
1000
0001
1000
0100
0010
0001
1000
,
0101
0000
0000
0000
1010
0000
0000
0000
0001
0000
0000
0100
0010
0000
0100
0001
,
1000
0000
0001
1000
0001
0000
0000
0000
0010
0000
0100
0000
1000
0000
0001
0000
0200
0000
0000
0000
0000
0000
0000
0000
0310
0000
0000
0000
1000
0000
0000
0000
,
1002
0000
0100
0000
1003
0100
0210
0000
,
0010
0001
0000
1000
0001
0000
1300
0000
,
0010
0100
0001
1000
0100
1000
0001
1000
0010
0100
0010
1000
0001
0000
0001
0010
,
0100
1000
0010
0100
0001
1000
0001
0100
0001
1000
0001
0100
0001
1000
0100
0100
,
0001
1000
0100
1000
0010
0100
0001
1000
0100
0010
0100
1000
0001
0100
0010
1000
,
0001
0010
0100
0010
0001
1000
0100
1000
0010
0100
0001
1000
0001
1000
0100
0010
,
0001
0100
0010
0100
0001
0010
0100
1000
0001
0000
0001
0000
0010
0000
0001
0000
,
1000
0000
0010
0000
0100
0000
0010
0000
0100
0001
1000
0100
0040
0000
0030
0000
,
1001
0000
0000
0000
0001
0000
0000
0000
0010
0000
0100
0100
0001
0000
1000
0000
,
0001
0000
0000
0000
1000
0000
0000
0000
0100
0000
0010
0000
0001
1000
0001
0100
,
0010
0000
0000
0000
1000
0000
0000
0000
0001
0000
0010
0100
0010
0000
0001
0000
,
0100
0010
1000
0001
0100
0001
0100
0100
1000
0001
1000
0001
0010
0010
0010
0010
,
1000
0010
0100
0001
1000
0010
0100
0001
1000
0100
1000
0001
1000
0100
1000
0001
,
0100
0010
1000
0001
0100
0010
0100
0001
0010
0100
0010
0001
1000
0100
1000
0001
,
0100
0010
1000
0001
1000
0010
1000
0001
1000
0100
1000
0001
1000
0010
0100
0100
,
1000
0001
1000
0100
1000
0001
1000
0010
1000
0001
1000
0100
0010
0001
0010
0001
,
0100
0010
1000
0001
0010
0100
1000
0001
1000
0010
1000
0100
1000
0001
0100
0100
,
1000
0001
1000
0010
0100
0001
0100
0010
1000
0001
0010
0100
1000
0001
0100
0100
,
1000
0001
1000
0010
0100
0001
0010
0100
1000
0001
0100
0001
1000
0100
0010
0010
,
1000
0001
0010
0100
1000
0001
0010
0100
1000
0001
0100
0010
1000
0001
0100
0001
,
2000
0000
0000
0000
,
0000
0000
3020
0000
,
0230
0000
0000
0000
,
0302
0000
0000
0000
,
0013
0100
2000
0000
0000
0000
0000
0000
0000
0000
0000
0000
,
0000
0000
0000
0000
,
3020
0000
0000
0000
,
0000
0000
0000
0000
0000
0000
0000
0000
0M00
0M00
0M30
0000
0000
0000
0000
0000
;

//---------------dance-single - ----------------
#NOTES:
     dance-single:
     me & youuuuuuuuuuu:
     Hard:
     11:
     0.722438,0.931771,0.066834,0.311890,0.553233,681.000000,672.000000,9.000000,42.000000,27.000000,0.000000,0.722438,0.931771,0.066834,0.311890,0.553233,681.000000,672.000000,9.000000,42.000000,27.000000,0.000000:
// measure 0
0000
0000
0000
0000
,  // measure 1
0000
0000
0000
0000
,  // measure 2
0000
0000
0000
0000
,  // measure 3
0000
0000
0000
0000
,  // measure 4
0000
0000
0000
0000
,  // measure 5
0000
0000
0000
0000
,  // measure 6
0022
0000
0000
0033
2200
0000
0000
3300
,  // measure 7
0202
0303
0202
0303
0100
0010
1000
0001
,  // measure 8
0010
0000
0000
0000
0100
0000
0000
0000
1000
0000
0000
0000
0001
0000
0000
0000
0100
0000
0000
0000
0010
0000
0000
0000
1000
0000
0000
0000
0100
00M0
0100
0000
,  // measure 9
0001
1000
0100
1000
0010
1000
0002
0000
,  // measure 10
0103
0000
0000
0000
0010
0000
0000
0000
1000
0000
0000
0000
0001
0000
0000
0000
0010
0000
0000
0000
0001
0000
0000
0000
1000
0000
0000
0000
0100
00M0
0100
0000
,  // measure 11
0001
0010
0100
1000
0001
0100
0020
0000
,  // measure 12
1030
0001
1000
0100
1000
0001
1000
0010
,  // measure 13
0100
0001
1000
0100
0010
0100
1000
0010
,  // measure 14
0100
0000
0000
0000
0100
0000
0000
0000
0001
0000
0000
0000
0100
00M0
0100
0000
1000
0000
0000
0000
0100
0000
0000
0000
0040
0000
0000
0000
0000
0000
0000
0000
,  // measure 15
0031
1000
0001
1000
0010
0100
0010
0100
0001
0010
0100
1000
0100
0010
0001
1000
,  // measure 16
0001
0000
0000
0000
0100
0000
0000
0000
0100
0000
0000
0100
0000
0010
1000
0001
,  // measure 17
0100
0000
0000
0000
0100
0000
0000
0000
0010
0000
0000
0010
0000
0000
0100
0001
,  // measure 18
0010
0000
0000
0000
0001
0000
0000
0000
0001
0000
0100
00M0
0100
0000
1000
0000
,  // measure 19
1000
0000
0000
0000
1000
0000
0000
0000
0100
0000
0000
0100
4000
0000
3004
0000
,  // measure 20
0103
0000
0000
0000
0010
0000
0000
0000
0100
0000
0000
0000
0001
0000
0000
0000
1000
0000
0000
0000
0100
0000
0000
0000
0010
0000
0000
0000
0100
00M0
0100
0000
,  // measure 21
0001
0000
1000
0000
0001
0000
0100
0000
0010
0000
1000
0000
0001
0010
0100
1000
,  // measure 22
0001
0000
1000
0000
0010
0000
0100
0000
0001
0000
1000
0100
0020
0000
0130
0000
,  // measure 23
1000
0000
0001
0000
1000
0000
0100
0000
1000
0000
0010
0000
0100
0001
0100
0001
,  // measure 24
1000
0000
0100
0010
0001
0000
0010
0100
1000
0000
0001
1000
0100
00M0
0100
0000
,  // measure 25
0001
0000
0100
0010
1000
0000
0010
0100
0001
0000
1000
0001
0010
0000
0100
1000
,  // measure 26
0100
0000
0000
0000
0010
0000
0001
0000
0100
0000
0000
0000
0010
0000
0100
0000
0001
0000
0000
0000
1000
0000
0000
0000
0100
0000
0000
0000
0010
0M00
0010
0000
,  // measure 27
1000
0000
0001
1000
0010
0000
0100
0001
1000
0000
0100
0000
0010
0M00
0010
0000
,  // measure 28
1000
0000
0001
0010
0100
0000
1000
0100
0010
0000
0001
1000
0010
0000
0100
0010
,  // measure 29
1000
0000
0001
0010
0100
0000
1000
0100
0010
0000
0001
1000
0010
0100
0001
1000
,  // measure 30
0100
0000
0010
0001
0100
0000
0010
0100
0001
0000
1000
0001
0100
00M0
0100
0000
,  // measure 31
1000
0000
0100
0010
0001
0000
0010
0100
1000
0000
0001
1000
0010
0000
0100
0000
,  // measure 32
0210
0000
0000
0000
0000
0000
0301
0000
0100
0000
0010
0000
1000
0000
0002
1000
,  // measure 33
0000
0000
0013
0000
0100
0000
1000
0000
0010
0000
0100
0001
0000
0000
0001
0000
,  // measure 34
2000
0000
3000
0100
0010
1000
0010
0002
,  // measure 35
1000
0000
0013
0000
0100
0000
1000
0001
0100
0000
0010
0000
1000
0000
0001
0000
,  // measure 36
1000
0000
0100
0000
1000
0000
0001
0000
0100
0000
0010
0000
1000
0000
0100
0010
,  // measure 37
0100
1000
0001
0100
0010
1000
0002
0000
,  // measure 38
0013
0000
0000
0000
0100
0000
0000
0000
0010
0000
0000
0000
0001
0000
0000
0000
0100
0000
0000
0000
0010
0000
0000
0000
1000
0000
0000
0000
0100
00M0
0100
0000
,  // measure 39
0010
0000
1000
0000
0001
0000
0010
0000
0100
1000
0001
0100
0010
1000
0010
0100
,  // measure 40
0002
0000
0000
0013
0100
1000
0001
0200
,  // measure 41
0000
0000
0301
0000
1000
0000
0100
0000
0010
0000
0001
1000
0010
0100
0001
0000
,  // measure 42
2000
0000
0000
3010
0100
1000
0100
0001
,  // measure 43
1000
0000
0100
0010
0100
1000
0001
0000
0100
0010
1000
0001
0010
0000
0000
0000
,  // measure 44
M200
M000
M000
M310
M001
M010
M100
0002
,  // measure 45
0000
0000
0103
0000
1000
0000
0001
0000
0100
0000
0010
0000
1000
0001
1000
0001
,  // measure 46
0100
00M0
0100
0000
0010
0000
0001
0000
1000
0000
0010
0000
2000
0000
0000
0000
,  // measure 47
0000
0000
0000
3001
0100
0000
0001
0000
1000
0000
0100
0000
0010
0000
0001
0000
,  // measure 48
1001
1000
0100
1000
0001
1000
0010
0100
,  // measure 49
0001
0000
1000
0000
0001
0000
0010
0000
0100
0000
1000
0000
0001
0000
0100
0010
,  // measure 50
1000
0001
0020
0000
0000
0000
0130
0000
2000
0000
0000
0000
0000
0000
3001
0100
,  // measure 51
0001
0000
1000
0010
1000
0000
0001
0000
0010
0000
0100
0000
1000
0000
0001
0000
,  // measure 52
0100
0010
0100
0001
0000
1000
0100
0000
,  // measure 53
0010
0100
0001
0000
0100
0010
0001
1000
,  // measure 54
0100
0000
1000
0000
0010
0000
0100
0001
2000
0000
0000
0000
3100
0000
0010
0000
,  // measure 55
0100
1000
0100
1000
0010
0000
0100
0000
0001
0000
1000
0000
0100
0000
0010
0000
,  // measure 56
0001
0000
0001
0000
1000
0001
1000
0010
,  // measure 57
0100
0001
1000
0100
1000
0001
0100
0100
,  // measure 58
0200
0000
0301
0010
0100
0000
0010
0001
,  // measure 59
1000
0000
0001
0000
0200
0000
0010
0000
0302
0000
1000
0000
0023
0000
0000
0030
,  // measure 60
0110
0000
0000
0000
1000
0000
0000
0000
0010
0000
0000
0100
0010
0000
1000
0001
,  // measure 61
0010
0100
2000
0000
0000
0000
0000
3000
1001
0000
0000
0000
0001
0000
0100
0000
,  // measure 62
0020
0030
0020
0000
1030
0100
0020
0030
,  // measure 63
0020
0031
0020
0100
0032
0000
1000
0000
,  // measure 64
0103
0000
0010
1000
0010
0000
0100
0000
0001
0000
1000
0000
0100
0000
0010
0100
,  // measure 65
1000
0000
0001
0100
0010
0000
0010
0000
1000
0000
1000
0000
0010
0000
0010
0100
,  // measure 66
0001
1000
0100
0000
0010
0000
0100
0000
1000
0001
0100
0000
0010
0000
0100
0000
,  // measure 67
0001
1000
0001
0010
0100
1000
1000
0001
,  // measure 68
0100
0001
1000
0001
0010
0000
0100
0000
0010
0000
0001
0000
1000
0000
0010
0000
,  // measure 69
1000
0000
0001
0000
0010
0000
0100
0000
1000
0010
0100
0001
4000
0000
3000
0000
,  // measure 70
1001
0000
0000
0000
0000
0000
0000
0000
0001
0000
0000
0000
0000
0000
0000
0000
0010
0000
0000
0000
0100
00M0
0100
0000
0001
0000
0000
0000
1000
0000
0000
0000
,  // measure 71
0001
0000
0000
0000
1000
0000
0000
0000
0100
0000
0010
0000
0001
1000
0001
0100
,  // measure 72
0010
0000
0000
0000
1000
0000
0000
0000
0001
0000
0010
0100
0010
0000
0001
0000
,  // measure 73
1000
0000
0010
0000
0100
0000
0001
1000
0100
0010
0100
0010
0001
1000
0001
1000
,  // measure 74
0010
0000
1000
0001
0010
0000
0100
0010
0001
0000
1000
0100
1000
0000
0001
0100
,  // measure 75
0010
0100
0001
1000
0100
0000
0010
0001
0100
0000
0001
1000
0010
0000
1000
0001
,  // measure 76
0010
0000
0000
0000
0100
0000
1000
0000
0001
0000
0000
0000
0100
0000
0010
0000
0100
0000
0000
0000
0001
0000
1000
0000
0001
0000
0000
0000
0100
00M0
0100
0000
,  // measure 77
1000
0000
0001
0100
0010
0000
0100
0001
0010
0000
0100
1000
0010
0M00
0010
0000
,  // measure 78
0001
0000
1000
0000
0010
0000
0000
0000
1000
0000
0100
0000
0010
0000
0000
0000
0100
0000
1000
0000
0001
0000
1000
0000
0010
0000
0000
0000
0100
00M0
0100
0000
,  // measure 79
1000
0000
0000
0000
0100
0000
0000
0000
0010
0000
0100
0000
1000
0000
0000
0000
0001
0000
1000
0000
0010
0000
0000
0000
1000
0000
0000
0000
0100
00M0
0100
0000
,  // measure 80
0001
0000
0000
0000
1000
0000
0001
0000
0010
0000
0000
0000
0100
0000
1000
0000
0001
0000
0000
0000
0100
0000
0010
0000
1000
0000
0000
0000
0100
00M0
0100
0000
,  // measure 81
0001
0000
1000
0100
0010
0000
0100
1000
0001
0000
0100
0010
1000
0000
0100
0010
,  // measure 82
0002
0000
0000
0000
,  // measure 83
0000
0000
0203
0000
,  // measure 84
0320
0000
0000
0000
,  // measure 85
2030
0000
0000
0000
,  // measure 86
3100
0010
0002
0000
0000
0000
0000
0000
0000
0000
0000
0000
,  // measure 87
0000
0000
0000
0000
,  // measure 88
0203
0000
0000
0000
,  // measure 89
0000
0000
0000
0000
0000
0000
0000
0000
00M0
00M0
03M0
0000
0000
0000
0000
0000
;

//---------------dance-single - ----------------
#NOTES:
     dance-single:
     succ:
     Beginner:
     1:
     0.082746,0.166388,0.007426,0.014852,0.000000,78.000000,77.000000,1.000000,2.000000,1.000000,0.000000,0.082746,0.166388,0.007426,0.014852,0.000000,78.000000,77.000000,1.000000,2.000000,1.000000,0.000000:
0000
0000
0000
0000
,
0000
0000
0000
0000
,
0000
0000
0000
0000
,
0000
0000
0000
0000
,
0000
0000
0000
0000
,
0000
0000
0000
0000
,
0001
0000
0000
0000
,
0001
0000
0000
0000
,
1000
0000
0000
0000
,
0000
0000
0000
0000
,
0100
0000
0000
0000
,
0000
0000
0000
0000
,
0010
0000
0010
0000
,
0001
0000
0001
0000
,
1000
0000
1000
0000
,
0020
0000
0000
0000
,
0130
0000
0000
0000
,
0100
0000
0000
0000
,
0001
0000
0000
0000
,
0001
0000
0000
0000
,
1000
0000
0000
0000
,
1000
0000
0000
0000
,
0100
0000
0000
0000
,
0010
0000
0000
0000
,
0100
0000
0000
0000
,
0100
0000
0000
0000
,
1000
0000
0000
0000
,
1000
0000
0000
0000
,
0010
0000
0000
0000
,
0010
0000
0000
0000
,
0100
0000
0000
0000
,
0100
0000
0000
0000
,
0001
0000
0000
0000
,
0000
0000
0000
0000
,
0001
0000
0000
0000
,
0010
0000
0000
0000
,
0100
0000
0000
0000
,
0000
0000
0000
0000
,
1000
0000
0000
0000
,
0010
0000
0000
0000
,
1001
0000
0000
0000
,
0000
0000
0000
0000
,
1000
0000
0000
0000
,
0000
0000
0000
0000
,
0100
0000
0000
0000
,
0000
0000
0000
0000
,
0010
0000
0000
0000
,
0000
0000
0000
0000
,
0001
0000
0000
0000
,
0000
0000
0000
0000
,
0000
0000
0000
0000
,
0000
0000
0000
0000
,
0100
0000
0000
0000
,
0000
0000
0000
0000
,
0010
0000
0000
0000
,
1000
0000
1000
0000
,
0100
0000
0100
0000
,
0100
0000
0100
0000
,
1000
0000
0000
0000
,
0002
0000
0000
0000
,
0013
0000
0000
0000
,
0100
0000
0000
0000
,
1000
0000
0000
1000
,
0000
0000
1000
0000
,
0100
0000
0000
0000
,
0000
0000
0100
0000
,
0010
0000
0000
0000
,
0000
0000
0010
0000
,
0001
0000
0001
0000
,
0001
0000
0001
0000
,
1000
0000
0000
0000
,
1000
0000
0000
0000
,
0010
0000
0000
0000
,
0010
0000
0000
0000
,
0100
0000
0000
0000
,
0100
0000
0000
0000
,
0001
0000
0000
0000
,
0001
0000
0000
0000
,
0010
0000
0000
0000
,
0010
0000
0000
0000
,
0100
0000
0000
0000
,
0100
0000
0000
0000
,
1000
0000
0000
0000
,
0000
0000
0000
0000
,
0010
0000
0000
0000
,
0100
0000
0000
0000
,
0001
0000
0000
0000
,
0000
0000
0000
0000
,
0000
0000
0000
0000
,
0000
0000
0000
0000
0000
00M0
0000
0000
;

//---------------dance-single - ----------------
#NOTES:
     dance-single:
     us:
     Easy:
     3:
     0.210048,0.333239,0.022278,0.103963,0.000000,198.000000,195.000000,3.000000,14.000000,1.000000,0.000000,0.210048,0.333239,0.022278,0.103963,0.000000,198.000000,195.000000,3.000000,14.000000,1.000000,0.000000:
0000
0000
0000
0000
,
0000
0000
0000
0000
,
0000
0000
0000
0000
,
0000
0000
0000
0000
,
0000
0000
0000
0000
,
0000
0000
0000
0000
,
0001
0000
0100
0000
,
0100
0100
0010
1000
,
0001
0000
0100
0001
,
0001
1000
0100
0010
,
0100
0000
1000
0001
,
1000
0010
1000
0200
,
0310
0010
0100
0100
,
1000
1000
0001
0001
,
0100
0010
0100
0001
,
2000
0000
0000
0000
,
3010
0000
0100
0000
,
0010
0000
0100
0001
,
0010
0000
0100
0000
,
0010
0000
0100
1000
,
0001
0000
0100
0001
,
0001
0000
1000
0100
,
0010
0000
0100
1000
,
0001
0001
0100
0010
,
1000
0000
1000
0100
,
0010
0000
0010
0001
,
0100
0000
0100
0010
,
1000
0000
1000
0001
,
0010
0000
0010
0100
,
0010
0000
0010
0001
,
0100
0000
0010
1000
,
0100
0100
0100
0010
,
0001
0000
0000
0000
,
0000
0000
0000
0000
,
1000
0000
0000
0000
,
0010
0000
0000
0000
,
0100
0000
0100
0000
,
0001
0000
0001
0000
,
1000
0000
0100
0000
,
0010
0000
0001
0000
,
1001
0000
0000
0000
,
0000
0000
1000
1000
,
0001
0000
0000
0000
,
0100
0100
0100
0010
,
1000
0000
0000
0000
,
0100
0000
0000
0000
,
1000
0000
0000
0001
,
0000
0000
0000
0000
,
0200
0000
0000
0000
,
0000
0000
0000
0000
,
0310
0000
1000
0000
,
0001
0001
0010
0100
,
1000
0000
0000
0001
,
0000
0100
0001
0010
,
0100
0000
1000
0000
,
0001
0010
0001
0000
,
1001
1000
0010
0100
,
0001
1000
0100
1000
,
0001
0000
0100
0000
,
0020
0000
0000
0000
,
1030
0000
0000
0000
,
0001
0000
0010
0000
,
1001
0000
1000
0020
,
0000
0030
0010
0100
,
0200
0000
0301
1000
,
0000
1000
0100
0100
,
0020
0000
0031
1000
,
0010
0010
0200
0000
,
0301
0001
1000
1000
,
0100
0100
1000
0010
,
0100
0000
0001
1000
,
1000
1000
0100
1000
,
0010
0000
0100
0100
,
0002
0000
1003
1000
,
0100
0000
0100
0000
,
1000
0000
0010
0000
,
0100
0000
0100
0000
,
0001
0000
0001
1000
,
0100
0000
0100
0000
,
0010
0000
0001
0000
,
0100
0000
0100
0000
,
0010
0000
1000
0000
,
0002
0000
0000
0000
,
0000
0000
0023
0000
,
0230
0000
0000
0000
,
2300
0000
0000
0000
,
3002
0000
0000
0000
,
0000
0000
0000
0000
,
0000
0000
0000
0000
,
0000
0000
0000
0000
0000
00M0
0003
0000
;

//---------------dance-single - ----------------
#NOTES:
     dance-single:
     meep:
     Medium:
     8:
     0.479504,0.565718,0.029704,0.304464,0.000000,452.000000,448.000000,4.000000,41.000000,1.000000,0.000000,0.479504,0.565718,0.029704,0.304464,0.000000,452.000000,448.000000,4.000000,41.000000,1.000000,0.000000:
0000
0000
0000
0000
,
0000
0000
0000
0000
,
0000
0000
0000
0000
,
0000
0000
0000
0000
,
0000
0000
0000
0000
,
0000
0000
0000
0000
,
0011
0000
1100
0000
,
1000
0000
1000
0010
0100
0000
0001
1000
,
0100
0000
0010
0000
0001
0010
0001
1000
,
0000
1000
0010
0100
0001
1000
0200
0000
,
2300
0000
3000
0001
1000
0010
0100
0002
,
0000
0103
0001
1000
0010
1000
0200
0000
,
0310
0000
0010
0100
1000
0001
1000
0020
,
0000
0130
0001
1000
0100
1000
0002
0000
,
0103
0010
1000
0001
0010
0001
4000
0000
,
3100
0010
0100
1000
0010
0100
0001
1000
,
0100
0000
0010
0000
0100
0000
1000
0001
,
0100
0000
0100
0000
0010
0000
1000
0001
,
0010
0000
0100
0000
0100
1000
0100
1000
,
0001
0000
0001
0000
0100
0000
0010
0100
,
0001
0000
1000
0000
0100
1000
0010
0000
,
0100
0000
0100
0000
0001
0000
1000
0100
,
0010
0000
0100
0000
1000
0001
1000
0001
,
0100
0000
0100
0000
0010
1000
0100
1000
,
0001
0000
0001
0000
0100
0010
1000
0000
,
0001
0000
0001
0000
0010
0100
1000
0000
,
0010
0000
0010
0000
0100
0001
1000
0000
,
0010
0000
0010
0000
1000
0001
1000
1000
,
0100
0000
0100
0000
0010
0001
0100
0000
,
0010
0000
0010
0000
0100
0001
1000
0001
,
0010
0000
0001
0000
0100
0000
0010
1000
,
0100
0000
0100
0000
0100
0000
1000
0001
,
0200
0000
0000
0310
1000
0001
1000
0200
,
0000
0310
0100
1000
0010
0100
0002
0000
,
1003
0000
0000
0100
1000
0010
0100
0002
,
0000
1003
0100
1000
0001
0100
0020
0000
,
1030
0000
0000
0001
0100
0001
1000
0200
,
0000
0310
0100
1000
0010
0100
0002
0000
,
0013
0000
0010
0000
0100
1000
0100
0000
,
0010
0000
0010
0001
0100
0010
0100
0001
,
2000
0000
0000
3100
1000
0001
1000
0010
,
0000
0100
0001
1000
0100
1000
0002
0000
,
0103
0000
0000
0010
1000
0100
0010
0002
,
0000
1003
0100
1000
0001
0100
0020
0000
,
2030
0000
0000
3001
0100
0001
0010
0200
,
0000
0310
0001
1000
0010
1000
0002
0000
,
1003
0100
0010
0100
1000
0001
2000
0000
,
0000
0000
3010
0100
0001
0010
0001
0100
,
0020
0000
0000
2030
,
0000
0000
0000
0000
,
3200
0000
0000
0000
2300
0000
0000
3001
,
0100
0000
0100
0000
0010
1000
0001
0000
,
0010
0000
0000
0100
0000
1000
0001
0000
,
0100
0001
0010
0000
0100
0100
0010
0001
,
1000
0010
0100
0001
2000
0000
3100
0000
,
0010
0100
0010
0001
1000
0010
0100
0000
,
0101
0000
0001
0000
1000
0100
1000
0002
,
0000
0203
0000
0310
1000
0000
0001
0100
,
0002
0000
0000
0023
0000
0000
0130
0000
,
1000
0001
0200
0000
0320
0000
1030
0001
,
0001
0100
0010
0010
,
1000
0002
0000
0000
0013
0000
0100
0000
,
0110
0000
0010
0000
0001
1000
0010
0000
,
0010
0100
0000
0100
0001
0000
1000
0000
,
0100
0010
0100
0000
1000
0000
0001
0100
,
0001
1000
0100
0010
0100
0010
0100
0010
,
0001
1000
0010
0100
0001
0000
1000
0100
,
0010
0100
0010
0100
1000
0010
1000
0001
,
0010
0001
0100
0010
1000
0001
0010
0100
,
1000
0001
0100
0001
2000
0000
3200
0000
,
0310
0001
0001
1000
,
1000
0000
1000
0000
0010
1000
0001
0010
,
0100
0000
1000
0000
1000
0001
0100
0001
,
0010
0100
1000
0001
0400
0000
0000
0000
,
0310
1000
0010
0100
0001
0001
1000
1000
,
0100
0010
0100
0100
1000
0001
0100
0010
,
0100
0001
1000
0001
0010
0100
1000
0001
,
0001
0010
0001
1000
0001
0100
0010
0010
,
1000
0100
1000
0001
0100
0001
0010
0100
,
0100
1000
0100
0010
0001
1000
0001
0100
,
0100
0001
1000
0100
1000
0001
0100
0010
,
0010
1000
0001
0010
0100
1000
0010
0100
,
0002
0000
0000
0000
,
0000
0000
0023
0000
,
0230
0000
0000
0000
,
2300
0000
0000
0000
,
3002
0000
0000
0000
,
0000
0000
0000
0000
,
0203
0000
0000
0000
,
0000
0000
0000
0000
0000
03M0
0000
0000
;
