#TITLE:edamame;
#SUBTITLE:;
#ARTIST:bbno$ & Rich Brian;
#TITLETRANSLIT:;
#SUBTITLETRANSLIT:;
#ARTISTTRANSLIT:;
#GENRE:House;
#CREDIT:Feraligatr;
#BANNER:;
#BACKGROUND:edamame-bg.png;
#LYRICSPATH:;
#CDTITLE:;
#MUSIC:bbno$ & Rich Brian - edamame.ogg;
#OFFSET:0.009000;
#SAMPLESTART:40.745998;
#SAMPLELENGTH:18.113001;
#SELECTABLE:YES;
#DISPLAYBPM:106.000000;
#BPMS:0.000000=106.000000
;
#STOPS:
;
#BGCHANGES:;
#KEYSOUNDS:;
#ATTACKS:;

//---------------dance-single - Feraligatr----------------
#NOTES:
     dance-single:
     Feraligatr:
     Challenge:
     11:
     0.886144,0.810244,0.812030,0.473684,1.135338,825.000000,713.000000,108.000000,63.000000,18.000000,13.000000,0.886144,0.810244,0.812030,0.473684,1.135338,825.000000,713.000000,108.000000,63.000000,18.000000,13.000000:
// measure 0
0000
0000
0000
0000
,  // measure 1
0000
0000
0000
0000
0000
0000
0000
0000
0000
0000
0000
0000
0000
0000
0000
0001
0100
0001
1000
0000
0000
0000
0000
0000
,  // measure 2
1101
0000
1000
0001
0100
0000
0010
1000
0100
0100
0002
0000
1003
0001
0010
0000
,  // measure 3
0100
0000
1000
0000
0001
0000
0101
0000
1200
0000
1300
0001
1100
0010
1000
0001
,  // measure 4
1010
0100
1000
0100
0010
0010
1000
0001
0010
0000
0200
0000
0310
0001
1000
0000
,  // measure 5
0020
0000
0130
0000
0011
0000
1000
0100
1010
0001
1000
0001
1010
0100
0010
0001
,  // measure 6
2200
0000
3310
0000
0100
0000
0011
1000
0100
0000
0010
0000
0001
0100
0100
1000
,  // measure 7
0022
0000
0133
0000
0010
0100
0011
1000
0100
0000
0010
0000
0101
1000
0100
1000
,  // measure 8
0022
0000
0000
0000
0000
0000
1033
0000
0000
0000
0000
0000
0100
0000
0000
0100
0000
0000
0011
0000
0000
0000
0000
0000
1000
0000
0000
0000
0000
0000
0001
0000
0000
0100
0000
0000
0001
0000
0000
0010
0000
0000
0010
0000
1000
0000
0010
0000
,  // measure 9
2200
0000
3300
0000
0011
1000
0010
1000
0101
0010
0100
0010
0101
1000
0100
0100
,  // measure 10
0021
0000
0130
1000
00M0
1000
0010
1000
0100
0001
00M0
0001
0010
0001
0100
1000
,  // measure 11
00M0
1000
0010
0100
0001
1000
0100
0001
00M0
0001
0010
0100
1010
0001
0100
1000
,  // measure 12
00M0
1000
0010
0000
1000
0001
0010
0100
0001
00M0
0001
0010
0001
0100
1000
00M0
,  // measure 13
1000
0010
0100
0000
0001
1000
0100
1000
0011
0100
0001
1000
0011
0100
0001
1000
,  // measure 14
0101
0010
1000
0M00
1000
0100
0010
0001
1000
0010
0001
0M00
0001
0100
0010
1000
,  // measure 15
0100
0010
0001
1000
0010
0100
0001
1000
0001
0010
1000
0M00
1020
0000
0130
1000
,  // measure 16
0011
0000
0000
0100
0000
0000
0010
0000
0000
1000
0000
0000
0001
0000
0000
0010
0000
0000
0100
0000
0000
1000
0000
0000
0001
0000
0000
0100
0000
0000
1000
0000
0000
00M0
0000
0000
2000
0000
0000
0000
0000
0000
3010
0000
1000
0000
0010
0000
,  // measure 17
0200
0000
0310
1000
0101
0010
0100
1000
0011
0100
0010
0100
0011
0000
0100
0100
,  // measure 18
1010
0000
0001
0010
0000
0010
1000
0000
0001
0100
0000
0100
1000
0000
0001
0010
,  // measure 19
0000
0010
1000
0000
0001
0100
0000
0100
0010
0000
0001
1000
0011
0000
0100
0001
,  // measure 20
1010
0000
0001
0100
0000
0100
1000
0000
0001
0010
0000
0010
1000
0000
0001
0100
,  // measure 21
0000
0100
1000
0000
0101
0010
0000
0010
1100
0000
0010
1000
0101
0000
0010
0001
,  // measure 22
0200
0000
0310
1000
0100
0100
0010
0010
0001
1000
0002
0000
0203
0000
0310
1000
,  // measure 23
0100
0100
0001
1000
0200
0000
0320
0000
0130
1000
0020
0000
0230
0000
0310
1000
,  // measure 24
0100
0000
0000
0000
0000
0000
0010
0000
0000
0000
0000
0000
0002
0000
0000
0000
0000
0000
1003
0000
0000
0001
0000
0000
0100
0000
0000
0100
0000
0000
1000
0000
0000
0001
0000
0000
0200
0000
0000
0000
0000
0000
0301
0000
1000
0000
0001
0000
,  // measure 25
0100
0100
1000
0001
1010
0000
0001
1000
0011
0100
0010
0100
0011
0000
0100
0100
,  // measure 26
1010
0000
0001
1000
0100
0000
0010
0001
0100
0100
2000
0000
3001
0100
2000
0000
,  // measure 27
3100
0000
0001
0000
1000
0000
1100
0000
0201
0000
0301
1000
0101
0010
0001
1000
,  // measure 28
0011
0100
0001
0100
0010
0010
0001
1000
0010
0000
0200
0000
0301
0010
2000
0000
,  // measure 29
3020
0000
0130
0000
1010
0000
0001
0100
0011
1000
0001
1000
0011
0100
0010
1000
,  // measure 30
0202
0000
0313
0000
0100
0000
1010
0001
0100
0000
0010
0000
1000
0100
0100
0001
,  // measure 31
2020
0000
3130
0000
0010
0100
1010
0001
0100
0000
0010
0000
1100
0001
0100
0001
,  // measure 32
2020
0000
0000
0000
0000
0000
3031
0000
0000
0000
0000
0000
0100
0000
0000
0100
0000
0000
1010
0000
0000
0000
0000
0000
0001
0000
0000
0000
0000
0000
1000
0000
0000
0010
0000
0000
1000
0000
0000
0100
0000
0000
0100
0000
0001
0000
0100
0000
,  // measure 33
0022
0000
0033
0000
1100
0001
0100
0001
1010
0100
0010
0100
1010
0001
0010
0010
,  // measure 34
1100
0001
1000
0100
1000
0001
0100
0010
0001
0M00
0001
0100
0010
1000
0100
0000
,  // measure 35
0010
0001
1000
0010
1000
0001
0010
0100
0001
00M0
0001
0010
0101
1000
0001
0100
,  // measure 36
0011
1000
0001
0010
0001
1000
0010
0100
1000
00M0
1000
0010
0000
0100
0001
1000
,  // measure 37
0001
0010
0100
0010
1000
0M00
1000
0100
1010
0001
0010
0100
1010
0001
0100
0010
,  // measure 38
1100
1000
0000
0001
0000
0010
0100
0010
0000
0001
0000
0100
0010
0100
0000
0001
,  // measure 39
0000
1000
0100
0010
0001
1000
0010
1000
0100
0010
0000
0100
1010
0001
0010
0001
,  // measure 40
1100
0000
0000
0010
0000
0000
0100
0000
0000
0001
0000
0000
1000
0000
0000
0100
0000
0000
0010
0000
0000
0001
0000
0000
0100
0000
0000
0010
0000
0000
0000
0000
0000
0100
0000
0000
0000
0000
0000
0001
0000
0000
1000
0000
0100
0000
1000
0000
,  // measure 41
0001
0100
0000
0010
1100
0001
1000
0001
1010
0100
0000
0100
0000
0000
MMM0
0000
,  // measure 42
1011
0000
0001
1000
0010
1000
0100
0010
0011
0000
1001
0000
1010
0000
0110
0000
,  // measure 43
1000
0001
0100
0001
0010
0100
1000
0001
0101
0000
1001
0000
1100
0000
0110
0000
,  // measure 44
0101
1000
0100
1000
0010
0000
0100
0001
1001
0000
1010
0000
0110
0000
0101
0000
,  // measure 45
0001
1000
0010
0100
0011
1000
0100
0010
0111
0000
0110
0000
1101
0000
1100
1000
,  // measure 46
0020
0000
0130
0001
0010
0010
0100
0100
1000
0001
2000
0000
3020
0000
0130
0001
,  // measure 47
0010
0010
1000
0001
0200
0000
0320
0000
0130
0001
0020
0000
0230
0000
0310
0001
,  // measure 48
0100
0000
0000
0000
0000
0000
0010
0000
0000
0000
0000
0000
2000
0000
0000
0000
0000
0000
3001
0000
0000
1000
0000
0000
0100
0000
0000
0100
0000
0000
0001
0000
0000
1000
0000
0000
0200
0000
0000
0000
0000
0000
1300
0000
0001
0000
1000
0000
,  // measure 49
0100
0100
0001
1000
0011
0000
1000
0001
1010
0100
0010
0100
1010
0000
0100
0100
,  // measure 50
0011
0000
1000
0001
0100
0000
0010
1000
0100
0100
0002
0000
1003
0100
0002
0000
,  // measure 51
0103
0000
1000
0000
0001
0000
0011
0000
1020
0000
1030
0001
1010
0100
1000
0001
,  // measure 52
1100
0010
1000
0010
0100
0100
1000
0001
0010
0000
0200
0000
1300
0010
0002
0000
,  // measure 53
0023
0000
0130
0000
0011
0000
1000
0100
1010
0001
1000
0001
1010
0100
0010
0001
,  // measure 54
2200
0000
3310
0000
0100
0000
0011
1000
0100
0000
0010
0000
0001
0100
0100
1000
,  // measure 55
0022
0000
0133
0000
0010
0100
0011
1000
0100
0000
0010
0000
0101
1000
0100
1000
,  // measure 56
0022
0000
0000
0000
0000
0000
1033
0000
0000
0000
0000
0000
0100
0000
0000
0100
0000
0000
0011
0000
0000
0000
0000
0000
1000
0000
0000
0000
0000
0000
0001
0000
0000
0010
0000
0000
0001
0000
0000
0100
0000
0000
0100
0000
1000
0000
0100
0000
,  // measure 57
2020
0000
3030
0000
0101
1000
0100
1000
0011
0100
0010
0100
0011
1000
0010
0010
,  // measure 58
0200
0300
0000
0000
;

//---------------dance-single - Feraligatr----------------
#NOTES:
     dance-single:
     Feraligatr SH:
     Hard:
     10:
     0.733620,0.656955,0.157895,0.406015,1.131579,683.000000,662.000000,21.000000,54.000000,51.000000,0.000000,0.733620,0.656955,0.157895,0.406015,1.131579,683.000000,662.000000,21.000000,54.000000,51.000000,0.000000:
// measure 0
0000
0000
0000
0000
,  // measure 1
0000
0000
0000
0000
,  // measure 2
1100
0000
1000
0001
0100
0000
0001
1000
0100
1000
0002
0000
0000
0103
0001
0000
,  // measure 3
1000
0000
0100
00M0
0100
0000
0101
0000
2001
0000
3001
0100
0010
1000
0001
0000
,  // measure 4
0010
0000
0100
0000
1000
0000
0001
0000
0100
00M0
0100
0000
1000
0000
0001
0000
0010
0000
0000
0000
0200
0000
0000
0000
1300
0000
0001
0000
0100
0000
0000
0000
,  // measure 5
0002
0000
0103
00M0
0100
0000
1000
0001
0100
0010
0100
0001
1000
0100
0010
0000
,  // measure 6
0012
0000
0000
0000
1003
0000
0001
0100
0010
0000
0100
0000
0001
0010
0001
0010
,  // measure 7
0210
0000
0000
0000
1300
0001
0100
0010
1000
0000
0001
0000
1000
0100
1000
0100
,  // measure 8
0120
0000
0000
0000
0031
1000
0010
0000
0100
0000
0001
1000
0100
0010
0001
1000
,  // measure 9
1020
0000
0000
0000
0130
0001
0100
0001
1000
0100
0000
0100
0010
0000
0010
0001
,  // measure 10
0200
0000
0301
0010
0M00
0010
1000
0001
1000
0100
00M0
0100
0001
1000
0001
0010
,  // measure 11
0M00
0010
1000
0001
0100
0001
1000
0100
00M0
0100
0001
1000
0100
0010
0001
0100
,  // measure 12
00M0
0100
1000
0000
0001
0100
0001
1000
0100
00M0
0100
0001
1000
0001
0010
0M00
,  // measure 13
0010
1000
0001
0000
1000
0100
1000
0001
0100
0001
1000
0100
00M0
0100
0001
0000
,  // measure 14
1000
0100
1000
0000
0001
0100
0010
1000
0001
1000
0100
00M0
0100
0001
1000
0001
,  // measure 15
0010
0100
1000
0001
0100
0010
0100
0001
1000
0001
0010
0M00
0020
0000
1030
0001
,  // measure 16
0010
0100
0010
0001
1000
0010
0100
0001
1000
0001
0100
00M0
0200
0000
1300
0001
,  // measure 17
0200
0000
0310
1000
0001
0010
0100
1000
0001
0100
0000
0100
0010
0000
0010
1000
,  // measure 18
0100
0000
1000
0010
0M00
0010
0001
0000
1000
0100
00M0
0100
0001
0000
1000
0010
,  // measure 19
0M00
0010
0001
0000
1000
0100
00M0
0100
0010
0000
0001
0010
0100
0000
0001
0000
,  // measure 20
0101
0000
1000
0100
00M0
0100
0001
0000
1000
0010
0M00
0010
0001
0000
1000
0100
,  // measure 21
00M0
0100
0001
0000
1000
0010
0M00
0010
0100
0000
0001
0100
1000
0000
0001
0000
,  // measure 22
0200
0000
0000
0000
0320
0000
0000
0000
1030
0000
0001
0000
0100
00M0
0100
0000
1000
0000
0100
0000
0020
0000
0000
0000
0032
0000
0000
0000
1003
0000
0001
0000
,  // measure 23
0100
00M0
0100
0000
1000
0000
0001
0000
0020
0000
0000
0000
0230
0000
0000
0000
0310
0000
0001
0000
0200
0000
0000
0000
0320
0000
0000
0000
1030
0000
0001
0000
,  // measure 24
0010
0000
0000
0000
0100
0000
0000
0000
2000
0000
0000
0000
3001
0000
1000
0000
0010
0M00
0010
0000
0001
0000
1000
0000
0200
0000
0000
0000
0310
0000
0000
0000
,  // measure 25
0100
1000
0001
0100
0001
0000
1000
0100
1000
0001
0000
0001
0100
0000
0100
0001
,  // measure 26
0010
0000
0001
1000
0010
0000
1000
0001
1000
0100
0020
0000
0000
0031
0200
0000
,  // measure 27
0301
0000
0100
00M0
0100
0000
1100
0000
1002
0000
1003
0100
0010
0001
1000
0000
,  // measure 28
0010
0000
0100
0000
0001
0000
1000
0000
0100
00M0
0100
0000
0001
0000
1000
0000
0010
0000
0000
0000
0200
0000
0000
0000
0310
0000
1000
0000
0200
0000
0000
0000
,  // measure 29
2300
0000
3100
00M0
0100
0000
0001
1000
0100
0010
0100
1000
0001
0100
0010
0000
,  // measure 30
2010
0000
0000
0000
3001
0000
1000
0100
0010
0000
0100
0000
1000
0010
1000
0010
,  // measure 31
0210
0000
0000
0000
0301
1000
0100
0010
0001
0000
1000
0000
0001
0100
0001
0100
,  // measure 32
0120
0000
0000
0000
1030
0001
0010
0000
0100
0000
1000
0001
0100
0010
1000
0001
,  // measure 33
0021
0000
0000
0000
0130
1000
0100
1000
0001
0100
0000
0100
0010
0000
0010
1000
,  // measure 34
0100
0010
0001
1000
0010
0100
0001
1000
0100
00M0
0100
0001
1000
0100
0010
0000
,  // measure 35
0001
1000
0010
0100
0010
1000
0001
1000
0100
00M0
0100
0001
1000
0100
0020
0000
,  // measure 36
0031
1000
0001
0100
0010
1000
0001
1000
0100
00M0
0100
0001
0000
1000
0100
1000
,  // measure 37
0001
0010
0001
1000
0010
0M00
0010
0001
1000
0010
1000
0100
00M0
0100
0001
1000
,  // measure 38
0100
0010
0000
0001
0000
0100
0010
0100
0000
0001
0000
0010
0100
0010
0000
0001
,  // measure 39
0000
1000
0010
0100
0001
1000
0100
1000
0010
0100
0000
0010
0000
1000
0001
0010
,  // measure 40
0100
1000
0001
0100
0001
1000
0100
1000
0010
0100
0000
0010
0000
1000
0100
0010
,  // measure 41
0000
0100
0000
1000
0001
0100
0010
1000
0100
0010
0000
0100
0000
0000
0000
0000
,  // measure 42
1001
0000
1000
0001
1000
0100
0010
0001
0100
00M0
0100
00M0
0100
00M0
0100
0000
,  // measure 43
1000
0001
0010
0100
1000
0001
0100
0001
0010
0M00
0010
0M00
0010
0M00
0010
0000
,  // measure 44
1000
0001
0010
0001
1000
0000
0010
1000
0100
00M0
0100
00M0
0100
00M0
0100
0000
,  // measure 45
0001
1000
0010
0100
0001
1000
0100
1000
0010
0M00
0010
0M00
0010
0M00
0010
0000
,  // measure 46
0002
0000
0000
0000
0203
0000
0000
0000
0301
0000
1000
0000
0010
0M00
0010
0000
0001
0000
0010
0000
0200
0000
0000
0000
2300
0000
0000
0000
3001
0000
1000
0000
,  // measure 47
0100
00M0
0100
0000
0001
0000
1000
0000
0200
0000
0000
0000
0320
0000
0000
0000
0130
0000
1000
0000
0020
0000
0000
0000
0230
0000
0000
0000
0301
0000
1000
0000
,  // measure 48
0100
0000
0000
0000
0010
0000
0000
0000
0002
0000
0000
0000
1003
0000
0001
0000
0100
00M0
0100
0000
1000
0000
0001
0000
0020
0000
0000
0000
0130
0000
0000
0000
,  // measure 49
0010
0001
1000
0010
1000
0000
0001
0010
0001
1000
0000
1000
0010
0000
0010
1000
,  // measure 50
0100
0000
1000
0001
0100
0000
0001
1000
0001
0010
0200
0000
0000
1300
0020
0000
,  // measure 51
1030
0000
0010
0M00
0010
0000
0011
0000
2001
0000
3001
0100
0010
1000
0001
0000
,  // measure 52
0010
0000
0100
0000
1000
0000
0001
0000
0100
00M0
0100
0000
1000
0000
0001
0000
0010
0000
0000
0000
0200
0000
0000
0000
0310
0000
0001
0000
0200
0000
0000
0000
,  // measure 53
0302
0000
0103
00M0
0100
0000
1000
0001
0100
0010
0100
0001
1000
0100
0010
0000
,  // measure 54
0012
0000
0000
0000
1003
0000
0001
0100
0010
0000
0100
0000
0001
0010
0001
0010
,  // measure 55
0210
0000
0000
0000
1300
0001
0100
0010
1000
0000
0001
0000
1000
0100
1000
0100
,  // measure 56
0120
0000
0000
0000
0031
1000
0010
0000
0100
0000
0001
1000
0100
0010
0001
1000
,  // measure 57
1020
0000
0000
0000
0130
0001
0100
0001
1000
0100
0000
0100
0010
0000
0010
0001
,  // measure 58
0200
0300
0000
0000
;

//---------------dance-single - Feraligatr----------------
#NOTES:
     dance-single:
     Feraligatr SM:
     Medium:
     8:
     0.574651,0.525564,0.458647,0.451128,0.357143,535.000000,474.000000,61.000000,60.000000,6.000000,0.000000,0.574651,0.525564,0.458647,0.451128,0.357143,535.000000,474.000000,61.000000,60.000000,6.000000,0.000000:
0000
0000
0000
0000
,
0000
0000
0000
0000
,
1001
0000
0001
0000
1000
0000
0010
0000
0100
0000
0002
0000
0000
1003
0001
0000
,
0100
0000
0010
0000
1000
0000
1100
0000
1002
0000
0103
0000
0010
1000
0001
0000
,
0010
0000
0100
0000
0010
0000
0001
0000
1000
0000
0020
0000
0130
0001
1000
0000
,
0100
0000
0010
0000
0011
0000
0001
0000
1001
0000
1000
0000
0001
1000
0100
0000
,
0120
0000
0000
0000
0031
0000
0110
0000
0100
0000
1000
0000
0001
0100
0001
0100
,
0020
0000
0000
0000
1030
0000
0110
0000
0100
0000
0001
0000
1000
0100
1000
0100
,
0020
0000
0000
0000
0031
0000
0110
0000
0100
0000
1000
0000
0001
0100
0001
0100
,
0020
0000
0000
0030
2010
0000
0000
3000
2010
0000
0000
3000
2010
0000
0000
3000
,
1001
0000
0001
0010
0000
0010
0100
0000
1000
0001
0000
0001
0100
0000
0010
1000
,
0000
1000
0001
0000
0010
0000
0100
1000
0000
1000
0001
0000
0100
0000
0010
1000
,
0000
1000
0001
0000
0010
0000
0100
0000
1000
0000
0001
0000
0100
0010
1000
0000
,
0001
1000
0100
0010
0011
0001
1001
1000
,
1010
0000
0010
0000
0100
0000
0001
0000
1000
0100
0010
0000
0001
0000
1000
0000
,
0010
0000
0100
0000
0001
0000
1000
0000
0100
0010
0001
0000
1001
0000
1000
0000
,
1010
0000
0010
0000
0100
0000
0001
0000
1000
0100
0010
0000
0001
0000
1000
0010
,
0100
0000
0000
0000
0201
0000
0000
0300
0201
0000
0000
0300
0201
0000
0000
0300
,
1001
0000
1000
0100
0000
1000
0100
0000
0010
0001
0000
0001
1000
0000
0001
0100
,
0000
0001
0100
0000
0010
1000
0000
1000
0001
0000
1000
0100
1000
0000
0001
0000
,
1001
0000
0001
0100
0000
0001
0100
0000
0010
1000
0000
1000
0001
0000
1000
0100
,
0000
1000
0100
0000
0010
0001
0000
0001
0100
0000
0010
1000
0100
0000
0010
0000
,
0002
0000
0000
0000
0203
0000
0000
0000
0301
0000
0000
0000
1000
0000
0000
0000
0100
00M0
0100
0000
0002
0000
0000
0000
2003
0000
0000
0000
3010
0000
0000
0000
,
0100
0000
0000
0000
0001
0000
0000
0000
2000
0000
0000
0000
3002
0000
0000
0000
0103
00M0
0100
0000
2000
0000
0000
0000
3002
0000
0000
0000
0003
0000
0000
0000
,
0100
0000
0000
0000
0010
0000
0000
0000
2000
0000
0000
0000
3001
0000
0000
0000
0100
00M0
0100
0000
1000
0000
0000
0000
0001
0000
0000
0000
0010
0000
0000
0000
,
0100
0000
1000
0000
1200
0000
0000
0300
1200
0000
0000
0300
1200
0000
0000
0300
,
1001
0000
1000
0000
0001
0000
0100
0000
0010
0000
2000
0000
0000
3001
1000
0000
,
0010
0000
0100
0000
0001
0000
0011
0000
2001
0000
3010
0000
0100
0001
1000
0000
,
0100
0000
0010
0000
0100
0000
1000
0000
0001
0000
0200
0000
0310
1000
0001
0000
,
0010
0000
0100
0000
1100
0000
1000
0000
1001
0000
0001
0000
1000
0001
0010
0000
,
0210
0000
0000
0000
1300
0000
0110
0000
0010
0000
0001
0000
1000
0010
1000
0010
,
0200
0000
0000
0000
0301
0000
0110
0000
0010
0000
1000
0000
0001
0010
0001
0010
,
0200
0000
0000
0000
1300
0000
0110
0000
0010
0000
0001
0000
1000
0010
1000
0010
,
0200
0000
0000
0300
0102
0000
0000
0003
0102
0000
0000
0003
0102
0000
0000
0003
,
1001
0000
1000
0000
0010
0000
0100
0001
1000
0000
0100
0000
0010
0000
0001
0000
,
1000
0000
0010
0000
0100
0000
0001
1000
0100
0000
0010
0000
1100
0000
1000
0000
,
1001
0000
0001
0000
0100
0000
0010
1000
0001
0000
0010
0000
0100
0000
1000
0000
,
0001
0000
0100
0000
0001
0000
1000
0100
0010
0000
0001
0000
0011
0000
0010
0000
,
0100
1000
0000
0001
0000
0100
0010
0100
0000
0001
0000
0010
0100
0010
0000
0001
,
0000
0000
1000
0000
0010
0000
0100
0000
0001
0010
0000
0100
0000
0000
1000
0000
,
1001
0000
0001
0000
0100
0000
0010
0000
1000
0100
0000
0010
0000
0000
0001
0000
,
0100
0000
0000
0000
0120
0000
0000
0030
0120
0000
0000
0030
0000
0000
0000
0000
,
1010
0000
0001
0000
1000
0100
0010
0000
0001
0000
1000
0000
0001
0000
1000
0000
,
0010
0000
0100
0000
0001
1000
0100
0000
0010
0000
0001
0000
0010
0000
0001
0000
,
1000
0000
0010
0100
0001
0000
1000
0000
0100
0000
0010
0000
0100
0000
0010
0000
,
0001
0000
1000
0010
0100
0000
0001
0000
1000
0000
0100
0000
1000
0000
0100
0000
,
2000
0000
0000
0000
3020
0000
0000
0000
1030
0000
0000
0000
0001
0000
0000
0000
0100
00M0
0100
0000
2000
0000
0000
0000
3002
0000
0000
0000
0013
0000
0000
0000
,
0100
0000
0000
0000
1000
0000
0000
0000
0002
0000
0000
0000
2003
0000
0000
0000
3100
00M0
0100
0000
0002
0000
0000
0000
2003
0000
0000
0000
3000
0000
0000
0000
,
0100
0000
0000
0000
0010
0000
0000
0000
0002
0000
0000
0000
1003
0000
0000
0000
0100
00M0
0100
0000
0001
0000
0000
0000
1000
0000
0000
0000
0010
0000
0000
0000
,
0100
0000
0001
0000
0201
0000
0000
0300
0201
0000
0000
0300
0201
0000
0000
0300
,
1001
0000
0001
0000
1000
0000
0010
0000
0100
0000
0002
0000
0000
1003
0001
0000
,
0010
0000
0100
0000
1000
0000
1010
0000
1002
0000
0013
0000
0100
1000
0001
0000
,
0100
0000
0010
0000
0100
0000
0001
0000
1000
0000
0200
0000
0310
0001
1000
0000
,
0010
0000
0100
0000
0101
0000
0001
0000
1001
0000
1000
0000
0001
1000
0010
0000
,
0210
0000
0000
0000
0301
0000
0110
0000
0010
0000
1000
0000
0001
0010
0001
0010
,
0200
0000
0000
0000
1300
0000
0110
0000
0010
0000
0001
0000
1000
0010
1000
0010
,
0200
0000
0000
0000
0301
0000
0110
0000
0010
0000
1000
0000
0001
0010
0001
0010
,
0200
0000
0000
0300
2100
0000
0000
3000
2100
0000
0000
3000
2100
0000
0000
0000
,
3002
0003
0000
0000
;

//---------------dance-single - Feraligatr----------------
#NOTES:
     dance-single:
     Feraligatr SE:
     Easy:
     5:
     0.358754,0.350376,0.496241,0.180451,0.000000,334.000000,268.000000,66.000000,24.000000,0.000000,0.000000,0.358754,0.350376,0.496241,0.180451,0.000000,334.000000,268.000000,66.000000,24.000000,0.000000,0.000000:
0000
0000
0000
0000
,
0000
0000
0000
0000
,
1001
0000
1000
0000
0100
0020
0000
0031
,
1000
0000
0010
0000
1000
0000
0100
0000
0100
0000
0000
0000
0012
0000
0000
0003
,
1001
0000
0001
0000
0100
0001
1000
0100
,
0010
0011
1001
1010
,
0110
0000
0000
0110
0000
0000
0001
0000
,
1001
0000
0000
0000
0000
0000
1001
0000
0000
0000
0000
0000
0020
0000
0000
0030
,
0110
0000
0000
0110
0000
0000
0001
0000
,
1000
1100
0110
0011
,
1001
0000
0001
0100
0010
0000
1000
0000
,
0001
0000
0000
0000
0010
0000
0100
0000
1000
0000
0000
0000
1002
0000
0000
0003
,
0101
0000
0100
0010
1000
0000
0001
0000
,
0010
0000
0000
0000
0100
0000
1000
0000
0002
0000
0000
0003
0002
0000
0000
0003
,
0101
0000
0100
0010
1000
0000
0001
0000
,
0010
0000
0000
0000
0100
0000
1000
0000
0001
0000
0000
0000
0200
0000
0000
0300
,
0110
0000
0010
1000
0001
0000
0010
0000
,
0100
1100
1001
0101
,
0110
0000
0001
0000
1000
0100
1000
0000
,
0001
0000
0100
0000
0001
0000
0000
0000
1000
0000
0100
0000
0020
0000
0000
0030
,
0011
0000
0001
0000
1000
0010
1000
0000
,
0001
0000
0010
0000
0002
0000
0000
0003
0002
0000
0000
0003
0002
0000
0000
0003
,
0001
0000
0100
0000
0010
1000
0001
0000
,
0010
0000
0100
0000
1000
0001
2000
0000
,
3010
0000
0100
0000
0001
1000
0100
0000
,
0010
0011
1001
1010
,
0110
0000
0001
0000
0010
0200
0000
1300
,
0001
0000
0100
0000
0001
0000
0010
0000
0010
0000
0000
0000
2100
0000
0000
3000
,
1001
0000
1000
0000
0010
1000
0001
0010
,
0100
1100
1001
0101
,
0110
0000
0000
0110
0000
0000
1000
0000
,
1001
0000
0000
0000
0000
0000
1001
0000
0000
0000
0000
0000
0200
0000
0000
0300
,
0110
0000
0000
0110
0000
0000
1000
0000
,
0001
0011
0110
1100
,
0001
0100
0001
0100
0010
0000
1000
0000
,
0001
0010
0001
0010
0100
0000
1000
0001
,
1000
0010
1000
0010
0100
0000
0001
0000
,
1000
0000
0100
0000
1000
0000
0100
0000
0020
0000
0000
0030
0020
0000
0000
0030
,
0011
0000
1000
0000
0001
0100
0001
0000
,
1000
0000
0000
0000
0100
0000
0000
0000
0010
0000
0001
0000
0020
0000
0000
0030
,
0110
0000
0100
0000
1000
0001
1000
0000
,
0010
0110
0101
0000
,
1001
0000
1000
0000
0001
0010
0001
0010
,
0100
0000
1000
0000
0001
0100
0001
0100
,
0010
0000
1000
0000
0100
0010
0100
0010
,
0001
0000
2000
0000
3010
0100
0010
0100
,
0001
0000
0010
0000
0100
1000
0001
0000
,
0100
0000
0010
0000
1000
0001
2000
0000
,
3100
0000
0010
0000
0001
1000
0010
0000
,
0100
0101
1001
1100
,
0110
0000
0001
0000
0100
0020
0000
1030
,
0001
0000
0010
0000
0001
0000
0100
0000
0100
0000
0000
0000
2010
0000
0000
3000
,
1001
0000
1000
0000
0100
1000
0001
0100
,
0010
1010
1001
0011
,
0110
0000
0000
0110
0000
0000
1000
0000
,
1001
0000
0000
0000
0000
0000
1001
0000
0000
0000
0000
0000
0020
0000
0000
0030
,
0110
0000
0000
0110
0000
0000
1000
0000
,
0001
0101
0110
1010
,
0002
0003
0000
0000
;

//---------------dance-single - Feraligatr----------------
#NOTES:
     dance-single:
     Feraligatr SN:
     Beginner:
     2:
     0.164339,0.218985,0.112782,0.007519,0.000000,153.000000,138.000000,15.000000,1.000000,0.000000,0.000000,0.164339,0.218985,0.112782,0.007519,0.000000,153.000000,138.000000,15.000000,1.000000,0.000000,0.000000:
0000
0000
0000
0000
,
0000
0000
0000
0000
,
1001
0000
1000
0000
,
0100
0000
0010
0000
,
0100
0000
1000
0000
,
0001
0100
0100
0100
,
0110
0000
0000
0000
,
1001
0000
0000
0000
,
0110
0000
0000
0000
,
1001
0001
0001
0001
,
0100
0000
0010
0000
,
1000
0000
0001
0000
,
0010
0000
0100
0000
,
0010
0000
0001
0001
,
1000
0000
0010
0000
,
0100
0000
0001
0000
,
1000
0000
0100
0000
,
0010
0001
0001
0001
,
1000
0000
0010
0000
,
0100
0000
0001
0000
,
1000
0000
0100
0000
,
0010
0001
0001
0001
,
1000
0000
0010
0000
,
0100
0000
0001
1000
,
0100
0000
0010
0000
,
0001
1000
1000
1000
,
1001
0000
0001
0000
,
0100
0000
0010
0000
,
0100
0000
0001
0000
,
1000
0100
0100
0100
,
0110
0000
0000
0000
,
1001
0000
0000
0000
,
0110
0000
0000
0000
,
1001
1000
1000
1000
,
0001
0000
0010
0000
,
0100
0000
1000
0000
,
0001
0000
0100
0000
,
0010
0000
1000
1000
,
0001
0000
0010
0000
,
0100
0000
0010
0000
,
0001
0000
1000
0000
,
0010
0100
0100
0000
,
0001
0000
0000
0000
1000
0001
1000
0001
,
0000
0000
0000
0000
0010
0100
0010
0100
,
0000
0000
0000
0000
1000
0001
1000
0001
,
0000
0000
0000
0000
0100
0010
0100
0010
,
1000
0000
0100
0000
,
0010
0000
0001
1000
,
0010
0000
0100
0000
,
0001
1000
1000
1000
,
1001
0000
0001
0000
,
0010
0000
0100
0000
,
0010
0000
0001
0000
,
1000
0010
0010
0010
,
0110
0000
0000
0000
,
1001
0000
0000
0000
,
0110
0000
0000
0000
,
1001
1000
1000
1000
,
0200
0300
0000
0000
;
