#TITLE:Young Killa;
#SUBTITLE:;
#ARTIST:S2i8;
#TITLETRANSLIT:;
#SUBTITLETRANSLIT:;
#ARTISTTRANSLIT:;
#GENRE:;
#CREDIT:;
#MUSIC:Young Killa.ogg;
#BANNER:young_killa-bn.png;
#BACKGROUND:young_killa-bg.png;
#CDTITLE:;
#SAMPLESTART:40.009;
#SAMPLELENGTH:14.400;
#SELECTABLE:YES;
#OFFSET:0.009;
#BPMS:0.000=150.000
,116.000=300.000
,117.500=150.000
,156.000=300.000
,156.375=60.000
,156.500=300.000
,156.875=60.000
,157.000=150.000
,205.500=300.000
,206.000=150.000
,220.000=300.000
,221.500=150.000
;
#STOPS:116.000=0.050
,116.250=0.100
,116.750=0.050
,117.000=0.050
,117.250=0.050
,205.500=0.100
,220.000=0.050
,220.250=0.100
,220.750=0.050
,221.000=0.050
,221.250=0.050
;
#DISPLAYBPM:150.000;
#BGCHANGES:;
#FGCHANGES:;

//--------------- dance-single - sangyule ----------------
#NOTES:
     dance-single:
     sangyule:
     Beginner:
     1:
     0.09058,0.151721,0.072464,0,0,70,62,8,0,0,0,0.09058,0.151721,0.072464,0,0,70,62,8,0,0,0:
0000
0000
0000
0000
,
0000
0000
0000
0000
,
0000
0000
0000
0000
,
0000
0000
0000
0000
,
0000
0000
0000
0000
,
0000
0000
0000
0000
,
0000
0000
0000
0000
,
0000
0000
0000
0000
,
0000
0000
0000
0000
,
1000
0000
0000
0000
,
0001
0000
0000
0000
,
0010
0000
0000
0000
,
0100
0000
0000
0000
,
1000
0000
0000
0000
,
0000
0000
0000
0000
,
1000
0000
0000
0000
,
0000
0000
0000
0000
,
0001
0000
0000
0000
,
0001
0000
0000
0000
,
1000
0000
0000
0000
,
1000
0000
0000
0000
,
0010
0000
0000
0000
,
0100
0000
0000
0000
,
0001
0000
0001
0000
,
1000
0000
0000
0000
,
0000
0000
1001
0000
,
0000
0000
0001
0000
,
0000
0000
0100
0000
,
0000
0000
0010
0000
,
0000
0000
0110
0000
,
0000
0000
1000
0000
,
0000
0000
0001
0000
,
0000
0000
0010
0000
,
0010
0000
0001
0000
,
0000
0000
1000
0000
,
0000
0000
0100
0000
,
0000
0000
1000
0000
,
0000
0000
1001
0000
,
0000
0000
0001
0000
,
0000
0000
0100
0000
,
0000
0000
0001
0000
,
0001
0000
0000
0000
,
0001
0000
0000
0000
,
1000
0000
0000
0000
,
1000
0000
0000
0000
,
0100
0000
0000
0000
,
0010
0000
0000
0000
,
0001
0000
0001
0000
,
1000
0000
0000
0000
,
1001
0000
0000
0000
,
0000
0000
0000
0000
,
0000
0000
1001
0000
,
0000
0000
1000
0000
,
0010
0000
0000
0000
,
0010
0000
0000
0000
,
0000
0000
0110
0000
,
0000
0000
0001
0000
,
1000
0000
0000
0000
,
1000
0000
0000
0000
,
0000
0000
1001
0000
,
0000
0000
0001
0000
,
0010
0000
0010
0000
,
0100
0000
0100
0000
,
0000
0000
1001
0000
,
0000
0000
1000
0000
,
0001
0000
0001
0000
,
0001
0000
0000
0000
,
0100
0000
0000
0000
;

//--------------- dance-single - sangyule ----------------
#NOTES:
     dance-single:
     sangyule:
     Easy:
     3:
     0.221273,0.304574,0.172101,0.380435,0,171,152,19,42,0,0,0.221273,0.304574,0.172101,0.380435,0,171,152,19,42,0,0:
0000
0000
0000
0000
,
0000
0000
0000
0000
,
0000
0000
0000
0000
,
0000
0000
0000
0000
,
0000
0000
0000
0000
,
0000
0000
0000
0000
,
0000
0000
0000
0000
,
0000
0000
0000
0000
,
0000
0000
0000
0000
,
2000
0000
0000
3000
,
0002
0000
0000
0000
0003
1000
0000
0000
,
0200
0000
0000
0300
,
0020
0000
0000
0000
0030
0001
0000
0000
,
2000
0000
0000
3000
,
0020
0000
0000
0000
0030
0100
0000
0000
,
0002
0000
0000
0003
,
2000
0000
0000
0000
3000
0001
0000
0000
,
1000
0000
1000
0000
,
0001
0000
0001
0000
,
0100
0000
0100
0000
,
0010
0000
0010
0000
,
1000
0001
1000
0100
,
0010
0001
0010
0001
,
1000
0010
0100
0002
,
0103
0000
0000
0000
,
0010
0000
1001
0000
,
0100
0000
1001
0000
,
0010
0000
1001
1000
,
0010
0010
0100
0200
,
0302
0000
0013
0000
,
0001
0000
0110
0000
,
1000
0000
0110
0001
,
1000
1000
0010
0100
,
0002
0003
0011
0000
,
1000
0000
1010
0000
,
0001
0000
0101
0100
,
0010
0010
1000
0002
,
0013
0000
1100
0000
,
1000
0000
0011
0000
,
0002
0003
1010
0010
,
0100
0100
0001
1000
,
0100
0000
0100
0000
,
0010
0000
0010
0000
,
0001
0000
0001
0000
,
1000
0000
1000
0000
,
0001
0100
0001
0100
,
0010
1000
0010
1000
,
0001
0010
0100
2000
,
3001
0000
0000
0000
,
2002
0000
0000
0000
,
0000
3003
0000
0000
,
0100
0000
1001
0002
,
1003
2000
3100
0200
,
0320
0031
0020
0031
,
0020
0000
0130
0000
1100
0000
0000
1000
,
0000
0000
1001
2000
,
3010
0020
0130
0200
,
0302
0103
0002
1003
,
0200
0310
0001
1000
,
0020
0030
0210
0000
,
0301
0000
0012
0000
,
2003
3100
2000
3100
,
0020
0031
0020
0130
,
0000
0000
1002
0000
,
0103
0000
2010
0000
,
3002
0013
0002
0013
,
0200
1300
0001
0100
,
0020
0030
0000
0000
;

//--------------- dance-single - sangyule ----------------
#NOTES:
     dance-single:
     sangyule:
     Medium:
     6:
     0.331263,0.424819,0.289855,0.434783,0.018116,256,224,32,48,20,0,0.331263,0.424819,0.289855,0.434783,0.018116,256,224,32,48,20,0:
0000
0000
0000
0000
,
0000
0000
0000
0000
,
0000
0000
0000
0000
,
0000
0000
0000
0000
,
0000
0000
0000
0000
,
0000
0000
0000
0000
,
0000
0000
0000
0000
,
0000
0000
0000
0000
,
0000
0000
0000
0000
,
2200
0000
0000
3300
,
0022
0000
0000
0033
0000
1100
0000
0000
,
2002
0000
0000
3003
,
0220
0000
0000
0330
0000
1010
0000
0000
,
0202
0000
0000
0303
,
2002
0000
0000
3003
0000
1100
0000
0000
,
0220
0000
0000
0330
,
0022
0000
0000
0033
0000
1010
0000
0000
,
1000
0000
0001
0000
0010
0000
0100
1000
,
0001
0000
1000
0000
0010
0000
0100
0001
,
1000
0000
0001
0000
0010
0000
0100
1000
,
0001
1000
0010
0100
,
0101
0000
0000
0000
0001
0000
0000
0000
0010
0000
0000
0100
0000
0000
0010
0000
,
0100
0000
0000
0000
1000
0000
0000
0000
0001
0000
0000
0100
0000
0000
0010
0000
,
1000
0001
1000
0001
0010
0100
2000
0000
,
300M
00MM
0MMM
MMMM
,
2000
0000
0000
3000
0011
0000
0001
0000
,
0100
0010
1010
1000
,
0100
0000
0010
0000
0011
0000
0001
1000
,
0010
0100
0010
0100
0002
0000
1003
0000
,
0000
0000
1100
0100
,
0010
0001
0101
0100
,
0010
0000
1000
0000
1100
0000
0100
0010
,
0001
1000
0001
1000
0020
0000
0230
0000
,
0302
0000
0000
0003
1100
0000
1000
0000
,
0010
0100
0101
0001
,
1000
0000
0100
0000
0011
0000
0010
0001
,
1000
0010
1000
0010
0100
0000
0002
0000
,
1003
0000
1100
0100
,
0010
0001
0101
0100
,
0020
0000
1030
0000
1001
0000
0001
0010
,
0100
1000
0001
1000
0020
0000
0230
0000
,
0301
0000
1000
0000
0001
0000
1000
0100
,
0010
0000
0100
0000
0010
0000
0001
1000
,
0001
0000
0100
0000
0001
0000
0100
0010
,
1000
0000
0010
0000
1000
0000
0001
0010
,
0100
0000
0000
0000
0010
0000
0000
0000
0001
0000
0000
1000
0000
0000
0001
0000
,
0100
0000
0000
0000
0010
0000
0000
0000
1000
0000
0000
0001
0000
0000
1000
0000
,
0100
1000
0001
0100
0010
0100
0002
0000
,
M003
MM00
MMM0
MMMM
,
2002
0000
0000
0000
,
0000
3003
0000
0000
,
0000
0000
2001
0001
,
0100
0100
0001
0001
,
3002
0010
2003
0010
,
3002
0000
0103
0010
1000
0000
0001
1000
,
0100
0000
0012
0010
,
1000
1000
0100
0100
,
2003
0000
0100
0000
3002
0000
0100
0100
,
2003
0000
3010
0100
0002
0000
1003
0000
,
0200
0300
1100
0001
,
0010
0001
0101
0100
,
0020
1000
0230
0001
,
0302
0000
0013
0100
2000
0000
0100
0000
,
3001
0000
0011
1000
,
0010
0100
0101
0001
,
0020
0000
0001
0000
0230
0000
1000
1000
,
0320
0000
0031
0100
0020
0000
2030
0000
,
3100
0000
0000
0000
;

//--------------- dance-single - sangyule ----------------
#NOTES:
     dance-single:
     sangyule:
     Hard:
     10:
     0.593944,0.819293,0.407609,0.144928,0.380435,459,414,45,16,45,0,0.593944,0.819293,0.407609,0.144928,0.380435,459,414,45,16,45,0:
0000
0000
0000
0000
,
0000
0000
0000
0000
,
0000
0000
0000
0000
,
0000
0000
0000
0000
,
0000
0000
0000
0000
,
0000
0000
0000
0000
,
0000
0000
0000
0000
,
0000
0000
0000
0000
,
0000
0000
0000
0000
,
1001
1000
0001
0100
0000
0001
1000
0100
,
1100
1000
0001
0010
0000
0110
0100
1000
,
1001
0001
0100
0010
0000
1000
0001
0010
,
0110
0100
1000
0001
0000
0011
0010
0001
,
0101
0100
0010
1000
0000
0001
0010
0100
,
1100
1000
0010
0100
0000
0101
0001
1000
,
1001
0001
0010
0100
0000
1000
0001
0100
,
0110
0010
1000
0100
0000
1100
1000
0001
,
1001
0000
1000
0000
0010
0000
0100
0000
0001
0000
1000
0000
0001
0000
0010
0100
,
1000
0000
0001
0000
0100
0000
0001
0000
1000
0000
0100
0000
1000
0000
0001
0010
,
0100
0000
1000
0000
0001
0000
0100
0000
0010
0000
1000
0000
0100
0000
0010
0001
,
1000
0001
0100
0010
1000
0001
0010
0001
,
1001
0000
1000
0000
0010
0000
1000
0000
0001
0000
0010
0100
0000
0010
0100
0000
,
1000
0000
0001
0000
0100
0000
0010
0000
1000
0000
0001
0010
0000
0001
0010
0000
,
0100
1000
0001
0100
0010
1000
0001
0010
0001
1000
0010
0100
0002
0000
0000
0000
,
M003
MM00
MMM0
MMMM
,
4000
0000
0000
3001
1100
0010
0001
0010
,
1000
0100
0001
0100
1010
0100
0001
0100
,
1000
0000
0010
0000
0100
0000
0100
0000
0011
0000
1000
0001
1000
0100
1000
0100
,
0010
0001
0010
0001
1000
0010
0100
0001
0010
0100
1000
0001
0400
0000
0000
0000
,
0301
00M0
0000
M000
0000
M000
0000
0000
1001
0000
1000
0000
0010
0000
1000
0000
,
0001
0010
1000
0010
0101
0010
1000
0010
,
0001
0000
0100
0000
0010
0000
0010
0000
1100
0000
0001
1000
0001
0010
0001
0010
,
0100
1000
0100
1000
0001
0100
0010
1000
0022
0000
0000
0033
2000
0000
0000
0000
,
3200
0000
0301
0100
1010
0000
0001
0100
,
1000
0000
0100
0001
1100
0000
0001
0010
,
1000
0000
0000
0000
0010
0000
0010
0000
0101
0000
1000
0001
0100
0010
1000
0001
,
1000
0001
0010
0100
0010
0100
1000
0001
0100
0010
1000
0010
0400
0000
0000
0000
,
0301
M000
0000
00M0
0000
0000
0000
0000
1001
0000
0000
0000
1000
0000
0100
0000
,
0001
0000
0100
1000
0101
0000
1000
0010
,
0400
0000
0000
0000
0301
0000
0001
0000
1010
0000
0001
1000
0100
0010
0100
0010
,
0001
1000
0001
1000
0010
0100
0001
1000
0202
0000
0000
0303
2000
0000
0000
0000
,
3010
0000
0100
0000
0001
0000
1000
0000
0001
0000
0010
0000
0100
0000
1000
0001
,
0100
0000
0010
0000
1000
0000
0001
0000
0010
0000
0100
0000
1000
0000
0001
0100
,
0010
0000
0100
0000
0001
0000
1000
0000
0100
0000
0010
0000
0001
0000
1000
0001
,
0100
0010
1000
0001
0010
0001
1000
0001
,
1001
0000
1000
0000
0010
0000
0100
0000
0001
0000
0100
0010
0000
1000
0100
0000
,
1000
0000
0001
0000
0010
0000
0100
0000
1000
0000
0001
0100
0000
0010
0100
0000
,
0001
1000
0100
0010
0100
1000
0001
1000
0010
0100
0010
1000
0002
0000
0000
0000
,
M003
MM00
MMM0
MMMM
,
2200
0000
0000
000M
0000
0000
00M0
0000
0000
000M
0000
0000
00M0
0000
0000
0000
000M
0000
0000
0000
00M0
0000
0000
0000
0000
0000
000M
0000
0000
0000
0000
0000
00M0
0000
0000
0000
0000
0000
0000
0000
000M
0000
0000
0000
0000
0000
0000
0000
,
00M0
0000
0000
0000
0000
0000
0000
0000
0000
0000
330M
0000
0000
0000
0000
0000
0000
0000
0000
0000
0000
0000
0000
0000
0000
0000
0000
0000
0000
0000
0000
0000
0000
0000
0000
0000
0001
0000
0000
0000
0000
0000
1000
0000
0000
0100
0000
0000
,
0040
0000
0000
0030
M014
0000
0103
0010
,
4000
0000
0000
3001
0010
0000
0100
0000
0040
0000
0000
0000
0031
0000
1000
0000
,
0004
0000
0000
0103
0010
0000
1000
0000
0400
0000
0000
0000
0310
0000
0000
0000
,
0004
0000
0000
1003
0010
0000
0010
0000
1100
0000
0001
0000
1000
0000
0101
0000
,
10M0
00M0
0000
00M0
0000
0000
0000
0000
1004
0000
0000
0000
1003
0000
0100
0000
,
4000
0000
0000
3010
0100
0000
0001
0000
0400
0000
0000
0000
0310
0000
1000
0000
,
0004
0000
0000
0013
0100
0000
1000
0000
0040
0000
0000
0000
0130
000M
0100
0000
,
4000
0000
0000
3001
0100
0000
0100
0000
0022
0000
0000
0033
1000
0000
0101
0000
,
2000
0000
3000
0001
0014
0000
1003
0000
,
0040
0130
0104
1003
,
0400
0310
4100
3010
,
00M4
0000
0103
0010
4100
0000
3001
0000
,
00M0
0M00
0000
00M0
0000
0000
0000
0000
1004
0000
0000
0000
0103
0000
0000
0000
,
0040
1030
4001
3100
,
0040
0000
0000
0000
0130
0000
0000
0000
0014
0000
0000
0000
0103
0010
1000
0000
,
0400
0000
0000
0000
0310
0000
0001
0000
2200
0000
0000
3300
0010
0000
0000
0000
,
0110
0000
0000
0000
;

//--------------- dance-single - sangyule & Maxx ----------------
#NOTES:
     dance-single:
     sangyule & Maxx:
     Challenge:
     12:
     0.857919,1.06601,0.507246,0.317029,0.987319,663,607,56,35,22,0,0.857919,1.06601,0.507246,0.317029,0.987319,663,607,56,35,22,0:
0000
0000
0000
0000
,
0000
0000
0000
0000
,
0000
0000
0000
0000
,
0000
0000
0000
0000
,
0000
0000
0000
0000
,
0000
0000
0000
0000
,
0000
0000
0000
0000
,
0000
0000
0000
0000
,
0000
0000
0000
0000
1000
0001
0100
0010
,
1010
1000
0001
0010
00M0
1000
0001
0100
,
0101
0001
1000
0010
0000
1010
1000
0001
,
0101
0001
1000
0100
0M00
0001
1000
0010
,
0110
0100
0001
1000
0000
0011
0010
0001
,
1001
1000
0001
0100
0M00
1000
0001
0010
,
0110
0100
1000
0001
0000
1010
1000
0001
,
0101
0100
0010
1000
M000
0100
0010
1000
,
1001
0001
0010
0100
0000
2200
0000
3300
,
1001
0000
0001
0000
1000
0000
0010
0000
0100
0000
0010
0000
1000
0000
0001
0000
1000
0000
0100
0000
0010
0001
1000
0001
,
0100
0000
0010
0000
0100
0000
0001
0000
1000
0000
0001
0000
0010
0000
0100
0000
0010
0000
0001
0000
1000
0001
0100
0010
,
1000
0000
0001
0000
1000
0000
0100
0000
0010
0000
0100
0000
1000
0000
0010
0000
1000
0000
0001
0000
0010
0001
1000
0010
,
0100
0000
0001
0000
1000
0000
0100
0000
0010
0000
0100
0000
1000
0000
0010
0000
1000
0000
0001
0000
0010
0100
1000
0001
,
0100
0000
0010
0000
0100
0000
0001
0000
0010
0000
0100
1000
0001
0000
1000
0000
,
0001
0000
0100
0000
0010
0000
1000
0000
0100
0000
0010
0001
1000
0000
0001
0000
,
1000
0010
0100
0001
1000
0100
1000
0001
0100
0010
1000
0100
0010
0002
0000
0000
,
M003
0000
0000
0000
MM00
0000
0000
0000
0001
0000
0100
0000
0010
1000
0001
1000
,
0001
0010
0100
0010
1000
0010
0100
0000
1010
0001
1000
0010
0100
1000
0100
0010
,
1000
0001
0010
0100
0001
0100
0010
0001
1010
0001
1000
0010
0100
1000
0100
0010
,
1000
0001
0010
0100
1000
0000
1000
0000
0101
1000
0001
1000
0100
0100
0010
0010
,
0001
0100
0100
1000
0010
0010
0001
1000
0101
0010
0010
1000
0002
0000
0000
0003
,
0100
0010
0000
1000
0100
1000
0001
0100
0011
1000
0001
0010
0100
0001
0100
0010
,
0001
1000
0010
0100
1000
0100
0010
1000
0011
1000
0001
0010
0100
0001
0100
0010
,
0001
1000
0010
0100
0001
0000
0001
0000
1100
0001
1000
0001
0100
0100
0010
0010
,
1000
0100
0100
0001
0010
0010
1000
0001
2200
0000
0000
3300
2002
0000
0000
3003
,
0220
0000
0000
0330
1000
0001
0010
0000
0101
0000
0010
0000
1000
0000
0010
0100
,
1000
0001
0100
0000
1000
0000
0100
0001
1100
0001
0010
0100
0001
0000
0100
0010
,
0001
1000
0100
0000
0010
0000
0010
0000
0101
0010
0001
1000
0010
0010
0100
0100
,
0001
0010
0010
1000
0100
0100
0001
1000
0011
0100
0100
1000
0002
0000
0000
0000
,
1M03
00M0
0000
0M00
0001
0010
0100
1000
0011
0000
0100
0000
1000
0000
0100
0010
,
1000
0001
0010
0000
1000
0000
0010
0001
1100
0001
0100
0010
0001
0000
0010
0100
,
0001
0000
0001
0000
1000
0000
1000
0000
0101
1000
0001
1000
0100
0100
0010
0010
,
0001
0100
0100
1000
0010
0010
0100
1000
0022
0000
0000
0033
2002
0000
0000
3003
,
0101
0000
0000
0100
0000
0000
0001
0000
0000
1000
0000
0000
0100
0000
0000
0010
0000
0000
0001
0000
0000
1000
0100
1000
,
0100
0000
0000
1000
0000
0000
0001
0000
0000
0100
0000
0000
0010
0000
0000
1000
0000
0000
0001
0000
0000
0010
0001
0010
,
0001
0000
0000
0100
0000
0000
0010
0000
0000
1000
0000
0000
0001
0000
0000
0010
0000
0000
0100
0000
0000
1000
0001
1000
,
0001
0100
0010
1000
0001
0010
0100
1000
,
1001
0000
0001
0000
1000
0000
0010
0000
0100
0000
0001
1000
0100
1000
0001
0000
,
1000
0000
0010
0000
0100
0000
0001
0000
0010
0000
0100
0010
0100
1000
0001
0000
,
0100
0001
0010
0001
1000
0010
0100
0001
1000
0100
0010
0001
1000
0002
0000
0000
,
00M3
0000
0000
0000
0MM0
0000
0000
0000
0001
0000
1000
0000
0010
0100
0001
1000
,
1001
0000
0000
0001
0000
0000
0100
0000
0000
0010
0000
0000
1000
0000
0000
0000
0001
0000
0000
0000
0010
0000
0000
0000
0000
0000
0100
0000
0000
0000
0000
0000
1000
0000
0000
0000
0000
0000
0000
0000
0001
0000
0000
0000
0000
0000
0000
0000
,
1000
0000
0000
0000
0000
0000
0000
0000
0000
0000
0020
0000
0000
0000
0000
0000
0000
0000
0000
0000
0000
0000
0000
0000
0000
0000
0000
0000
0000
0000
0000
0000
0000
0030
0000
0000
1000
0000
0000
0100
0000
0000
0100
0000
0000
0001
0000
0000
,
1100
0000
0000
0000
0000
0000
0010
0000
0000
0000
0000
0000
0010
0000
0000
0000
0000
0000
0000
0000
0001
0000
0000
0000
0000
0000
0000
1000
0000
0000
0000
0000
0000
0000
0000
0000
0010
0000
0000
0000
0000
0000
0000
0000
0000
0000
0000
0000
4010
0000
0000
0000
0000
0000
0000
0000
0000
0000
0000
0000
0000
0000
0000
0000
0000
0000
0000
0000
0000
0000
0000
0000
3200
0000
0000
0000
0000
0000
0000
0000
0000
0000
0000
0000
0310
0000
0000
0000
0000
0000
0000
0000
0000
0000
0000
0000
,
0014
0000
0000
1003
0020
0000
0130
0000
0104
0000
0000
0000
2003
0000
3100
0000
,
0M04
0000
0000
1003
0020
0000
0130
0000
4M00
0000
0000
0000
3002
0000
0013
0000
,
40M0
0000
0000
3001
0010
0000
0010
0100
1010
0000
0001
0000
1000
0000
0011
0000
,
1000
0001
0000
0100
0010
0100
0001
1000
1004
0000
0000
0000
0203
0000
0310
0000
,
4010
0000
0000
3001
0020
0000
0130
0000
1100
1000
0001
0000
0200
0000
0310
0000
,
00M4
0000
0000
1003
0200
0000
0310
0000
40M0
0000
0000
3001
0010
0000
0010
0000
,
4000
0000
0000
3001
0100
0010
0100
0001
2200
0000
0000
3300
0001
0000
1010
0000
,
0002
0000
0003
0100
0010
1000
0100
0010
0101
0000
1000
0000
0010
0100
0010
1000
,
0100
0000
0010
0001
1000
0010
0100
0001
1100
0000
0001
1000
0001
0010
0100
1000
,
0040
0000
0000
0000
0130
0001
1000
0001
4100
0000
0000
0000
3001
1000
0010
1000
,
0400
0000
0000
0000
0310
0001
0100
0010
4100
0000
0000
0000
3001
0010
0001
0000
,
1M00
00M0
0000
0M00
0001
1000
0001
0100
0011
0000
1000
0000
0001
1000
0100
1000
,
0010
0000
0100
0001
1000
0100
1000
0001
1010
0000
0001
1000
0010
0100
0010
1000
,
0004
0000
0000
0000
0000
0000
0003
0000
0010
0000
0100
0000
1000
0000
0001
0000
4100
0000
0000
0000
0000
0000
0000
0000
3010
0M00
0010
0000
0001
0000
0000
0000
,
0100
0000
0010
0000
1000
0100
0010
0000
0202
0000
0000
0303
0220
0000
0000
0330
,
2002
3003
0000
0000
;
