#TITLE:XYZ;
#SUBTITLE:;
#ARTIST:technoplanet;
#TITLETRANSLIT:;
#SUBTITLETRANSLIT:;
#ARTISTTRANSLIT:;
#GENRE:;
#CREDIT:;
#BANNER:XYZ-bn.png;
#BACKGROUND:XYZ-bg.png;
#LYRICSPATH:;
#CDTITLE:;
#MUSIC:xyz.ogg;
#OFFSET:0.009000;
#SAMPLESTART:64.475151;
#SAMPLELENGTH:19.480000;
#SELECTABLE:YES;
#BPMS:0.000000=154.000000
,51.000000=71.000000
,78.000000=148.000000
,126.000000=154.000000
;
#STOPS:
;
#BGCHANGES:;
#KEYSOUNDS:;
#ATTACKS:;

//---------------dance-single - sangyule----------------
#NOTES:
     dance-single:
     sangyule:
     Challenge:
     13:
     0.860625,0.957267,0.292575,0.558551,1.220169,906.000000,862.000000,44.000000,84.000000,18.000000,9.000000,0.860625,0.957267,0.292575,0.558551,1.220169,906.000000,862.000000,44.000000,84.000000,18.000000,9.000000:
// measure 0
0000
0000
0000
0000
,  // measure 1
0000
0000
0000
0000
,  // measure 2
0000
0000
0000
0000
,  // measure 3
0000
0000
0000
0000
0000
0000
0000
0000
0000
0000
0000
0000
0001
0000
0010
0001
,  // measure 4
0000
0000
0100
0000
0010
0000
1000
0000
0100
0000
0010
0100
0000
0000
1000
0000
,  // measure 5
0010
0000
0100
0000
0101
0000
0001
1000
0000
0000
0100
0000
0010
0000
0001
0000
,  // measure 6
0100
0000
0001
0100
0000
0000
0010
0000
1000
0001
0010
0000
0011
0000
0001
1000
,  // measure 7
0100
0010
0001
0000
0100
0010
1000
0010
0100
0000
0001
1000
0000
0100
1000
0000
,  // measure 8
0010
0100
0001
1000
0100
0000
0010
0001
0000
1000
0010
0000
0100
0010
1000
0001
,  // measure 9
1000
0000
0001
0010
0000
0001
0100
0000
0010
1000
0001
0000
1001
0000
1000
0100
,  // measure 10
0000
1000
0001
0000
0100
0010
1000
0001
0010
0000
0100
0010
0000
0100
1000
0000
,  // measure 11
0010
0100
0001
0000
0101
0000
0100
0010
0000
1000
0001
0010
0100
1000
0010
0100
,  // measure 12
0001
1000
0100
1000
0001
1000
0010
1000
0100
0010
0001
0100
M020
0000
0000
0000
,  // measure 13
0000
0000
0000
0000
0000
0000
0000
0000
0000
0000
0000
0000
0000
0000
0000
0000
0030
0000
0000
0000
1000
0000
0000
0000
0100
0000
0000
0000
0010
0000
0000
0100
0010
0000
0000
0000
0001
0000
0000
0000
1000
0000
0000
0000
0010
0000
0000
0000
0100
0000
0000
0000
0001
0000
0000
0000
0020
0000
0000
0000
0000
0000
0000
0000
,  // measure 14
0031
0000
0000
0000
0100
0000
0000
0000
0010
0000
0000
0000
1000
0000
0000
0001
2000
0000
0000
0000
0000
0000
0000
0000
0000
0000
0000
0000
3001
0000
0000
0000
0010
0000
0000
0000
0100
0000
1000
0000
0020
0000
0000
0000
0000
0000
0000
0000
0030
0000
0000
0000
0100
0000
0000
0000
0001
0000
0100
0000
0010
0000
0000
0000
,  // measure 15
1010
0000
0000
0000
1000
0000
0000
0000
0100
0000
0000
0000
0010
0000
0000
0000
0100
0000
0000
0000
1000
0000
0000
0000
0020
0000
0000
0000
0000
0000
0000
0000
0000
0000
0000
0000
0230
0000
0000
0000
0000
0000
0000
0000
0000
0000
0000
0301
2000
0000
0000
0000
0000
0000
0000
0000
0000
0000
0000
0000
3002
0000
0000
0000
,  // measure 16
0000
0000
0000
0000
0013
0000
0100
0000
2000
0000
0000
0000
0000
0000
0000
0000
0000
0000
0000
3001
0100
0000
0000
0000
0010
0000
0000
0000
1000
0000
0000
0000
1010
0000
0000
0000
0M00
0000
0010
0000
0000
0000
0000
0000
0001
0000
0000
0000
0100
0000
0000
0000
0010
0000
0000
0000
1010
0000
0000
0000
0M00
0000
0010
0000
,  // measure 17
0000
0000
0001
0000
1000
0000
0100
0000
1100
0000
00M0
0100
0000
0000
0001
0000
0010
0000
0100
0000
1100
0000
00M0
0100
0000
0000
0001
0000
0100
0000
0010
0000
,  // measure 18
1000
0100
0010
0001
0010
0100
2000
0000
,  // measure 19
3000
0000
0000
0000
0000
0000
0000
1000
0020
0000
0000
0000
0000
0000
0000
0000
0030
0000
0000
0000
0100
0000
0000
0000
0002
0000
0000
0000
1003
0000
0000
0000
10M1
0000
0000
0000
0000
0000
0000
0000
0001
0000
0000
0000
0000
0000
0000
0000
0010
0000
0000
0000
0000
0000
0000
0000
0100
0000
0000
0000
0000
0000
0000
0000
,  // measure 20
1000
0000
0001
0000
0200
0000
0000
0310
0000
0000
1000
0000
0100
0000
1000
0000
,  // measure 21
0020
0000
0000
0130
0000
0000
0001
0000
0010
0000
0001
0000
0200
0000
0000
0310
,  // measure 22
0000
1000
0001
0010
0001
1000
0010
0100
,  // measure 23
0001
0010
0200
1000
0310
0002
0100
1003
,  // measure 24
1001
0000
0001
0000
0010
0000
2000
0000
0000
0000
3010
0001
2000
0000
0010
0000
,  // measure 25
3001
0000
0100
0000
0010
0000
1000
0000
1010
0000
0M00
0010
0000
0000
0001
0000
,  // measure 26
0100
0000
0010
0000
1000
0001
0010
0001
1000
0010
0100
0000
0010
1000
0001
0000
,  // measure 27
1001
0000
0000
0000
1000
0000
0000
0000
0100
0000
0010
0000
0001
0000
0000
0000
1000
0000
0000
0000
0010
0000
0100
0000
0001
0000
1000
0000
0100
00M0
0100
0000
,  // measure 28
0001
0000
0010
0000
0100
0000
1000
0000
0010
0M00
0010
0000
0001
0000
1000
0000
1001
0000
0000
0000
0000
0000
0001
0000
0000
0010
0100
0000
1000
0000
0000
0000
,  // measure 29
0001
0000
1000
0000
0010
0000
0100
0000
1000
0000
0100
0000
0010
0000
0100
0000
0001
1000
0001
0000
0020
0000
0000
0000
0030
0000
0200
0000
0000
0000
0300
0000
,  // measure 30
1100
1000
0000
0010
0100
0001
1000
0100
0010
0100
1000
0000
1001
0000
0001
0000
,  // measure 31
0100
00M0
0100
0000
2000
0000
0000
0000
3010
0M00
0010
0000
0001
0000
0100
0000
0000
0000
0000
0000
0000
0000
0000
0000
0000
0000
0000
0000
0000
0000
0000
0000
,  // measure 32
0000
0000
0010
0000
0000
1000
1000
1000
,  // measure 33
1100
00M0
0100
0001
0000
0100
0010
0000
1000
0000
0100
0000
1100
00M0
0100
0001
,  // measure 34
0000
0100
0010
0000
1000
0000
0010
0000
1010
0000
0M10
0001
0000
0010
0100
0000
,  // measure 35
1000
0000
0010
0000
1010
0M00
0010
0001
0000
0010
0100
0000
1000
0000
0010
0000
,  // measure 36
0100
0001
1000
0100
1000
0001
0100
0000
0010
0000
0010
0000
0010
1000
0100
0010
,  // measure 37
0000
2000
0000
3010
0100
0010
0001
0100
0000
1000
0100
0000
0001
0010
0000
0200
,  // measure 38
0000
0000
0000
0000
0300
0000
0000
0010
0000
0010
0001
1000
0010
0100
0001
1000
,  // measure 39
0200
2300
3020
0230
,  // measure 40
0000
0301
1000
0001
0020
0000
0032
0000
,  // measure 41
0203
0000
0000
0000
0320
0000
0000
0000
1030
0001
0010
0100
1000
0010
0100
0001
,  // measure 42
0020
0230
0302
0203
,  // measure 43
0000
0000
0000
0000
1300
0010
1000
0001
0010
0001
1000
0010
0100
0001
0010
0001
,  // measure 44
1000
0000
0000
0100
0000
0000
0010
0000
0000
0001
0000
0000
1000
0000
0000
0010
0000
0000
0001
0000
0000
0010
0000
0000
0100
0000
0000
1000
0000
0000
0100
0000
0000
0010
0000
0000
1000
0000
0001
0000
0010
0000
0200
0000
0000
0000
0000
0000
,  // measure 45
0310
0000
0001
1000
0000
0001
0010
0000
0001
1000
0000
0010
0100
0000
0010
1000
,  // measure 46
0000
0001
0010
0100
0010
0001
0100
0010
1000
0100
1000
0010
0100
0001
1000
0001
,  // measure 47
0010
0100
1000
0010
1000
0001
0010
0001
0100
0010
1000
0100
0010
0001
1000
0010
,  // measure 48
0200
0000
0310
0001
0010
0100
0001
1000
0100
0010
0001
0100
0020
0000
0030
0020
,  // measure 49
0000
0000
0030
0000
0020
0000
0000
0000
1030
0000
0000
0000
0002
0000
0000
0000
0013
0100
1000
0000
0200
0000
0000
0000
0000
0000
0000
0000
0000
0000
0000
0000
,  // measure 50
0000
0000
0000
0000
1300
0001
0100
0001
0010
0100
2000
3002
0103
0010
1000
0000
,  // measure 51
1001
0000
0000
0000
0000
0000
0001
0000
0010
0000
0001
0000
0100
0000
0010
0000
1000
0000
0001
0000
0010
0000
0100
0000
2000
0000
0000
0000
0000
3010
0200
0000
,  // measure 52
0000
0000
0000
0000
0302
0000
0000
0000
0000
0000
0000
0000
0003
0000
0000
0000
0001
2000
0000
0000
0000
0000
0000
0000
0000
0000
3000
0000
0100
0000
0010
0000
,  // measure 53
0100
0000
1000
0000
0010
0000
0100
0001
1000
0000
0000
0000
0001
0000
0000
0000
0010
0000
0000
0000
0100
0000
0000
0000
0000
0000
1000
0000
0000
0000
0000
0000
,  // measure 54
0110
0000
0000
0110
0000
0000
1001
0000
0000
1001
0000
0000
0001
0010
0001
0100
,  // measure 55
0010
1000
0200
0000
0000
0310
0001
1000
0020
0000
0000
1030
0001
0010
0100
1000
,  // measure 56
0001
0000
0010
0000
0001
0000
0100
0000
0000
0010
0000
0000
1000
0000
0000
0001
0000
0000
1000
0000
0000
0100
0000
0000
0010
0000
0000
0001
0000
0000
0200
0000
0000
0000
0000
0000
0000
0000
0000
0310
0000
0000
0100
0000
0000
0001
0000
0000
,  // measure 57
2001
0000
3001
0100
0010
1000
0001
0010
0100
1000
0010
0100
0001
1000
0100
0010
,  // measure 58
0100
0010
0001
0100
0001
1000
0100
0010
1000
0010
0100
1000
0001
1000
0010
0100
,  // measure 59
0010
0001
0010
1000
2000
0000
3001
0100
0100
0100
0010
1000
0001
0010
0100
1000
,  // measure 60
2100
0000
0000
0000
0000
0000
0001
0000
0000
0000
3000
0000
0010
0200
0000
0000
0000
0000
0000
0000
0300
0000
0000
0000
0102
0000
0000
0000
1000
0000
0000
0000
,  // measure 61
0013
0000
0000
0000
0100
2000
0000
0000
0000
0000
0000
0000
3010
0000
0100
0000
0011
0000
0000
0000
1000
0000
0011
0000
0000
0000
1000
0000
0101
0000
0000
0000
,  // measure 62
0010
0000
0000
0000
0000
0000
0000
0000
0000
0000
0000
0000
0101
0000
0000
0000
0000
0000
0000
0000
0000
0000
0000
0000
0000
0000
0000
0000
0000
0000
0000
0000
0000
0000
0000
0000
1000
0000
0000
0000
0000
0000
0000
0000
0000
0000
0000
0000
0001
0000
0000
0000
0000
0000
0000
0000
0000
0000
0000
0000
0010
0000
0000
0000
0000
0000
0000
0000
0000
0000
0000
0000
0001
0000
0000
0000
0000
0000
0000
0000
0000
0000
0000
0000
0100
0000
0000
0000
0000
0000
0000
0000
0000
0000
0000
0000
0010
0000
0000
0000
0000
0000
0000
0000
0000
0000
0000
0000
1000
0000
0000
0000
0000
0000
0000
0000
0000
0000
0000
0000
0001
0000
0000
0000
0000
0000
0000
0000
0000
0000
0000
0000
1000
0000
0000
0000
0000
0000
0000
0000
0000
0000
0000
0000
0001
0000
0000
0000
0000
0000
0000
0000
0010
0000
0000
0000
0000
0000
0000
0000
0100
0000
0000
0000
0000
0000
0000
0000
0010
0000
0000
0000
0000
0000
0000
0000
0000
0000
0000
0000
0001
0000
0000
0000
0000
0000
1000
0000
0000
0000
0000
0000
,  // measure 63
0200
0000
0000
0000
0000
0000
0000
0000
0000
0000
0000
0000
0000
0000
0000
0000
0000
0000
1300
0000
0000
0000
0000
0000
0010
0000
0000
0000
0000
0000
0100
0000
0000
0001
0000
0000
2000
0000
0000
0000
0000
0000
3100
0000
0010
0000
0000
0000
,  // measure 64
0002
0000
0000
0000
0000
0000
0000
0000
0000
0000
0000
0000
0000
0000
0000
0000
0000
0000
0000
0000
0000
0000
0000
0000
0103
0000
0000
0000
0000
0000
0000
0000
0010
0000
0000
0000
0000
0000
0000
0000
0000
0000
0000
0000
0000
0000
0000
0000
2000
0000
0000
0000
0000
0000
0000
0000
0000
0000
0000
0000
0000
0000
0000
0000
0000
0000
0000
0000
0000
0000
0000
0000
3100
0000
0000
0000
0000
0000
0000
0000
0000
0000
0000
0000
0010
0000
0000
0000
0000
0000
0000
0000
0000
0000
0000
0000
0001
0000
0000
0000
0000
0000
0000
0000
0000
1000
0000
0000
0000
0000
0000
0000
0000
0000
0001
0000
0000
0000
0000
0000
0000
0000
0000
1000
0000
0000
0000
0000
0000
0000
0000
0000
0001
0000
0000
0000
0000
0000
0000
0000
0000
1000
0000
0000
0000
0000
0000
0000
0000
0000
0001
0000
0000
0000
0000
0000
0000
0000
0000
1000
0000
0000
0000
0000
0000
0000
0000
0000
0002
0000
0000
0000
0000
0000
0000
0000
0000
0000
0000
0000
0000
0000
0000
0000
0000
0000
0000
0000
0000
0000
0000
0000
,  // measure 65
0103
0000
0010
0M00
0010
0000
0001
0000
0100
00M0
0100
0000
1000
0000
0010
0M00
,  // measure 66
0020
0000
0031
0000
0200
0000
1300
0100
,  // measure 67
0001
0000
2000
0000
0000
0000
3100
0010
0002
0000
0000
0000
0000
0000
0000
0000
,  // measure 68
0103
0000
0001
0000
0100
0010
1000
0001
0010
0100
1000
0001
0010
0001
0100
0010
,  // measure 69
2000
0000
0000
0000
0000
0000
3200
0000
0000
0000
0000
0000
0301
0100
0000
0010
,  // measure 70
0100
0000
1000
0001
0000
0100
0001
0000
2000
0000
0000
0000
0000
3000
1000
0000
,  // measure 71
0001
0000
0100
0010
0002
0000
0000
0000
0000
0000
0023
0000
0000
0000
0000
0000
,  // measure 72
0031
0010
1000
0001
0010
0100
0001
0100
1000
0001
0100
0010
1000
0100
0010
0001
,  // measure 73
1000
0001
0100
0010
1000
0100
0010
0001
0200
0000
0000
0000
0000
0000
0310
0000
,  // measure 74
1000
0000
0001
0000
0040
0000
0000
0000
0000
0000
0031
0000
1000
0010
0100
0000
,  // measure 75
0210
0000
0000
0000
0000
0000
0301
1000
0001
0010
0100
1000
0020
0000
0000
0000
,  // measure 76
0000
2230
0000
0000
3322
0000
0000
2033
,  // measure 77
0000
0000
0000
0000
3001
0000
0100
0001
1000
0000
0200
0000
0000
0000
0000
0000
,  // measure 78
1010
0000
0000
1310
0000
0000
0001
0000
1000
0100
0020
0000
0101
0000
0000
0131
,  // measure 79
0000
0000
1000
0000
0001
1000
0020
0000
1100
0000
0000
1130
0000
0000
0001
0000
,  // measure 80
0000
1000
0000
0000
0101
0000
1000
0000
0010
0000
1100
0000
0001
0000
0010
0000
,  // measure 81
0110
0000
0100
1000
0001
0100
0010
1000
0010
0100
0001
1000
0100
0010
0100
1000
,  // measure 82
0001
1000
0010
0100
0001
0010
0100
1000
0010
1000
0100
0100
0001
1000
0100
1000
,  // measure 83
0010
0010
0001
0100
0010
0100
1000
0100
0010
1000
0001
0010
1000
0010
0001
1000
,  // measure 84
0100
1000
0001
0010
0100
0001
0100
0010
1000
0010
0001
1000
0010
1000
0001
0100
,  // measure 85
0010
0001
0010
0100
1000
0100
0010
1000
0100
1000
0001
0010
0100
0001
1000
0010
,  // measure 86
0100
1000
0010
0001
1000
0100
0001
1000
0100
0001
1000
0010
0100
1000
0010
0002
,  // measure 87
0000
0003
0000
0000
;

//---------------dance-single - sangyule----------------
#NOTES:
     dance-single:
     :
     Beginner:
     1:
     0.103541,0.172054,0.119690,0.000000,0.000000,109.000000,91.000000,18.000000,0.000000,0.000000,0.000000,0.103541,0.172054,0.119690,0.000000,0.000000,109.000000,91.000000,18.000000,0.000000,0.000000,0.000000:
0000
0000
0000
0000
,
0000
0000
0000
0000
,
0000
0000
0000
0000
,
0000
0000
0000
0000
,
0000
0000
0000
0000
,
0000
0000
0000
0000
,
0000
0000
0000
1000
,
0000
0000
0000
0000
,
0000
0001
0000
0000
,
0001
0000
0000
0010
,
0000
0000
0000
0000
,
0000
0100
0000
0000
,
0100
0000
0000
0110
,
0000
0000
1000
0000
,
0000
0001
0000
0000
,
0100
0000
0000
0010
,
0000
0000
1000
0000
,
0000
0001
0000
0000
,
0010
0000
0000
0100
,
0000
0000
1001
0000
,
0000
0001
0000
0000
,
0100
0000
0000
0000
,
0000
0000
0010
0000
,
0000
1000
0000
0000
,
0001
0000
0000
1000
,
0000
0000
1001
0000
,
0000
0000
0000
0000
,
0110
0000
0000
0000
,
0000
0000
1001
0000
,
0000
0000
0000
0000
,
0110
0000
0000
0010
,
0000
0000
1001
0000
,
0000
0000
0000
0000
,
0000
0000
0000
0001
,
0000
0000
1000
0000
,
0000
0000
0000
0000
,
0110
0000
0000
0010
,
0000
0000
0100
0000
,
0000
0000
0000
0000
,
1001
0000
0000
0001
,
0000
0000
0100
0000
,
0000
0100
0000
0000
,
0010
0000
0000
0010
,
0000
0000
1000
0000
,
0000
1000
0000
0000
,
0001
0000
0000
0001
,
0000
0000
0010
0000
,
0000
0010
0000
0000
,
0100
0000
0000
0100
,
0000
0000
1000
0000
,
0000
1000
0000
0000
,
1001
0000
0000
0001
,
0000
0000
0010
0000
,
0000
0010
0000
0000
,
0001
0000
0000
1000
,
0000
0000
0001
0000
,
0000
1000
0000
0000
,
0010
0000
0000
0010
,
0000
0000
0100
0000
,
0000
0100
0000
0000
,
0001
0000
0000
1000
,
0000
0000
1001
0000
,
0000
1001
0000
0000
,
1001
0000
0000
0000
,
0000
0000
0001
0000
,
0000
0001
0000
0000
,
0100
0000
0000
0000
,
0000
0000
0010
0000
,
0000
0010
0000
0000
,
1000
0000
0000
0000
,
0000
0000
0001
0000
,
0000
0001
0000
0000
,
0010
0000
0000
0010
,
0000
0000
0110
0000
,
0000
0000
0000
0000
,
1001
0000
0000
0000
,
0000
0000
1001
0000
,
0000
0000
0000
0000
,
0110
0000
0000
0100
,
0000
0000
0010
0000
,
0000
0010
0000
0000
,
1001
0000
0000
0001
,
0000
0000
0010
0000
,
0000
0010
0000
0000
,
0100
0000
0000
0100
,
0000
0000
0100
0000
,
0000
0100
0000
0000
;

//---------------dance-single - sangyule----------------
#NOTES:
     dance-single:
     :
     Easy:
     3:
     0.212782,0.317718,0.232730,0.232730,0.000000,224.000000,189.000000,35.000000,35.000000,0.000000,0.000000,0.212782,0.317718,0.232730,0.232730,0.000000,224.000000,189.000000,35.000000,35.000000,0.000000,0.000000:
0000
0000
0000
0000
,
0000
0000
0000
0000
,
0000
0000
0000
0000
,
0000
0000
0000
0000
,
0000
0000
0000
0000
,
0000
0000
0000
0000
,
0000
0000
0000
1001
,
0000
0001
1000
0000
,
1000
0010
0000
0010
,
0100
0000
0100
0001
,
0000
0001
0010
0000
,
0010
0100
0000
0100
,
1000
0001
1000
0010
,
0000
0000
0000
0000
0100
0000
0000
0010
,
0000
0000
1000
0000
0000
0002
0000
0000
,
1003
0000
0000
1000
0000
0000
0100
0000
,
0000
0020
0000
0000
0031
0000
0000
0001
,
0000
0000
1000
0000
0000
1000
0000
0000
,
0010
0000
0000
0010
0000
0000
0100
0000
,
0000
0100
0000
0001
1000
0000
0000
0000
,
0000
0000
0100
0000
0000
1000
0000
0000
,
0001
0000
0000
0200
,
0000
0320
0000
0000
1030
0000
0000
0000
,
0000
0000
0001
0000
0000
0010
0000
0000
,
0100
0000
0000
0100
0000
0000
1000
0000
,
0000
0000
1001
0000
,
0000
0000
0001
0000
0000
0100
0000
0000
,
0101
0000
0000
1000
,
0000
0001
0000
0000
0011
0000
0000
0000
,
0000
0000
1000
0000
0000
1000
0000
0000
,
0110
0000
0000
0001
0000
0000
1000
0000
,
0000
0001
0000
0000
1001
0000
0000
0000
,
0000
0000
0000
0000
,
1001
0000
0000
1001
,
0000
0000
0110
0000
,
0000
0110
0000
0000
,
1100
0000
0000
1100
,
0000
0000
0011
0000
,
0000
0011
0000
0000
,
1000
0001
1000
0020
,
0000
0030
0100
0010
,
0100
0002
0000
0003
,
1000
0001
0010
0002
,
0000
0003
1000
0100
,
1000
0002
0000
0003
,
1001
0000
1000
0010
,
0000
0100
0001
1000
,
0001
2000
0000
3000
,
0100
0000
0010
0002
,
0003
0002
0000
0003
0200
0000
0000
0000
,
0310
0000
1000
0000
0000
0001
0000
0000
,
1001
0000
0000
1000
0000
0000
0020
0000
,
0000
0130
0000
0000
0002
0000
0000
2003
,
0000
0000
3001
0000
0000
0001
0000
0000
,
0110
0000
0000
1001
0000
0000
0110
0000
,
0000
1001
0000
0000
2200
0000
0000
3300
,
0000
0000
0001
0000
0000
1000
0000
0000
,
1001
0000
0001
0010
,
0000
0000
0010
0000
0100
0000
0000
1000
,
0000
0000
0002
0000
0000
0203
0000
0000
,
0320
0000
0000
1000
0000
0000
0230
0000
,
0000
0001
0000
0000
0310
0000
0000
0010
,
0000
0000
1000
0000
0000
0001
0000
0000
,
1001
0000
1000
0100
,
0100
0000
0010
0000
0020
0000
0000
0031
,
0000
0000
1000
0000
0000
0001
0000
0000
,
0100
0010
0100
0002
,
0000
1000
0000
0000
0023
0000
0000
0000
,
0130
0000
0010
0000
0000
0100
0000
0000
,
2000
0000
0000
3002
0000
0000
0103
0000
,
0000
0100
0000
0000
0020
0000
0000
0000
,
0000
0030
2000
0000
0000
3002
0000
0000
,
1003
0000
0000
1000
0000
0000
0100
0000
,
0000
0100
0000
0000
1002
0000
0000
0100
,
0000
2000
0000
3003
,
2000
0000
0000
0100
0000
0000
3100
0000
,
0000
1000
0000
0000
0020
0000
0000
0100
,
0000
0000
1000
0000
0000
0130
0000
0000
,
0101
0000
0000
0101
,
0000
0000
1010
0000
,
0000
0000
1001
0000
0000
0110
0000
0000
,
1001
0000
0000
0001
,
0000
0001
0000
0000
1000
0000
0000
0100
,
0000
0000
0010
0000
0000
0001
0000
0000
,
1001
0000
0000
0101
,
0000
0000
1010
0000
,
0000
0000
0011
0000
0000
0022
0000
0033
;

//---------------dance-single - sangyule----------------
#NOTES:
     dance-single:
     :
     Medium:
     6:
     0.360019,0.433251,0.059845,0.525304,0.123014,379.000000,370.000000,9.000000,79.000000,1.000000,0.000000,0.360019,0.433251,0.059845,0.525304,0.123014,379.000000,370.000000,9.000000,79.000000,1.000000,0.000000:
0000
0000
0000
0000
,
0000
0000
0000
0000
,
0000
0000
0000
0000
,
0000
0000
0000
0000
,
0000
0000
0000
0000
,
0000
0000
0000
0000
,
0000
0000
0000
1000
,
1000
0001
0010
0000
0001
0000
0001
1000
,
0010
0000
0100
0000
0100
0010
1000
0000
,
0002
0000
0000
2003
0000
0000
3001
0000
,
0001
0100
0010
0000
1000
0000
1000
0001
,
0010
0000
0100
0000
0100
1000
0001
1000
,
0100
0010
0100
0010
0001
1000
0002
0000
,
0000
0000
0000
0000
0003
0000
0000
0000
1000
0000
0000
0010
0000
0000
0200
0000
,
0000
0000
0000
0000
0301
0000
0000
1000
0000
0000
0001
0000
0000
0010
0000
0000
,
0200
0000
0000
1000
0000
0000
0320
0000
0000
0031
0000
0000
0200
0000
0000
0000
,
0000
0000
0320
0000
0000
1030
0000
0000
0001
0000
0000
0001
0000
0000
0100
0000
,
0000
0100
0000
0000
0010
0000
0000
0010
0000
0000
1000
0000
0000
1000
0000
0000
,
0001
0010
0001
1000
0100
1000
0020
0000
,
0000
0200
0000
0330
M002
0000
0000
1003
,
0001
1000
0200
0000
0000
0310
0001
0010
,
0002
0000
0000
1003
0001
1000
0020
0000
,
0000
0230
0000
0000
0302
0000
0000
1003
,
0001
1000
0200
0000
0000
0320
0000
0000
,
0032
0000
0000
2003
0000
0000
3002
0000
,
0000
0103
0010
0100
0020
0000
0000
2030
,
0000
0000
3001
0000
0000
0010
0001
0010
,
0200
0000
0000
2300
0000
0000
3002
0000
,
0000
0103
0001
0100
0020
0000
0000
2030
,
0000
0000
0000
0000
3002
0000
0000
0000
0000
0000
0013
0000
0000
0100
0000
0000
,
0020
0000
0000
0032
0000
0000
2003
0000
,
0000
3020
0000
0000
0130
0000
0000
0000
,
0000
0000
0000
0000
,
1001
0000
0000
0001
0000
0000
0000
0000
0100
0000
0000
0000
0010
0000
0000
0010
,
0000
1000
1001
0001
,
0010
0100
0100
1000
,
1001
0000
0001
0100
0010
0000
1000
0000
,
1000
0001
0010
0000
0001
0000
0001
1000
,
0010
0000
0100
0000
0100
0001
1000
0001
,
2000
3200
2300
3002
,
0000
0103
0010
0100
0002
0000
0203
0000
,
0320
0000
2030
0000
3001
0010
0001
1000
,
0020
2030
3200
2300
,
0000
0000
3001
0100
0010
0000
1000
0000
,
0100
0010
0010
0004
,
1003
0000
0001
0000
0100
0010
0100
0000
,
0001
0000
1000
0001
1000
0000
0100
0000
,
0010
0001
0010
0000
0001
0000
1000
0100
,
1000
0000
0000
0000
0010
0000
0000
0000
0100
0000
0001
0000
1000
0000
0000
1000
,
0000
2000
0000
3001
0040
0000
0000
0000
,
0030
0000
0001
1000
0001
0100
0000
0010
,
2000
0000
0000
0000
0000
0000
3001
0000
0010
0000
0100
0000
2000
0000
0000
3002
,
0000
0203
0000
0300
0020
0000
0000
1030
,
0001
0000
1000
0000
0100
0000
0010
0000
0100
0000
0010
0000
0000
0001
0000
0000
,
1000
0000
0000
1000
0000
0000
0001
0000
0000
0001
0000
0000
0200
0000
0000
0320
,
0000
0000
2030
0000
0000
3010
0000
0000
0200
0000
0000
0000
0300
0000
0001
0000
,
1000
0001
0010
0100
0010
0200
0000
0000
,
1300
0000
0001
0100
0010
0100
0001
0000
,
1000
0000
0001
0000
0010
0000
0001
0000
1000
0000
0000
1000
0000
0000
0100
0000
,
0000
0100
0000
0000
4000
0000
0000
0000
0000
0000
3040
0000
0000
0000
0000
0000
,
0230
0000
0000
0010
0000
0000
0002
0000
0000
0303
0000
0000
1001
0000
1000
0000
,
0001
0000
0020
0000
0000
0000
0030
0000
0001
0000
0000
0001
0000
0000
1000
0000
,
0000
1000
0000
0000
0020
0000
0000
0000
0000
0000
0000
0000
0030
0000
0000
0000
,
0210
0000
0000
0301
1000
0001
0010
0000
,
0010
0000
0100
0000
4000
0000
0000
3001
,
1000
0001
0100
0000
0010
0100
0000
0001
,
2000
0000
3200
0000
2300
0000
3010
1000
,
0001
0200
0000
0301
0200
0000
0000
0000
,
0310
0100
0001
0000
1000
0100
1000
0100
,
0020
0000
0000
0000
0000
0000
0032
0000
0000
0000
0000
0000
0103
0000
0000
0010
,
0000
0000
0100
0000
0000
0001
0000
0000
2000
0000
0000
0000
0000
0000
0000
0000
,
3001
0010
0002
0000
0000
0203
0000
0000
,
0301
0000
1000
0100
0000
1000
0001
0000
,
1000
0010
0000
0100
0002
0000
0000
1003
,
0100
1000
0200
0000
0000
0000
0300
0000
,
1001
0000
0000
0001
1000
0001
2000
0000
,
0000
3020
0000
0000
0230
0000
0000
0001
,
0000
0000
0020
0000
0000
0330
0000
0000
,
1000
0000
0000
1000
0000
0000
0001
0000
0000
0010
0000
0000
0100
0000
0000
0100
,
0000
0000
0010
0000
0000
0001
0000
0000
1000
0000
0000
1000
0000
0000
0010
0000
,
0000
0100
0000
0000
0101
0000
0000
0000
0000
0000
0101
0000
0000
0000
0000
0000
,
1100
0000
0000
0100
0010
0001
0020
0000
,
0000
0032
0000
0000
0103
0000
0100
0010
,
0000
0010
1000
0000
1000
0001
0000
0001
,
0010
0000
0000
0010
0000
0000
0100
0000
1000
0000
0001
0000
1000
0000
0000
1000
,
0000
0000
0010
0000
0100
0000
0010
0000
0100
0000
0000
0100
0000
0000
0001
0000
,
1000
0000
0100
0000
0010
0000
0000
0010
0000
0000
0001
0000
1000
0000
0001
0000
;

//---------------dance-single - sangyule----------------
#NOTES:
     dance-single:
     :
     Hard:
     9:
     0.554752,0.750969,0.265977,0.465460,0.292575,584.000000,544.000000,40.000000,70.000000,7.000000,0.000000,0.554752,0.750969,0.265977,0.465460,0.292575,584.000000,544.000000,40.000000,70.000000,7.000000,0.000000:
0000
0000
0000
0000
,
0000
0000
0000
0000
,
0000
0000
0000
0000
,
0000
0000
0000
0000
0000
0000
0000
0000
0000
0000
0000
0000
0001
0000
0000
0001
,
0000
0000
0100
0000
0010
0000
1000
0000
0001
0000
0000
0001
0000
0000
1000
0000
,
0100
0000
1000
0000
1010
0000
0000
0010
0000
0000
0100
0000
0001
0000
1000
0000
,
0100
0000
0000
0100
0000
0000
1000
0000
0001
0000
0100
0000
0101
0000
0000
0001
,
0000
0000
1000
0000
0100
0000
1000
0000
0001
0000
0000
0001
0000
0000
0100
0000
,
0010
0000
1000
0000
0100
0000
0000
0100
0000
0000
1000
0000
0100
0000
0010
0000
,
0001
0000
0000
0001
0000
0000
0100
0000
0010
0000
1000
0000
1001
0000
0000
0001
,
0000
0000
0010
0000
0100
0000
1000
0000
0001
0000
0000
0001
0000
0000
0100
0000
,
0010
0000
1000
0000
1010
0000
0000
0010
0000
0000
0100
0000
0001
0000
0010
0000
,
0100
1000
0010
0100
0001
1000
02M0
0000
,
0000
0000
0000
0000
0300
1000
0001
1000
0020
0000
0000
0230
0000
0301
2000
0000
,
3001
1000
0100
0010
0200
0000
0000
1300
0001
1000
0020
0000
0000
0130
0001
1000
,
0002
0000
0000
0023
0000
0000
0230
0000
0000
2300
0000
0000
3020
0000
0000
0230
,
0000
0000
0301
0000
2000
0000
0000
0000
0000
0000
3001
0000
1000
0000
0001
0000
0010
0000
0000
0010
0000
0000
0001
0000
1000
0000
0001
0000
0100
0000
0000
0100
,
0000
0000
0001
0000
1000
0000
0100
0000
0010
0000
0000
0010
0000
0000
0001
0000
1000
0000
0010
0000
0100
0000
0000
0100
0000
0000
0001
0000
1000
0000
0001
0000
,
1000
0100
0010
0001
0100
0010
2000
0000
,
0000
3002
0000
0103
M110
0010
1000
0001
,
0010
0100
2000
0000
0000
3010
0100
0001
,
0200
0000
0000
0310
1000
0001
0020
0000
,
0000
0130
0010
0001
1000
0010
0100
0001
,
0010
0100
2000
0000
0000
3002
0000
0000
,
0203
0000
0000
0000
0000
0000
2300
0000
0000
0000
3100
0010
0200
0000
0000
0000
,
0000
0000
0301
0000
1000
0000
0001
0000
1001
0000
0000
1000
0000
0000
0100
0000
,
0010
0100
1000
0001
0100
0010
1000
0001
,
0020
0000
0130
1000
0010
0100
0001
1000
,
0001
0010
0100
1000
2100
0000
0000
3001
,
0100
0000
0001
0000
0010
0000
0100
0000
0010
0000
0001
0000
0000
1000
0000
0000
,
1002
0000
0000
0203
0000
0000
0310
0000
1000
0000
0001
0000
1000
0000
0100
0000
,
0010
0100
0010
0001
M100
0000
0000
0000
,
0000
0010
0000
0000
,
1001
0000
0000
1000
0000
0000
0100
0000
0010
0000
0001
0000
0011
0000
0000
0010
,
0000
0000
0001
0000
1000
0000
0100
0000
1100
0000
0000
1000
0000
0000
0010
0000
,
0100
0000
0001
0000
0101
0000
0000
0100
0000
0000
0010
0000
1000
0000
0001
0000
,
1001
0000
0000
1000
0000
0000
0100
0000
0010
0000
0001
0000
1001
0000
0000
1000
,
0000
0000
0010
0000
0100
0000
0001
0000
0101
0000
0000
0100
0000
0000
0010
0000
,
1000
0000
0001
0000
1001
0000
0000
1000
0000
0000
0100
0000
0010
0001
0010
0001
,
2000
3020
0230
0302
,
0000
0103
0010
0100
0002
0000
2003
0000
,
3200
0000
0000
0000
2300
0000
0000
0000
3010
0000
0100
0001
0100
0000
0010
1000
,
0002
0023
2030
3020
,
0000
0000
0031
0100
0010
1000
0001
1000
,
0100
0010
0001
0100
0010
1000
0400
0000
,
1300
0000
0001
0100
0000
0001
0100
0000
0010
1000
0000
0010
1000
0000
0001
1000
,
0000
0001
1000
0000
0100
0000
0010
0000
0100
0000
1000
0000
0010
0000
0100
0000
,
0001
0010
0100
1000
0001
0100
0001
1000
,
0100
0000
0010
0000
0001
0000
0010
0000
0100
0000
1000
0000
0010
0000
0000
0010
,
0000
0000
0010
0000
1000
0000
0001
0000
0010
0100
2000
0000
0000
0000
0000
0000
,
3000
0000
0000
0000
0010
0000
0100
0000
0010
0000
1000
0000
0000
0001
1000
0000
,
0200
0000
0300
1000
0100
0000
0010
0000
0100
0000
1000
0000
0002
0000
0000
0203
,
0000
0000
0320
0000
0000
0030
0000
0000
0020
0000
0000
0000
0000
0000
1030
0000
,
0001
0000
1000
0100
0010
0000
0100
0000
1000
0000
0001
0000
0000
1000
0000
0000
,
1001
0000
0000
1001
0000
0000
0110
0000
0000
0110
0000
0000
0001
0000
0010
0000
,
0100
0000
2000
0000
0000
0010
0000
0000
0002
0000
0000
0000
3003
0000
1000
0000
,
0010
0100
0001
0100
0010
2000
0000
0000
,
3001
0010
0001
1000
0100
1000
0001
0100
,
0001
1000
0010
1000
0100
0010
0100
1000
,
0001
1000
0010
0100
0001
1000
0100
0010
,
0210
0000
0000
1000
0000
0000
0020
0000
0000
0330
0000
0000
0011
0000
0001
0000
,
1000
0000
0002
0000
0000
0000
0003
0000
0101
0000
0000
0101
0000
0000
1010
0000
,
0000
1010
0000
0000
1001
0000
0001
0000
1000
0000
0100
0000
1000
0000
0010
0000
,
0200
0000
0000
0000
0000
0000
0301
0000
1000
0000
0001
0010
0001
0000
1000
0001
,
1000
0000
0010
0100
0010
0000
1000
0001
4000
0000
0000
0000
0000
0000
3001
0000
,
0010
0100
0100
1000
0010
0010
0100
0001
,
0002
0000
2003
0000
3200
0000
0301
0100
,
1000
0000
0002
0000
0000
0000
0103
0010
0200
0000
0000
0000
0000
0000
0000
0000
,
0310
0100
0001
1000
0100
1000
0001
0100
,
0020
0000
0000
0000
0000
0000
0230
0000
0000
0000
0000
0000
1300
0000
0000
0100
,
0000
0000
0001
0000
0000
1000
0000
0000
0200
0000
0000
0000
0000
0000
0000
0000
,
0310
0100
0002
0000
0000
0203
0000
0000
,
1300
0010
0100
0001
0010
0100
1000
0100
,
0010
0001
1000
0010
0200
0000
0000
0301
,
0100
0001
0040
0000
0000
0000
0030
0000
,
M011
0000
0000
0001
1000
0010
0200
0000
,
0300
0202
0000
0303
2100
0000
0000
3001
,
0010
0001
0200
0000
0000
0320
0000
0030
,
1010
0000
0000
1000
0000
0000
0001
0000
0010
0000
0100
0000
1100
0000
0000
1000
,
0000
0000
0010
0000
0100
0000
0001
0000
0101
0000
0000
0100
0000
0000
0010
0000
,
0000
1000
0000
0000
1001
0000
0001
0000
0010
0000
0110
0000
0100
0000
1000
0000
,
2001
0000
0000
3001
0100
0001
1000
0100
,
1000
0001
0010
0001
1000
0010
0100
0001
,
0010
0100
1000
0100
0010
0001
0100
0010
,
1010
0000
0M00
0010
0000
0000
0001
0000
1000
0000
0010
0000
1010
0000
0M00
0010
,
0000
0000
0001
0000
1000
0000
0100
0000
1100
0000
00M0
0100
0000
0000
0001
0000
,
1000
0100
1100
1000
0010
0100
0001
0010
;
