#TITLE:Wiggle Wop;
#SUBTITLE:(feat. Keno);
#ARTIST:Party Favor;
#TITLETRANSLIT:;
#SUBTITLETRANSLIT:;
#ARTISTTRANSLIT:;
#GENRE:;
#CREDIT:;
#BANNER:Wiggle Wop-bn.png;
#BACKGROUND:Wiggle Wop-bg.png;
#LYRICSPATH:;
#CDTITLE:;
#MUSIC:Wiggle Wop.ogg;
#OFFSET:0.009000;
#SAMPLESTART:27.690001;
#SAMPLELENGTH:18.462000;
#SELECTABLE:YES;
#BPMS:0.000000=104.000000
;
#STOPS:44.000000=1.731000,
125.000000=1.731000
;
#BGCHANGES:;
#KEYSOUNDS:;
#ATTACKS:;

//---------------dance-single - RGTM & Maxx----------------
#NOTES:
     dance-single:
     RGTM & Maxx-SX:
     Challenge:
     11:
     0.874356,0.902501,0.874356,0.139278,1.292189,791.000000,678.000000,113.000000,18.000000,40.000000,0.000000,0.874356,0.902501,0.874356,0.139278,1.292189,791.000000,678.000000,113.000000,18.000000,40.000000,0.000000:
0000
0000
0000
0000
,
0000
0000
0000
0000
,
0000
0000
0000
0000
,
0000
0000
0000
0000
0000
0000
0000
0000
0000
0000
0000
0000
1000
0001
0100
0001
,
0010
0000
0000
0000
00M0
0000
1000
0000
0000
0100
0000
0000
0010
0000
0000
0000
00M0
0000
1000
0000
0000
0100
0000
0000
0001
0000
0000
0000
000M
0000
1000
0000
0000
0100
0000
0000
0001
0000
0000
0000
000M
0000
1000
0000
0000
0100
0000
0000
,
0010
0000
0000
0000
0000
0000
0001
0000
0000
0100
0000
0000
0010
0000
0000
0000
00M0
0000
0001
0000
0000
0100
0000
0000
1000
0000
0000
0000
M000
0000
0001
0000
0000
0100
0000
0000
1000
0000
0000
0100
0000
0000
0001
0000
0000
0100
0000
0000
,
0010
0000
0000
0000
0000
0000
1000
0000
0000
0100
0000
0000
0010
0000
0000
0000
00M0
0000
1000
0000
0000
0100
0000
0000
0001
0000
0000
0000
000M
0000
1000
0000
0000
0100
0000
0000
0001
0000
0000
0000
000M
0000
1000
0000
0000
0100
0000
0000
,
0010
0000
0000
0000
0000
0000
0001
0000
0000
0100
0000
0000
0010
0000
0000
0000
00M0
0000
0001
0000
0000
0100
0000
0000
0010
0000
0000
1000
0000
0000
0100
0000
0000
0010
0000
0000
0001
0000
0000
0000
000M
0000
0100
0000
0000
1000
0000
0000
,
0001
0100
0001
0100
0010
0000
1000
0100
0001
0100
1000
0100
0010
0000
0010
0001
,
0100
0001
0100
0001
0010
0000
0010
0100
1000
0010
0001
0010
1000
0000
0001
1000
,
0100
0000
1000
0000
0100
0000
1000
0000
0001
0000
0100
0000
0001
0000
0100
0010
0100
0000
0010
0000
0100
0000
0010
0000
1000
0000
0001
0000
1000
0000
0001
0000
,
0000
0000
0000
0000
1001
0000
0000
0000
1000
0000
0001
0000
0010
0000
0101
0000
1010
0000
0001
0000
1100
0000
0010
0100
0010
0000
1000
0000
0011
0000
1000
0000
,
0101
0000
0010
0000
0002
0000
0000
0000
1003
0000
0001
0000
0010
0000
0101
0000
1010
0000
0001
0000
1100
0000
0010
0100
0010
0000
1000
0000
0101
0000
1000
0000
,
0010
0000
0000
0000
0100
0000
0000
0000
1001
0000
0000
0000
0001
0000
1010
0000
0101
0000
1000
0000
0011
0000
1000
0001
1000
0000
0100
0000
1010
0000
0001
0000
,
1100
0000
0010
0000
2000
0000
0000
3000
1001
0000
0000
0000
1000
0000
0101
0000
1010
0000
0001
0000
1100
0000
0001
1000
0001
0000
0100
0000
1000
0000
0100
0000
,
0001
0000
0000
0000
0110
0000
0000
0000
1001
0000
0000
0000
0001
0000
1100
0000
0011
0000
1000
0000
0101
0000
1000
0001
1000
0000
0100
0000
1000
0000
0011
0000
,
1100
0000
0000
0000
0220
0000
0000
0330
1001
0000
0000
0000
0001
0000
1010
0000
0101
0000
1000
0000
0011
0000
1000
0001
1000
0000
0010
0000
0100
0000
1000
0000
,
0100
0000
0001
0000
0020
0000
0000
0030
1001
0000
0000
0000
1000
0000
0011
0000
1100
0000
0001
0000
1010
0000
0100
0010
0100
0000
1000
0000
0011
0000
1000
0000
,
0001
0000
0000
0000
0220
0000
0000
0330
1001
0000
0000
0000
0001
0000
1100
0000
0011
0000
1000
0000
0101
0000
0010
0100
0010
0000
0100
0000
1010
0000
0100
0000
,
0001
0000
0110
0000
1000
0000
0000
1000
0100
0000
0010
0100
0001
0100
0010
0100
,
1000
0000
0000
0000
1001
0000
0001
0000
0100
00M0
0100
0000
1000
0000
0010
0000
1100
0000
0001
1000
0001
0000
0100
0000
0010
0000
0000
0000
1000
0000
0001
0000
,
1100
0000
0010
0100
0010
0000
1000
0000
0100
00M0
0100
0000
0001
0000
1000
0000
0011
0000
1000
0001
1000
0000
0100
0000
0010
0000
0000
0000
0001
0000
0100
0000
,
2000
0000
0000
0000
3100
0000
0011
0000
0100
00M0
0100
0000
1000
0000
0001
0000
1010
0000
0001
1000
0001
0000
0100
0000
0010
0000
0000
0000
1000
0000
0001
0000
,
1010
0000
0100
0010
0100
0000
1000
0000
0001
0000
0000
0000
0001
0000
0100
0000
1000
0000
0100
0000
0010
0000
0000
0000
0010
0000
0000
0000
1000
0000
0100
0000
,
0001
0000
0000
0100
0000
0000
0110
0000
0000
0000
0000
0000
1001
0000
0000
0000
0000
0000
0001
0000
0000
0100
0000
0000
0010
0000
0000
0000
00M0
0000
0001
0000
0000
0100
0000
0000
1000
0000
0000
0000
M000
0000
0001
0000
0000
0100
0000
0000
,
1000
0000
0000
0000
M000
0000
0001
0000
0000
0100
0000
0000
0010
0000
0000
0000
0000
0000
1000
0000
0000
0100
0000
0000
0010
0000
0000
0000
00M0
0000
1000
0000
0000
0100
0000
0000
0001
0000
0000
0000
000M
0000
1000
0000
0000
0100
0000
0000
,
0001
0000
0000
0100
0000
0000
1000
0000
0000
0100
0000
0000
0010
0000
0000
0000
0000
0000
0001
0000
0000
0100
0000
0000
0010
0000
0000
0000
00M0
0000
0001
0000
0000
0100
0000
0000
1000
0000
0000
0000
M000
0000
0001
0000
0000
0100
0000
0000
,
1000
0000
0000
0000
M000
0000
0001
0000
0000
0100
0000
0000
0010
0000
0000
0000
0000
0000
1000
0000
0000
0100
0000
0000
0010
0000
0000
0000
00M0
0000
1000
0000
0000
0100
0000
0000
0010
0000
0000
0001
0000
0000
0100
0000
0000
0010
0000
0000
,
1000
0000
0000
0000
M000
0000
0100
0000
0000
0001
0000
0000
1000
0000
0000
0100
0000
0000
1000
0000
0000
0100
0000
0000
0010
0000
0000
0000
0000
0000
0001
0000
0000
0100
0000
0000
1000
0000
0000
0100
0000
0000
0001
0000
0000
0100
0000
0000
,
0010
0000
0010
1000
0100
1000
0100
1000
0010
0000
0010
0100
0001
0010
0100
0010
,
0001
0000
0000
0000
1000
0000
0001
0000
0100
0000
0001
0000
0100
0000
0001
0000
1000
0000
0100
0000
1000
0000
0100
0010
0100
0000
0010
0000
0100
0000
0010
0000
,
0001
0000
1000
0000
0001
0000
1000
0000
0000
0000
0000
0000
1001
0000
0000
0000
0001
0000
1100
0000
0000
0000
1100
0000
0011
0000
1000
0000
0101
0000
0010
0100
,
0010
0000
0001
0000
1100
0000
0010
0000
1000
0000
0100
0000
0002
0000
0000
0000
0103
0000
1010
0000
0001
0000
1100
0000
0011
0000
1000
0000
0101
0000
0010
0100
,
0010
0000
0001
0000
1100
0000
0010
0000
1000
0000
0100
0000
0020
0000
0000
0000
0030
0000
0001
0000
1010
0000
0001
0000
1100
0000
0011
0000
1000
0000
0100
0010
,
0100
0000
1000
0000
0011
0000
0100
0000
0001
0000
0010
0000
2000
0000
0000
3000
0110
0000
0000
0000
0001
0000
1100
0000
0001
0000
1010
0000
0101
0000
1000
0001
,
1000
0000
0100
0000
0010
0000
1000
0000
0010
0000
0000
0000
0110
0000
0000
0000
1001
0000
0000
0000
1000
0000
0011
0000
1100
0000
0001
0000
1010
0000
0001
1000
,
0001
0000
0010
0000
0001
0000
1100
0000
0011
0000
0000
0000
0220
0000
0000
0330
1001
0000
0000
0000
1000
0000
0101
0000
1010
0000
0001
0000
1100
0000
0001
1000
,
0001
0000
0100
0000
0010
0000
0001
0000
0010
0000
1000
0000
0200
0000
0000
0300
1001
0000
0000
0000
0001
0000
1100
0000
0011
0000
1000
0000
0101
0000
0010
0100
,
0010
0000
0001
0000
1100
0000
0001
0000
1000
0000
0000
0000
0220
0000
0000
0330
1001
0000
0000
0000
1000
0000
0011
0000
1100
0000
0001
0000
1010
0000
0100
0010
,
0100
0010
0101
0010
1000
0000
0110
0000
0001
0000
0000
0001
0010
0000
0100
0010
,
1000
0000
0010
0000
0100
0000
0010
0000
0001
0000
0000
0000
1001
0000
0001
0000
0010
0M00
0010
0000
1000
0000
0001
0000
1010
0000
0001
1000
0001
0000
0100
0000
,
0010
0000
0000
0000
1000
0000
0001
0000
1010
0000
0100
0010
0100
0000
1000
0000
0010
0M00
0010
0000
0001
0000
1000
0000
0101
0000
1000
0001
1000
0000
0010
0000
,
0100
0000
0000
0000
0001
0000
0100
0000
2000
0000
0000
0000
3100
0000
0011
0000
0100
00M0
0100
0000
1000
0000
0001
0000
1010
0000
0001
1000
0001
0000
0010
0000
,
0100
0000
0000
0000
1000
0000
0001
0000
1100
0000
0010
0100
0010
0000
1000
0000
0001
0000
0000
0000
1000
0000
0010
0000
0001
0000
0010
0000
0100
0000
0000
0000
,
0100
0000
0000
0000
0000
0000
0001
0000
0000
0010
0000
0000
1000
0000
0000
0010
0000
0000
0110
0000
0000
0000
0000
0000
1001
0000
0000
0000
0000
0000
1000
0000
0000
0100
0000
0000
0010
0000
0000
0000
00M0
0000
1000
0000
0000
0100
0000
0000
,
0001
0000
0000
0000
000M
0000
1000
0000
0000
0100
0000
0000
0001
0000
0000
0000
000M
0000
1000
0000
0000
0100
0000
0000
0010
0000
0000
0000
0000
0000
0001
0000
0000
0100
0000
0000
0010
0000
0000
0000
00M0
0000
0001
0000
0000
0100
0000
0000
,
1000
0000
0000
0000
M000
0000
0001
0000
0000
0100
0000
0000
1000
0000
0000
0100
0000
0000
0001
0000
0000
0100
0000
0000
0010
0000
0000
0000
0000
0000
1000
0000
0000
0100
0000
0000
0010
0000
0000
0000
00M0
0000
1000
0000
0000
0100
0000
0000
,
0001
0000
0000
0000
000M
0000
1000
0000
0000
0100
0000
0000
0001
0000
0000
0000
000M
0000
1000
0000
0000
0100
0000
0000
0010
0000
0000
0000
0000
0000
0001
0000
0000
0100
0000
0000
0010
0000
0000
0000
00M0
0000
0001
0000
0000
0100
0000
0000
,
0010
1000
0100
0010
0001
0000
0110
0000
1001
0000
0001
0100
0011
0000
0100
0010
,
1000
0000
0000
0000
0001
0000
0010
0000
0100
0000
0000
0000
1000
0000
0001
0000
0100
00M0
0100
0000
1000
0000
0001
0000
1100
0000
0000
0000
0001
0000
1000
0000
,
0010
0000
0100
0000
0001
0000
1000
0000
0100
00M0
0100
0000
0001
0000
0000
0000
1100
0000
0001
0000
0100
0000
0010
0000
1100
0000
0000
0000
0001
0000
1000
0000
,
0101
0000
1000
0000
0001
0000
0010
0000
0101
0000
0000
0000
1000
0000
0000
0000
0001
0000
0100
00M0
0100
0000
1000
0000
0010
0000
0000
0000
0100
0000
0001
0000
,
1000
0000
0100
0000
1000
0000
0001
0000
0010
0M00
0010
0000
2000
0000
0000
0000
0000
0000
0000
0000
0000
0000
0000
0000
0000
0000
0000
0000
0000
0000
0000
0000
,
0000
0000
0000
0000
,
0000
3000
0000
0000
;

//---------------dance-single - ----------------
#NOTES:
     dance-single:
     :
     Beginner:
     1:
     0.107222,0.103491,0.000000,0.007738,0.000000,97.000000,97.000000,0.000000,1.000000,0.000000,0.000000,0.107222,0.103491,0.000000,0.007738,0.000000,97.000000,97.000000,0.000000,1.000000,0.000000,0.000000:
// measure 0
0000
0000
0000
0000
,  // measure 1
0000
0000
0000
0000
,  // measure 2
0000
0000
0000
0000
,  // measure 3
0000
0000
0000
0000
,  // measure 4
1000
0000
1000
0000
,  // measure 5
0001
0000
0001
0000
,  // measure 6
1000
0000
1000
0000
,  // measure 7
0001
0000
0001
0000
,  // measure 8
0010
0000
0010
0000
,  // measure 9
0100
0000
0100
0000
,  // measure 10
1000
0000
0001
0000
,  // measure 11
0000
1000
0000
1000
,  // measure 12
0000
0001
0000
0001
,  // measure 13
0000
0100
0000
0100
,  // measure 14
0000
0010
0000
0010
,  // measure 15
0000
1000
0000
1000
,  // measure 16
0000
0001
0000
0001
,  // measure 17
0000
0010
0000
0010
,  // measure 18
0000
0100
0000
0100
,  // measure 19
0000
1000
0000
1000
,  // measure 20
0000
0001
0000
0100
,  // measure 21
0000
0001
0000
0100
,  // measure 22
0000
0010
0000
1000
,  // measure 23
0000
0010
0000
1000
,  // measure 24
0000
0001
0000
0001
,  // measure 25
0000
1000
0000
1000
,  // measure 26
0000
0001
0000
0001
,  // measure 27
0000
1000
0000
1000
,  // measure 28
0000
0100
0000
0100
,  // measure 29
0000
0010
0000
0010
,  // measure 30
0000
0100
0000
0100
,  // measure 31
0000
0000
1000
0000
,  // measure 32
1000
0000
0001
0000
,  // measure 33
0001
0000
1000
0000
,  // measure 34
1000
0000
0001
0000
,  // measure 35
0001
0000
0100
0000
,  // measure 36
0100
0000
0010
0000
,  // measure 37
0010
0000
0100
0000
,  // measure 38
0100
0000
0010
0000
,  // measure 39
0010
0000
1000
0000
,  // measure 40
0001
0000
1000
0000
,  // measure 41
0001
0000
0010
0000
,  // measure 42
0100
0000
0010
0000
,  // measure 43
0100
0000
1000
0000
,  // measure 44
1000
0000
0001
0000
,  // measure 45
0001
0000
1000
0000
,  // measure 46
1000
0000
0001
0000
,  // measure 47
0001
0000
0100
0000
,  // measure 48
0100
0000
0001
0000
,  // measure 49
0001
0000
1000
0000
,  // measure 50
1000
0000
0100
0000
,  // measure 51
0100
0000
0010
0000
,  // measure 52
0001
2000
0000
0000
,  // measure 53
0000
0000
3000
0000
;

//---------------dance-single - ----------------
#NOTES:
     dance-single:
     :
     Easy:
     3:
     0.203390,0.186284,0.000000,0.007738,0.000000,184.000000,184.000000,0.000000,1.000000,0.000000,0.000000,0.203390,0.186284,0.000000,0.007738,0.000000,184.000000,184.000000,0.000000,1.000000,0.000000,0.000000:
0000
0000
0000
0000
,
0000
0000
0000
0000
,
0000
0000
0000
0000
,
0000
0000
0000
0000
,
1000
0001
1000
0001
,
0100
0010
0100
0010
,
1000
0001
1000
0001
,
0010
0100
0010
0100
,
1000
0001
1000
0001
,
0100
0010
0100
0010
,
1000
0001
1000
0001
,
0000
1000
0100
1000
,
0100
0010
0001
0010
,
0001
1000
0010
1000
,
0010
0100
0001
0100
,
0001
1000
0100
1000
,
0100
0010
0001
0010
,
0001
1000
0010
1000
,
0010
0100
0001
0100
,
0001
1000
0000
0001
,
0000
1000
0100
1000
,
0100
0010
0001
0010
,
0001
1000
0010
1000
,
0010
0100
0000
0001
,
0000
1000
0001
1000
,
0001
0010
0100
0010
,
0100
1000
0001
1000
,
0001
0100
0010
0100
,
0010
1000
0001
1000
,
0001
0010
0100
0010
,
0100
1000
0001
0100
,
0010
0000
1000
0100
,
1000
0100
0010
0001
,
0010
0001
1000
0010
,
1000
0010
0100
0001
,
0100
0001
1000
0100
,
1000
0100
0010
0001
,
0010
0001
1000
0010
,
1000
0010
0100
0001
,
0100
0001
1000
0000
,
0001
0000
1000
0100
,
1000
0100
0010
0001
,
0010
0001
1000
0010
,
1000
0010
0100
0000
,
0001
0000
1000
0001
,
1000
0001
0010
0100
,
0010
0100
1000
0001
,
1000
0001
0100
0010
,
0100
0010
1000
0001
,
1000
0001
0010
0100
,
0010
0100
1000
0001
,
1000
0001
0100
0010
,
0100
0002
0000
0000
,
0000
0000
0003
0000
;

//---------------dance-single - ----------------
#NOTES:
     dance-single:
     :
     Medium:
     6:
     0.348195,0.351870,0.000000,0.108327,0.000000,315.000000,315.000000,0.000000,14.000000,0.000000,0.000000,0.348195,0.351870,0.000000,0.108327,0.000000,315.000000,315.000000,0.000000,14.000000,0.000000,0.000000:
0000
0000
0000
0000
,
0000
0000
0000
0000
,
0000
0000
0000
0000
,
0000
0000
0000
0000
,
1000
0000
0001
0000
1000
0010
0100
0000
,
0001
0000
1000
0000
0001
0010
0100
0000
,
1000
0000
0001
0000
1000
0010
0100
0000
,
0001
0000
1000
0000
0001
0010
0100
0000
,
1000
0010
1000
0000
0010
1000
0010
0000
,
0100
0001
0100
0000
0001
0100
0001
0000
,
1000
0100
1000
0100
0010
0001
0010
0001
,
0000
0000
1000
0100
0010
0001
1000
0010
,
0100
0002
1003
0100
0010
0001
1000
0010
,
0100
0001
1000
0100
0010
0001
1000
0010
,
0100
0002
1003
0100
0010
0001
1000
0010
,
0400
0000
0301
0010
0100
1000
0001
0100
,
0010
2000
3001
0010
0100
1000
0001
0100
,
0010
2000
3001
0010
0100
1000
0001
0100
,
0010
2000
3001
0010
0100
1000
0001
0100
,
0040
0000
1030
0000
0001
0000
0010
0100
,
1000
0000
0001
0100
0001
1000
0001
0100
,
0010
1000
0001
0100
0001
1000
0001
0100
,
0020
1030
0100
1000
0001
1000
0100
0010
,
0001
1000
0100
0000
0010
0001
1000
0000
,
0010
1000
0001
0000
0010
0000
0001
1000
,
0010
0000
1000
0000
0001
0000
1000
0001
,
0010
0000
0001
0000
1000
0000
0001
1000
,
0100
0000
1000
0000
0001
0000
1000
0001
,
0100
0000
0010
1000
0010
0000
1000
0010
,
1000
0000
0001
0100
0001
0000
0100
0001
,
0100
0000
0001
1000
0100
0010
0001
1000
,
0010
0100
0000
0000
0001
1000
0100
0010
,
0001
1000
0010
0200
0301
1000
0100
0010
,
0001
1000
0010
0200
0301
1000
0100
0010
,
0001
1000
0010
0200
0301
1000
0100
0010
,
0001
1000
0040
0000
1030
0001
0100
0010
,
1000
0001
0010
0200
1300
0001
0100
0010
,
1000
0001
0010
0200
1300
0001
0100
0010
,
1000
0001
0010
0200
1300
0001
0100
0010
,
1000
0001
0040
0000
0130
0000
1000
0000
,
0001
1000
0001
0000
1000
0010
0100
0001
,
0010
0100
1000
0001
0100
0010
1000
0001
,
0010
0100
2000
3001
0100
0010
1000
0001
,
0010
0100
1000
0001
0100
0000
0010
1000
,
0001
0000
0010
0001
1000
0000
0001
0000
,
1000
0001
0100
0000
0001
0000
1000
0000
,
0001
1000
0100
0000
0010
0000
0001
0000
,
1000
0010
0100
0000
0001
0000
1000
0000
,
0001
0010
0100
0000
1000
0000
0001
0000
,
1000
0100
1000
0000
0001
0000
1000
0000
,
0001
0100
0001
0000
1000
0000
0001
0000
,
1000
0010
1000
0000
0001
0000
1000
0000
,
0001
0010
0001
2000
0000
0000
0000
0000
,
0000
0000
3000
0000
;

//---------------dance-single - Maxx----------------
#NOTES:
     dance-single:
     :
     Hard:
     10:
     0.778188,0.734594,0.208917,0.116065,1.288321,704.000000,677.000000,27.000000,15.000000,39.000000,0.000000,0.778188,0.734594,0.208917,0.116065,1.288321,704.000000,677.000000,27.000000,15.000000,39.000000,0.000000:
0000
0000
0000
0000
,
0000
0000
0000
0000
,
0000
0000
0000
0000
,
0000
0000
0000
0000
0000
0000
0000
0000
0000
0000
0000
0000
0001
1000
0100
1000
,
0010
0000
1000
0001
0010
0000
0001
1000
0100
0000
1000
0001
0100
0000
0001
1000
,
0010
0000
1000
0001
0010
0000
0001
1000
0100
0000
1000
0010
0100
0010
1000
0001
,
0010
0000
0001
1000
0010
0000
1000
0001
0100
0000
0001
1000
0100
0000
1000
0001
,
0010
0000
0001
1000
0010
0000
1000
0001
0100
0010
0100
0001
1000
0000
0001
1000
,
0100
0010
0100
0010
0001
0000
1000
0001
0100
0010
0100
0010
1000
0000
0001
1000
,
0100
0010
0100
0010
0001
0000
1000
0001
0100
0010
0100
0010
1000
0000
0001
1000
,
0001
0100
0001
0100
0010
1000
0010
1000
0001
0010
0001
0010
0100
1000
0100
1000
,
0000
0000
0000
0000
1001
0000
0000
0000
1000
0000
0001
0000
0100
00M0
0100
0000
1000
0000
0100
00M0
0100
0000
0001
1000
0001
0000
1000
0000
0100
00M0
0100
0000
,
0001
0000
1000
0000
0200
0000
0000
0000
1300
0000
0001
0000
0100
00M0
0100
0000
1000
0000
0100
00M0
0100
0000
0001
1000
0001
0000
1000
0000
0001
0000
0010
0000
,
0100
0000
0000
0000
1000
0000
0000
0000
1001
0000
0000
0000
0001
0000
1000
0000
0010
0M00
0010
0000
0001
0000
1000
0001
1000
0000
0001
0000
0100
00M0
0100
0000
,
1000
0000
0001
0000
0200
0000
0000
0300
0101
0000
0000
0000
0001
0000
1000
0000
0100
00M0
0100
0000
0001
0000
1000
0001
1000
0000
0001
0000
1000
0000
0010
0000
,
0100
0000
0000
0000
0110
0000
0000
0000
1001
0000
0000
0000
0001
0000
0100
00M0
0100
0000
1000
0000
0001
0000
1000
0001
1000
0000
0100
0000
0010
0000
0001
0000
,
0100
0000
0000
0000
0220
0000
0000
0330
1001
0000
0000
0000
0001
0000
0100
00M0
0100
0000
1000
0000
0001
0000
1000
0001
1000
0000
0010
0000
0100
0000
0001
0000
,
1000
0000
0100
0000
0020
0000
0000
0030
1001
0000
0000
0000
1000
0000
0100
00M0
0100
0000
0001
0000
1000
0000
0010
0100
0010
0000
1000
0000
0001
0000
0010
0000
,
0100
0000
0000
0000
0220
0000
0000
0330
1001
0000
0000
0000
0001
0000
0100
00M0
0100
0000
1000
0000
0001
0000
0010
0100
0010
0000
0001
0000
1000
0000
0010
0000
,
0100
0000
0110
0000
1000
0000
0000
1000
0100
0000
0010
0100
1000
0001
0100
0010
,
1000
0000
0000
0000
1001
0000
0001
0000
0100
00M0
0100
0000
1000
0000
0100
00M0
0100
0000
0001
1000
0001
0000
1000
0000
0100
0000
0000
0000
1000
0000
0001
0000
,
1000
0000
0010
0100
0010
0000
1000
0000
0010
0M00
0010
0000
0001
0000
0010
0M00
0010
0000
1000
0001
1000
0000
0001
0000
0100
0000
0000
0000
0001
0000
1000
0000
,
0010
0000
1000
0000
0001
0000
1000
0000
0100
00M0
0100
0000
0001
0000
0100
00M0
0100
0000
1000
0001
1000
0000
0001
0000
0100
0000
0000
0000
0001
0000
1000
0000
,
0010
0000
0100
0010
0100
0000
0001
0000
1000
0000
0000
0000
0001
0000
1000
0000
0100
0000
1000
0000
0001
0000
0000
0000
0001
0000
0000
0000
1000
0000
0001
0000
,
0100
0001
1000
0000
1001
0000
0001
0100
0010
0000
1000
0001
0100
0000
0001
1000
,
0100
0000
1000
0100
0010
0000
0001
0100
0010
0000
1000
0001
0100
0000
0001
1000
,
0100
0010
0001
1000
0010
0000
1000
0100
0010
0000
0001
1000
0100
0000
1000
0001
,
0100
0000
0001
0100
0010
0000
1000
0100
0010
0000
0001
0100
0010
1000
0001
0010
,
0100
0000
1000
0001
0100
0010
0100
0010
1000
0000
0001
1000
0100
0010
0100
0010
,
0001
0000
1000
0001
0100
0010
0100
0010
1000
0000
0001
1000
0100
0010
0100
0010
,
0001
0000
1000
0001
1000
0010
1000
0010
0100
0001
0100
0001
1000
0100
1000
0100
,
0010
0000
0001
0000
0010
0000
0001
0000
0000
0000
0000
0000
1001
0000
0000
0000
0000
0000
1000
0000
0000
0000
1000
0000
0100
00M0
0100
0000
0001
0000
1000
0001
,
1000
0000
0001
0000
0100
00M0
0100
0000
1000
0000
0001
0000
0020
0000
0000
0000
0130
0000
1000
0000
0001
0000
0100
00M0
0100
0000
1000
0000
0001
0000
0100
0010
,
0100
0000
0001
0000
0010
0M00
0010
0000
1000
0000
0001
0000
0020
0000
0000
0000
0030
0000
0001
0000
1000
0000
0100
00M0
0100
0000
0001
0000
1000
0000
0010
0100
,
0010
0000
1000
0000
0100
00M0
0100
0000
0001
0000
1000
0000
0010
0000
0000
0000
0110
0000
0000
0000
0001
0000
0100
00M0
0100
0000
1000
0000
0001
0000
1000
0001
,
1000
0000
0100
0000
0010
0000
0001
0000
0100
0000
0000
0000
0110
0000
0000
0000
1001
0000
0000
0000
1000
0000
0001
0000
0100
00M0
0100
0000
1000
0000
0001
1000
,
0001
0000
1000
0000
0001
0000
0010
0000
0100
0000
0000
0000
0220
0000
0000
0330
1001
0000
0000
0000
1000
0000
0001
0000
0100
00M0
0100
0000
1000
0000
0001
1000
,
0001
0000
0100
0000
0010
0000
1000
0000
0001
0000
0010
0000
0200
0000
0000
0300
1001
0000
0000
0000
0001
0000
1000
0000
0100
00M0
0100
0000
0001
0000
1000
0001
,
1000
0000
0100
0000
0010
0000
0001
0000
1000
0000
0000
0000
0220
0000
0000
0330
1001
0000
0000
0000
1000
0000
0001
0000
0100
00M0
0100
0000
1000
0000
0001
1000
,
0001
1000
0010
0100
0001
0000
1001
0000
0001
0000
0000
0001
0010
0000
0100
0010
,
0001
0000
1000
0000
0010
0000
0100
0000
0001
0000
0000
0000
1001
0000
0001
0000
0100
00M0
0100
0000
1000
0000
0100
00M0
0100
0000
0001
1000
0001
0000
1000
0000
,
0100
0000
0000
0000
1000
0000
0001
0000
0100
0000
0010
0100
0010
0000
1000
0000
0100
00M0
0100
0000
0001
0000
0100
00M0
0100
0000
1000
0001
1000
0000
0010
0000
,
0100
0000
0000
0000
0001
0000
1000
0000
0100
0000
1000
0000
0001
0000
1000
0000
0100
00M0
0100
0000
0001
0000
0100
00M0
0100
0000
1000
0001
1000
0000
0010
0000
,
0100
0000
0000
0000
0001
0000
1000
0000
0100
0000
0010
0100
0010
0000
0001
0000
1000
0000
0000
0000
1000
0000
0001
0000
0010
0000
0001
0000
1000
0000
0000
0000
,
1000
0000
0001
1000
0010
1000
0001
0000
1001
0000
1000
0100
0010
0000
0001
1000
,
0100
0000
1000
0001
0100
0000
0001
0100
0010
0000
1000
0100
0010
0000
0001
1000
,
0100
0000
1000
0001
0100
0010
0100
0010
1000
0000
0001
0100
0010
0000
1000
0001
,
0100
0000
0001
1000
0100
0000
1000
0100
0010
0000
0001
0100
0010
0000
1000
0001
,
0010
0100
0010
0100
1000
0000
1001
0000
0110
0000
0001
1000
0100
0000
1000
0001
,
0100
0000
0000
0000
0010
0000
1000
0000
0001
0000
0000
0000
1000
0000
0001
0000
0100
00M0
0100
0000
1000
0000
0001
0000
0010
0000
0000
0000
0001
0000
1000
0000
,
0010
0000
0100
0000
0001
0000
1000
0000
0100
00M0
0100
0000
0001
0000
0000
0000
1000
0000
0001
0000
0100
0000
0010
0000
1000
0000
0000
0000
0001
0000
1000
0000
,
0100
0000
0010
0000
0001
0000
1000
0000
0010
0000
0000
0000
1000
0000
0000
0000
0001
0000
0100
00M0
0100
0000
1000
0000
0010
0000
0000
0000
0100
0000
0001
0000
,
1000
0000
0100
0000
1000
0000
0001
0000
0010
0M00
0010
0000
2000
0000
0000
0000
0000
0000
0000
0000
0000
0000
0000
0000
0000
0000
0000
0000
0000
0000
0000
0000
,
0000
0000
0000
0000
,
0000
3000
0000
0000
;
