#VERSION:0.83;
#TITLE:Voidwalkers;
#SUBTITLE:;
#ARTIST:Chime & Au5;
#TITLETRANSLIT:;
#SUBTITLETRANSLIT:;
#ARTISTTRANSLIT:;
#GENRE:;
#ORIGIN:;
#CREDIT:;
#BANNER:Voidwalkers-bn.png;
#BACKGROUND:Voidwalkers-bg.png;
#PREVIEWVID:;
#JACKET:voidwalkers-jacket.png;
#CDIMAGE:;
#DISCIMAGE:;
#LYRICSPATH:;
#CDTITLE:;
#MUSIC:Voidwalkers.ogg;
#OFFSET:-0.015000;
#SAMPLESTART:108.193001;
#SAMPLELENGTH:18.000000;
#SELECTABLE:YES;
#BPMS:0.000=142.000;
#STOPS:;
#DELAYS:;
#WARPS:;
#TIMESIGNATURES:0.000=4=4;
#TICKCOUNTS:0.000=4;
#COMBOS:0.000=1;
#SPEEDS:0.000=1.000=0.000=0;
#SCROLLS:0.000=1.000;
#FAKES:;
#LABELS:0.000=Song Start;
#BGCHANGES:;
#KEYSOUNDS:;
#ATTACKS:
;

//---------------dance-single - ----------------
#NOTEDATA:;
#CHARTNAME:;
#STEPSTYPE:dance-single;
#DESCRIPTION:;
#CHARTSTYLE:;
#DIFFICULTY:Challenge;
#METER:12;
#RADARVALUES:0.773076,0.976495,0.226740,0.529061,1.111027,716.000000,686.000000,30.000000,70.000000,28.000000,3.000000,16.000000,0.000000,0.000000,0.773076,0.976495,0.226740,0.529061,1.111027,716.000000,686.000000,30.000000,70.000000,28.000000,3.000000,16.000000,0.000000,0.000000;
#CREDIT:CopperPuppy;
#NOTES:
// measure 0
0000
0000
0000
0000
,  // measure 1
0000
0000
0000
0000
,  // measure 2
0000
0000
0000
0000
,  // measure 3
0000
0000
0000
0000
0000
0000
0000
0000
0000
0000
0000
0000
0000
0000
0001
1000
0001
0000
0100
0000
0000
0000
0010
0000
1000
0000
0000
0000
0001
0000
0010
0000
,  // measure 4
0100
0000
2000
0000
3001
0000
0000
0000
0100
0010
0000
0000
1000
0000
0001
0010
,  // measure 5
0001
0000
2000
0000
3010
0000
0000
0000
0100
0001
1000
0000
0100
0000
0010
0001
,  // measure 6
1000
0000
0020
0000
0130
0000
0000
0000
0001
1000
0000
0000
0100
0000
0010
0100
,  // measure 7
1000
0001
0100
0001
1000
0100
0010
0001
1000
0010
0100
0001
1000
0100
1000
0001
,  // measure 8
0100
0000
0010
0000
0100
0000
0001
0000
1000
0000
0100
0000
1000
0001
0010
0001
,  // measure 9
0100
0000
0010
0000
1000
0000
0100
0000
1000
0000
0001
0000
1000
0010
0100
0001
,  // measure 10
0010
0000
0001
0000
1000
0000
0100
0000
0010
0000
0001
0000
1000
0001
0010
0001
,  // measure 11
0100
0000
0001
0000
0100
0000
0010
0000
1000
0000
0001
0000
1000
0010
1000
0001
,  // measure 12
0100
0010
1000
0001
0010
0100
0010
0001
1000
0010
0100
0001
1000
0100
1000
0001
,  // measure 13
0100
0010
0100
0001
1000
0100
0010
0001
1000
0010
1000
0001
0010
0100
1000
0001
,  // measure 14
1100
0000
0001
1010
0000
0001
1100
0000
0001
1010
0000
0001
1100
0001
0010
0100
,  // measure 15
2000
0000
0000
0000
0000
0000
0000
0000
3001
0010
0000
0001
0100
0000
0000
0000
,  // measure 16
2001
0000
0000
0000
0000
0000
3000
0000
0001
0010
0M00
0010
0000
0000
1000
0000
,  // measure 17
0001
0100
00M0
0100
0000
0000
1000
0000
0100
0001
00M0
0001
0000
0000
1000
0000
,  // measure 18
0040
0000
0000
0000
0230
0000
1300
0100
0001
0010
0M00
0010
0000
0000
1000
0000
,  // measure 19
0001
0100
00M0
0100
0000
0000
1000
0000
0001
0001
0000
0010
0000
0100
0000
0000
,  // measure 20
1002
0000
0000
0000
0000
0000
0003
0000
1000
0010
0M00
0010
0000
0000
0001
0000
,  // measure 21
1000
0100
00M0
0100
0000
0000
0001
0000
0100
1000
00M0
1000
0000
0000
0001
0000
,  // measure 22
0040
0000
0000
0000
1030
0010
0001
1000
0010
0100
M000
0100
0000
0000
1000
0000
,  // measure 23
0001
0100
0001
1000
0200
0000
0310
0000
0100
1000
0001
0000
0100
0000
0010
0000
,  // measure 24
1000
0001
1000
0010
0100
0000
0001
0000
1000
0001
0010
0100
0001
0100
0010
0001
,  // measure 25
0000
1000
0010
0100
1000
0100
0010
1000
0004
0000
0000
0000
0000
0000
0013
0000
,  // measure 26
0002
0000
0000
0000
0203
0000
1300
0100
0001
1000
0100
0010
1000
0010
0100
1000
,  // measure 27
0000
0010
0001
1000
0100
0001
1000
0100
0010
0010
0000
0001
0000
1000
0000
0000
,  // measure 28
2010
0000
0000
0000
0000
0000
3000
0000
0001
0100
00M0
0100
0000
0000
1000
0000
,  // measure 29
0001
0010
0M00
0010
1000
0001
0010
0000
4001
0000
0000
0000
0000
0000
0000
0000
,  // measure 30
3020
0000
0000
0000
1030
0000
0100
1000
0001
0100
00M0
0100
0000
0000
1000
0000
,  // measure 31
0002
0000
0023
0000
,  // measure 32
0130
1000
0001
0000
0100
0000
0000
0010
0000
0100
0000
0001
0000
1000
0000
0100
,  // measure 33
0010
0001
1000
0000
0010
0000
0000
0100
0000
0010
0000
1000
0000
0001
0000
0010
,  // measure 34
0001
1000
0010
0000
0100
0000
0000
0001
0000
1000
0000
0100
0000
0010
0000
0001
,  // measure 35
1000
0010
1000
0001
0010
0100
1000
0001
0100
0010
1000
0001
0010
0100
0010
0001
,  // measure 36
4000
0000
0000
0000
3010
0000
1000
0001
0010
0001
1000
0010
0100
0001
1000
0100
,  // measure 37
0040
0000
0000
0000
0130
0000
1000
0001
0100
0010
1000
0001
0010
0001
1000
0010
,  // measure 38
0400
0000
0000
0000
0310
0000
1000
0001
0010
0100
0010
0001
1000
0010
0100
0001
,  // measure 39
4000
0000
0000
0000
3001
0000
0010
0100
0000
1000
0001
0100
0000
0010
0000
0000
,  // measure 40
2010
0000
0000
0000
3001
0000
0010
0100
1000
0001
0100
0010
0100
0001
1000
0100
,  // measure 41
0040
0000
0000
0000
0031
0000
0010
0001
1000
0010
0100
0001
1000
0100
1000
0001
,  // measure 42
0400
0000
0000
0000
0310
0000
0100
0001
1000
0100
0010
0100
1000
0001
0100
0010
,  // measure 43
4000
0000
0000
0000
0000
0000
0000
0000
3001
0100
0000
0001
0010
0000
0100
0000
,  // measure 44
4000
0000
0000
0000
0000
0000
0000
0000
3004
0000
0000
0000
1003
0000
0000
0000
0001
0000
0010
0000
0M00
0000
0010
0000
0000
0000
0100
00M0
0100
0000
0000
0000
,  // measure 45
1000
0000
0100
0000
00M0
0000
0100
0000
0000
0000
0010
0M00
0010
0000
0000
0000
0001
0000
1000
0000
0010
0000
0100
0000
0002
0000
0000
0000
0203
0000
0000
0000
,  // measure 46
0304
0000
0000
0000
0000
0000
0000
0000
0023
0000
0000
0000
1030
0000
0010
0000
0001
0000
0100
0000
00M0
0000
0100
0000
0000
0000
0010
0M00
0010
0000
0000
0000
,  // measure 47
1000
0000
0010
0000
0M00
0000
0010
0000
0000
0000
0100
00M0
0100
0000
0100
0000
1000
0000
0001
0000
0000
0000
0100
0000
0000
0000
0010
0000
1000
0000
0001
0000
,  // measure 48
0012
0000
0000
0000
0000
0000
0000
0000
4003
0000
0000
0000
3001
0000
0000
0000
1000
0000
0100
0000
00M0
0000
0100
0000
0000
0000
0010
0M00
0010
0000
0000
0000
,  // measure 49
0001
0000
0100
0000
00M0
0000
0100
0000
0000
0000
0010
0M00
0010
0000
0000
0000
1000
0000
0001
0000
0100
0000
0010
0000
2000
0000
0000
0000
3001
0000
1000
0000
,  // measure 50
0200
0000
0000
0000
0000
0000
0000
0000
0301
0000
0100
0000
0010
0000
0001
0000
1000
0000
0010
0000
0M00
0000
0010
0000
0000
0000
0100
00M0
0100
0000
0001
0000
,  // measure 51
1000
0010
0000
0100
0002
0000
2003
0000
3200
0000
0000
0310
0001
0000
1000
0000
,  // measure 52
0004
0000
0000
0000
1103
0000
0000
0000
0002
0000
0000
0000
1003
0100
0001
0100
,  // measure 53
0010
1000
0010
0100
1000
0001
0100
1000
0200
0000
0000
0000
0311
0000
2000
0000
,  // measure 54
3010
0100
0000
0001
1010
0000
0100
0000
2000
0000
0000
0000
3001
0100
1000
0100
,  // measure 55
0010
0001
0010
0100
0001
1000
0100
0001
0100
1000
0000
0001
0000
0100
0010
1000
,  // measure 56
0002
0000
0003
0010
0101
0000
1000
0000
0010
0100
0000
0001
1010
0000
0001
0000
,  // measure 57
0100
0010
0000
1000
0101
1000
0010
0000
0200
0000
0000
0000
0011
0000
0000
0000
,  // measure 58
0301
0000
1000
0000
0100
0000
0010
0000
0001
0000
1000
0000
0020
0030
0200
0300
0010
0000
1000
0000
0001
0000
0010
0000
0100
0000
1000
0000
0002
0003
0200
0300
,  // measure 59
0010
0000
2000
3000
0010
0000
2000
3000
0001
0000
0020
0030
0001
0000
0020
0030
0200
0000
0000
0000
0000
0000
0000
0000
0000
0000
0000
0000
0000
0000
0000
0000
,  // measure 60
2300
0000
0000
0000
3020
0000
0000
0030
0000
0000
0000
0000
2000
0000
0000
0000
0000
0000
0000
0000
0000
0000
0000
0000
,  // measure 61
3002
0000
0203
0000
1300
0100
0001
0010
0200
0000
0000
0000
0000
0000
0000
0000
,  // measure 62
1300
0010
000M
0010
0000
0000
0001
0000
2100
0000
0000
0000
0000
0000
0000
0000
,  // measure 63
3001
0000
0000
0000
0000
0000
0020
0000
0000
0000
0000
0000
1030
0000
0000
0010
0000
0000
0001
0000
0000
1000
0000
0000
0012
0000
0000
0000
0000
0000
0000
0000
0000
0000
0000
0000
1003
0000
0000
0000
1000
0000
0000
0000
1000
0000
0000
0000
,  // measure 64
2000
0000
3001
0100
0010
0000
1000
0000
0102
0000
0000
0000
0000
0000
0000
0000
,  // measure 65
2003
0000
3200
0000
0301
0100
1000
0010
2100
0000
0000
0000
0000
0000
0000
0000
,  // measure 66
3001
0100
00M0
0100
0000
0000
1000
0000
0012
0000
0000
0000
0000
0000
0000
0000
,  // measure 67
1003
0100
0010
0001
1000
0001
1000
0001
,  // measure 68
0011
0000
0002
0000
0003
2000
0000
3000
1010
0000
1000
0000
0001
0010
0100
1000
,  // measure 69
0001
0000
2000
0000
3000
0020
0000
0030
0210
0000
0000
0000
0301
1000
0100
0010
,  // measure 70
0001
1000
0000
0002
0000
0003
0100
0000
0201
0000
0000
0000
0301
0010
0100
0001
,  // measure 71
0000
0100
1000
0001
0200
0000
0000
0310
1000
0001
0010
0200
0000
0310
0001
1000
,  // measure 72
0010
0000
0200
0000
0300
0002
0000
0003
1001
0000
1000
0000
0010
1000
0001
0010
,  // measure 73
0100
0000
2000
0000
3000
0002
0000
0003
2010
0000
0000
0000
3001
0010
0100
0010
,  // measure 74
0001
1000
0000
0020
0000
0030
0100
0000
0102
0000
0000
0000
1003
0100
0010
1000
,  // measure 75
0000
0010
0001
1000
0010
0000
0100
0000
0001
0000
1000
0000
0001
0000
1000
0000
,  // measure 76
0100
0000
0000
0000
;

//---------------dance-single - ----------------
#NOTEDATA:;
#CHARTNAME:;
#STEPSTYPE:dance-single;
#DESCRIPTION:;
#CHARTSTYLE:;
#DIFFICULTY:Hard;
#METER:10;
#RADARVALUES:0.603561,0.746731,0.219182,0.506387,0.615978,559.000000,530.000000,29.000000,67.000000,7.000000,2.000000,5.000000,0.000000,0.000000,0.603561,0.746731,0.219182,0.506387,0.615978,559.000000,530.000000,29.000000,67.000000,7.000000,2.000000,5.000000,0.000000,0.000000;
#CREDIT:CopperPuppy;
#NOTES:
0000
0000
0000
0000
,
0000
0000
0000
0000
,
0000
0000
0000
0000
,
0000
0000
0000
0000
0000
0000
0000
0000
0001
0100
0000
0010
1000
0000
0001
0010
,
0100
2000
3001
0000
0100
0000
0010
0000
,
1000
0002
0013
0000
0100
0000
0010
0000
,
0001
2000
3010
0000
0100
0000
0001
0000
,
2000
3004
0000
0000
0000
0000
0000
0000
,
0013
0000
0100
0000
1000
0000
0001
0100
,
0010
0000
1000
0000
0001
0000
0010
0001
,
1000
0000
0010
0000
0100
0000
0001
1000
,
0100
0000
0010
0000
0001
0000
1000
0010
,
0100
0010
1000
0001
0010
0100
1000
0001
,
0100
0010
1000
0001
0010
0001
1000
0010
,
0110
0000
0000
0101
0000
0000
1001
0000
0000
1100
0000
0000
0110
0000
0010
0000
,
0002
0000
0000
0000
0000
0000
0000
0000
1003
0010
0000
0100
0001
0000
0000
0000
,
2001
0000
0000
0000
0000
0000
3000
0000
0001
0010
0000
0100
0000
0000
0100
0000
,
1000
0001
0000
0100
0000
0000
0100
0000
0010
1000
0000
0001
0000
0000
0010
0000
,
0200
0000
0000
0000
0310
0000
0001
1000
0010
0100
0000
0001
0000
0000
0001
0000
,
1000
0100
0000
0010
0000
0000
0010
0000
0001
0100
0000
0010
0000
1000
0000
0000
,
2010
0000
0000
0000
0000
0000
3000
0000
0001
1000
0000
0100
0000
0000
0100
0000
,
0010
0001
0000
1000
0000
0000
1000
0000
0010
0100
0000
0001
0000
0000
1000
0000
,
0200
0000
0000
0000
0310
0001
1000
0010
0100
0001
0000
1000
0000
0000
1000
0000
,
0001
0010
0001
0000
2000
0000
3010
0000
0100
0000
0001
0000
1000
0000
0100
0000
,
0010
0001
2000
0000
0000
0000
3001
0000
1000
0001
0010
0001
1000
0010
0100
0001
,
0000
1000
0100
0010
0100
1000
0001
0100
0040
0000
0000
0000
0000
0000
1030
0000
,
0002
0000
0000
0000
0023
0000
0130
1000
0001
0100
0010
0100
0001
1000
0100
0010
,
0000
0001
1000
0010
0100
0001
0010
0100
1000
0001
0000
0100
0000
0010
0000
0000
,
2010
0000
0000
0000
0000
0000
3000
0000
0001
0010
0000
0100
0000
0000
0100
0000
,
1000
0001
0000
0100
0000
0100
0010
0000
4001
0000
0000
0000
0000
0000
0000
0000
,
3020
0000
0000
0000
1030
0000
0001
0000
0010
0100
0000
1000
0000
0000
1000
0000
,
0002
0000
0203
0000
,
0310
1000
0001
0000
0100
0000
0000
0010
0000
0100
0000
0001
0000
1000
0000
0100
,
0010
0001
1000
0000
0010
0000
0000
0100
0000
0010
0000
1000
0000
0001
0000
0010
,
0001
1000
0010
0000
0100
0000
0000
0001
0000
1000
0000
0100
0000
0010
0000
0001
,
4000
0000
0000
0000
,
3002
0000
0000
0000
0013
0000
0001
0000
0100
0010
0100
0000
0001
0000
1000
0000
,
0200
0000
0000
0000
0310
0000
0001
0000
1000
0001
1000
0000
0010
0000
0100
0000
,
0002
0000
0000
0000
1003
0000
0100
0000
0010
0001
0010
0000
0100
0000
1000
0000
,
0002
0000
0000
0000
0103
0000
0010
1000
0000
0001
1000
0100
0000
0010
0000
0000
,
0012
0000
0000
0000
1003
0000
0010
0000
0100
0001
0100
0000
0010
0000
1000
0000
,
0200
0000
0000
0000
0310
0000
0001
0000
1000
0010
1000
0000
0001
0000
0010
0000
,
0200
0000
0000
0000
0310
0000
0001
0000
1000
0001
1000
0000
0010
0000
0100
0000
,
0002
0000
0000
0000
0000
0000
0000
0000
1003
0100
0000
0010
0001
0000
1000
0000
,
0002
0000
0000
0000
2003
0000
3001
0000
1000
0001
0000
0100
00M0
0100
1000
0000
,
0001
1000
0000
0010
0M00
0010
0001
0000
1000
0000
0010
0000
0100
0000
0002
0000
,
2003
0000
0000
0000
3001
0000
0010
0000
0001
1000
0000
0100
00M0
0100
0001
0000
,
1000
0001
0000
0010
0M00
0010
1000
0001
0100
0000
0010
0000
1000
0000
0001
0000
,
0012
0000
0000
0000
4003
0000
3001
0000
1000
0001
0000
0100
00M0
0100
1000
0000
,
0001
1000
0000
0010
0M00
0010
0001
0000
1000
0000
0001
0000
0100
0000
0010
0000
,
2000
0000
0000
0000
3001
0000
0010
0000
0001
1000
0000
0100
00M0
0100
0001
0000
,
1000
0000
0010
0000
0100
0000
0002
0000
2003
0000
0000
3100
0010
0000
0100
0000
,
2000
0000
0000
0000
3011
0000
0000
0000
0200
0000
0000
0000
0310
1000
0001
0100
,
0010
0100
0001
1000
0100
0010
0001
1000
0002
0000
0000
0000
0103
0000
0020
0000
,
1030
0001
0000
0010
0101
0000
1000
0000
0020
0000
0000
0000
0130
0001
1000
0100
,
0010
0100
1000
0001
0100
0010
1000
0100
0010
0001
0000
1000
0000
0010
0000
0000
,
1000
0000
0000
0001
1010
0000
0001
0000
0100
0010
0000
1000
0101
0000
0010
0000
,
0001
1000
0000
0010
1100
0000
0001
0000
0020
0000
0000
0000
0101
0000
0000
0000
,
1030
0000
0010
0000
0100
0000
0001
1000
0100
0000
0010
0000
0001
0000
1000
0010
,
0100
0010
0100
0010
2000
0000
0000
0000
,
3002
0000
0000
0003
0020
0000
0000
0000
0030
0000
0000
0000
0200
0000
0000
0000
0000
0000
0000
0000
0000
0000
0000
0000
,
2300
0000
3001
0000
0100
0010
0100
0000
0002
0000
0000
0000
0000
0000
0000
0000
,
1003
0100
0000
0010
0000
0000
0010
0000
0012
0000
0000
0000
0000
0000
0000
0000
,
1003
0000
0000
0000
0000
0000
0020
0000
0000
0000
0000
0000
0130
0000
0000
0001
0000
0000
1000
0000
0000
0000
0000
0000
1002
0000
0000
0000
0000
0000
0000
0000
0000
0000
0000
0000
1003
0000
0000
0000
0100
0000
0000
0000
1000
0000
0000
0000
,
0002
0103
0010
1000
2010
0000
0000
0000
,
3001
0000
0020
0000
0130
1000
0001
0000
0102
0000
0000
0000
0000
0000
0000
0000
,
1003
0010
0000
0100
0000
0000
0100
0000
0120
0000
0000
0000
0000
0000
0000
0000
,
1030
0001
0100
0001
1000
0100
0010
0001
,
0011
0000
0002
0000
0003
2000
0000
3000
1010
0000
1000
0000
0001
0000
1000
0000
,
0100
0000
0020
0000
0030
0002
0000
0003
2001
0000
0000
0000
3001
0000
0100
0000
,
0010
0000
0000
2000
0000
0000
3100
0000
0110
0000
0000
0000
0010
0000
0001
1000
,
0000
0010
0100
0001
2000
0000
0000
3100
0000
0000
0010
0100
0000
1000
0001
0100
,
0010
0000
0200
0000
0300
0002
0000
0003
1001
0000
1000
0000
0100
0000
1000
0000
,
0001
0000
0200
0000
0300
0020
0000
0030
2010
0000
0000
0000
3001
0010
0100
0000
,
0010
0000
0000
0002
0000
0000
1003
0000
2100
0000
0000
0000
3001
0100
0001
1000
,
0000
0010
0100
0001
1000
0100
1000
0001
,
0100
0000
0000
0000
;

//---------------dance-single - ----------------
#NOTEDATA:;
#CHARTNAME:;
#STEPSTYPE:dance-single;
#DESCRIPTION:;
#CHARTSTYLE:;
#DIFFICULTY:Medium;
#METER:7;
#RADARVALUES:0.439444,0.488247,0.136044,0.536619,0.151160,407.000000,389.000000,18.000000,71.000000,0.000000,0.000000,3.000000,0.000000,0.000000,0.439444,0.488247,0.136044,0.536619,0.151160,407.000000,389.000000,18.000000,71.000000,0.000000,0.000000,3.000000,0.000000,0.000000;
#CREDIT:CopperPuppy;
#NOTES:
0000
0000
0000
0000
,
0000
0000
0000
0000
,
0000
0000
0000
0000
,
0000
0000
0001
1000
,
0100
0020
0031
0000
1000
0000
0010
0000
,
0100
0002
1003
0000
0100
0000
0010
0000
,
0001
2000
3010
0000
0100
0000
0001
0000
,
2000
3004
0000
0000
0000
0000
0000
0000
,
0013
0000
0100
0000
1000
0000
0001
0100
,
0010
0000
1000
0000
0001
0000
0010
0001
,
1000
0000
0010
0000
0100
0000
0001
1000
,
0100
0000
0010
0000
0001
0000
1000
0010
,
0100
0010
1000
0001
0010
0100
1000
0001
,
0100
0010
1000
0001
0010
0001
1000
0010
,
0100
0000
0000
0001
0000
0000
1000
0000
0000
0100
0000
0000
0010
0000
0100
0000
,
2000
0000
3001
0100
,
0102
0000
0000
0000
0000
0000
0003
0000
1000
0000
0000
0100
0000
0000
0010
0000
,
0001
0000
0000
0100
0000
0000
0010
0000
0100
0000
0000
0001
0000
0000
1000
0000
,
0200
0000
0000
0000
0310
0000
0001
0000
1000
0000
0000
0010
0000
0000
0100
0000
,
0010
0000
0000
1000
0000
0000
0001
0000
0010
0000
0000
0100
0000
1000
0000
0000
,
2001
0000
0000
0000
0000
0000
3000
0000
0001
0000
0000
0100
0000
0000
0010
0000
,
1000
0000
0000
0001
0000
0000
0010
0000
0100
0000
0000
1000
0000
0000
0001
0000
,
0200
0000
0000
0000
0310
0000
1000
0000
0100
0000
0000
1000
0000
0000
0001
0000
,
0100
0010
2000
0000
3001
0010
0100
0010
,
0002
0000
0000
0000
1003
0010
0100
0001
,
1000
0100
0010
0001
2000
0000
0000
3010
,
0200
0000
0302
1003
0100
1000
0001
0100
,
0010
0000
1000
0000
0001
0000
0010
0000
0100
0000
0000
1000
0000
0001
0000
0000
,
0102
0000
0000
0000
0000
0000
0003
0000
1000
0000
0000
0100
0000
0000
0010
0000
,
0001
0000
0000
1000
0000
0000
0010
0000
0210
0000
0000
0000
0000
0000
0000
0000
,
0320
0000
0000
0000
1030
0000
0001
0000
0010
0000
0000
0100
0000
0000
1000
0000
,
0002
0000
0203
0000
,
0310
0000
1000
0000
,
0001
0000
0010
0000
,
0100
0000
1000
0000
,
0004
0000
0000
0000
,
2003
0000
3100
0010
0100
1000
0001
0100
,
0020
0000
1030
0001
0010
0100
1000
0001
,
0200
0000
0310
1000
0001
0010
0001
1000
,
0020
0000
0000
0000
0130
0000
0000
0001
0000
1000
0000
0100
0000
0010
0000
0000
,
0012
0000
1003
0010
0100
0010
1000
0001
,
0020
0000
0130
1000
0001
0100
0010
1000
,
0002
0000
0013
0100
1000
0001
1000
0010
,
0200
0000
0301
1000
,
0200
0000
0000
0000
0320
0000
0031
0000
1000
0000
0000
0010
0000
0000
0100
0000
,
0001
0000
0000
1000
0000
0000
0100
0000
0010
0000
0001
0000
0100
0000
0002
0000
,
2003
0000
0000
0000
3010
0000
0100
0000
0001
0000
0000
1000
0000
0000
0100
0000
,
1000
0000
0000
0001
0000
0000
0100
0000
0010
0000
1000
0000
0001
0000
1000
0000
,
2100
0000
0000
0000
3001
0000
0100
0000
0010
0000
0000
1000
0000
0000
0001
0000
,
0010
0000
0000
0100
0000
0000
0010
0000
0001
0000
1000
0000
0010
0000
0100
0000
,
0002
0000
0000
0000
1003
0000
0100
0000
0010
0000
0000
0001
0000
0000
1000
0000
,
0010
0100
0010
2000
3002
0000
0013
0100
,
2000
0000
0000
3000
1001
0000
0000
0000
0002
0000
0000
0000
0103
0000
0010
0000
,
0100
0001
1000
0100
0020
0000
0031
2000
,
3001
0000
0101
0000
2000
0000
3100
0010
,
0100
0000
1000
0000
0001
0000
0100
0000
0010
0000
0000
1000
0000
0001
0000
0000
,
1001
0011
0001
1010
,
1000
0000
0000
0000
1100
0000
0000
0000
0002
0000
0000
0003
0101
0000
0000
0000
,
1000
0010
0100
0001
1000
0100
0010
0001
,
1000
0010
0100
0010
2000
0000
0000
0000
,
3002
0003
0200
0000
,
0310
1000
0100
0010
0002
0000
0000
0000
,
1003
0000
0000
0010
0000
0000
0100
0000
0102
0000
0000
0000
0000
0000
0000
0000
,
1003
0000
0100
0010
0002
0000
4003
0000
,
3002
0103
2010
0000
,
3001
0020
0130
1000
2100
0000
0000
0000
,
3001
0000
0000
0100
0000
0000
0010
0000
2010
0000
0000
0000
0000
0000
0000
0000
,
3001
0010
0001
1000
0010
0100
0001
1000
,
1001
0000
0002
0000
0000
2003
0000
0000
3200
0000
0000
0000
0310
0000
0001
0000
,
0100
0000
0020
0000
0000
2030
0000
0000
3002
0000
0000
0000
0013
0000
0100
0000
,
2000
0000
0000
3002
0000
0000
0103
0000
0020
0000
0000
0000
0130
0000
0001
0000
,
0000
0000
1000
0000
0200
0000
0000
1300
0000
0000
0002
0000
0000
0000
0103
0000
,
0010
0000
2000
0000
0000
3002
0000
0000
0023
0000
0000
0000
0130
0000
1000
0000
,
0000
0000
0002
0000
0000
0203
0000
0000
0320
0000
0000
0000
1030
0000
0001
0000
,
0020
0000
0000
0230
0000
0000
0310
0000
0001
0000
0000
0000
1000
0000
0010
0000
,
0000
1000
0001
0100
0010
1000
0001
0010
,
0100
0000
0000
0000
;

//---------------dance-single - ----------------
#NOTEDATA:;
#CHARTNAME:;
#STEPSTYPE:dance-single;
#DESCRIPTION:;
#CHARTSTYLE:;
#DIFFICULTY:Easy;
#METER:4;
#RADARVALUES:0.202986,0.229763,0.007558,0.158718,0.007558,188.000000,187.000000,1.000000,21.000000,0.000000,0.000000,0.000000,0.000000,0.000000,0.202986,0.229763,0.007558,0.158718,0.007558,188.000000,187.000000,1.000000,21.000000,0.000000,0.000000,0.000000,0.000000,0.000000;
#CREDIT:CopperPuppy;
#NOTES:
0000
0000
0000
0000
,
0000
0000
0000
0000
,
0000
0000
0000
0000
,
0000
0000
0001
1000
,
0200
0000
0310
0001
,
2000
0000
3010
0100
,
0002
0000
1003
0001
,
0200
0000
0000
0000
,
0301
0000
1000
0100
,
0010
0000
0001
1000
,
0001
0000
1000
0010
,
0100
0000
0001
1000
,
0100
0000
0010
0000
,
0100
0000
1000
0000
,
0001
0000
0000
1000
0000
0000
0001
0000
0000
1000
0000
0000
0002
0000
0000
0000
,
0000
0000
1003
0010
,
0200
0000
0301
0000
,
1000
0000
0001
0000
,
0020
0130
1000
0000
,
0001
0000
0100
0010
,
0100
0000
0001
0000
,
1000
0000
0100
0010
,
0200
0300
1000
0000
,
0001
0000
1000
0000
,
0010
0000
0100
0001
,
1000
0100
0020
0000
,
0031
0000
1000
0010
,
0100
0001
1000
0000
,
0200
0000
0000
0300
0010
0000
0000
0000
,
0001
0000
2001
3000
,
0001
0000
0100
0000
,
0020
0000
2030
0000
,
3001
0000
0000
0000
,
1000
0000
0000
0000
,
0100
0000
0000
0000
,
0010
0000
0001
1000
,
0010
0100
0000
0010
,
1000
0001
0000
0010
,
0100
1000
0000
0001
,
0100
0010
0000
0000
,
1000
0000
0001
0010
,
0001
1000
0000
0010
,
0100
0001
0000
1000
,
0200
0000
1300
0001
,
0100
0000
0010
0000
,
0100
0000
0001
1000
,
0100
0000
0010
0000
,
0001
0000
1000
0010
,
0100
0000
0001
0000
,
1000
0000
0100
0010
,
0100
0000
1000
0000
,
0001
0000
0000
0010
,
0100
1000
0000
0001
,
0000
0100
0010
1000
,
0000
0001
1000
0100
,
0000
0010
0000
0001
,
1000
0001
0000
0100
,
0000
0010
0000
1000
,
0001
0010
0100
0010
,
0001
1000
0010
0000
,
0100
0000
0002
0000
,
1003
0000
0200
0000
,
0310
0000
0002
0000
,
1003
0000
0020
0000
,
0130
0000
0002
0000
,
1003
0000
0200
0000
,
0310
0000
0200
0000
,
1300
0000
0001
0000
,
0100
0010
1000
0000
,
0001
0010
0100
0000
,
1000
0001
0100
0000
,
0010
1000
0100
0000
,
0010
0001
1000
0000
,
0010
0100
0001
0000
,
1000
0001
0010
0000
,
0001
1000
0001
1000
,
0010
0000
0000
0000
;

//---------------dance-single - ----------------
#NOTEDATA:;
#CHARTNAME:;
#STEPSTYPE:dance-single;
#DESCRIPTION:;
#CHARTSTYLE:;
#DIFFICULTY:Beginner;
#METER:1;
#RADARVALUES:0.078819,0.086161,0.000000,0.000000,0.000000,73.000000,73.000000,0.000000,0.000000,0.000000,0.000000,0.000000,0.000000,0.000000,0.078819,0.086161,0.000000,0.000000,0.000000,73.000000,73.000000,0.000000,0.000000,0.000000,0.000000,0.000000,0.000000,0.000000;
#CREDIT:CopperPuppy;
#NOTES:
0000
0000
0000
0000
,
0000
0000
0000
0000
,
0000
0000
0000
0000
,
0000
0000
0000
0000
,
0001
0000
0000
0000
,
0100
0000
0000
0000
,
0010
0000
0000
0000
,
1000
0000
0000
0000
,
0001
0000
0000
0000
,
0010
0000
0000
0000
,
0100
0000
0000
0000
,
1000
0000
0000
0000
,
0001
0000
0000
0000
,
0100
0000
0000
0000
,
0010
0000
0000
0000
,
0100
0000
0000
0000
,
0001
0000
0000
0000
,
1000
0000
0000
0000
,
0100
0000
0000
0000
,
0010
0000
0000
0000
,
0001
0000
0000
0000
,
1000
0000
0000
0000
,
0010
0000
0000
0000
,
1000
0000
0000
0000
,
0001
0000
0000
0000
,
0010
0000
0000
0000
,
0100
0000
0000
0000
,
1000
0000
0000
0000
,
0001
0000
0000
0000
,
1000
0000
0000
0000
,
0010
0000
0000
0000
,
0100
0000
0000
0000
,
0010
0000
0000
0000
,
1000
0000
0000
0000
,
0001
0000
0000
0000
,
0010
0000
0000
0000
,
0100
0000
0000
0000
,
1000
0000
0000
0000
,
0001
0000
0000
0000
,
0100
0000
0000
0000
,
0010
0000
0000
0000
,
1000
0000
0000
0000
,
0001
0000
0000
0000
,
0010
0000
0000
0000
,
0100
0000
0000
0000
,
0010
0000
0000
0000
,
0001
0000
0000
0000
,
1000
0000
0000
0000
,
0010
0000
0000
0000
,
0100
0000
0000
0000
,
0001
0000
0000
0000
,
1000
0000
0000
0000
,
0100
0000
0000
0000
,
1000
0000
0000
0000
,
0001
0000
0000
0000
,
0100
0000
0000
0000
,
0010
0000
0000
0000
,
1000
0000
0000
0000
,
0001
0000
0000
0000
,
0010
0000
0000
0000
,
0100
0000
0000
0000
,
1000
0000
0000
0000
,
0001
0000
0000
0000
,
0100
0000
0000
0000
,
0001
0000
0000
0000
,
1000
0000
0000
0000
,
0100
0000
0000
0000
,
0010
0000
0000
0000
,
0001
0000
0000
0000
,
1000
0000
0000
0000
,
0010
0000
0000
0000
,
0100
0000
0000
0000
,
0001
0000
0000
0000
,
1000
0000
0000
0000
,
0100
0000
0000
0000
,
0010
0000
0000
0000
,
0100
0000
0000
0000
;
