#VERSION:0.83;
#TITLE:Virus Funk;
#SUBTITLE:;
#ARTIST:Nhato;
#TITLETRANSLIT:;
#SUBTITLETRANSLIT:;
#ARTISTTRANSLIT:;
#GENRE:;
#ORIGIN:;
#CREDIT:CopperPuppy;
#BANNER:Virus_Funk-bn.png;
#BACKGROUND:Virus_Funk-bg.png;
#PREVIEWVID:;
#JACKET:Virus_Funk-jacket.png;
#CDIMAGE:;
#DISCIMAGE:;
#LYRICSPATH:;
#CDTITLE:;
#MUSIC:Virus Funk.ogg;
#OFFSET:-0.015000;
#SAMPLESTART:100.933998;
#SAMPLELENGTH:14.000000;
#SELECTABLE:YES;
#BPMS:0.000=132.000;
#STOPS:;
#DELAYS:;
#WARPS:;
#TIMESIGNATURES:0.000=4=4;
#TICKCOUNTS:0.000=4;
#COMBOS:0.000=1;
#SPEEDS:0.000=1.000=0.000=0;
#SCROLLS:0.000=1.000,
73.000=1.500,
73.250=3.000,
73.500=1.500,
73.750=1.000,
82.000=1.500,
82.250=3.000,
82.500=1.500,
82.750=1.000,
90.000=1.500,
90.250=3.000,
90.500=1.500,
90.750=1.000,
98.000=1.500,
98.250=3.000,
98.500=1.500,
98.750=1.000,
190.000=1.500,
190.250=3.000,
190.500=1.500,
190.750=1.000,
205.750=1.500,
206.000=3.000,
206.250=1.500,
206.500=1.000,
222.000=1.500,
222.250=3.000,
222.500=1.500,
222.750=1.000,
238.000=1.500,
238.250=3.000,
238.500=1.500,
238.750=1.000;
#FAKES:;
#LABELS:0.000=Song Start;
#BGCHANGES:;
#KEYSOUNDS:;
#ATTACKS:
;

//---------------dance-single - ----------------
#NOTEDATA:;
#CHARTNAME:;
#STEPSTYPE:dance-single;
#DESCRIPTION:;
#CHARTSTYLE:;
#DIFFICULTY:Challenge;
#METER:11;
#RADARVALUES:0.813145,0.991533,0.282523,0.947284,1.063618,685.000000,650.000000,34.000000,114.000000,27.000000,15.000000,8.000000,0.000000,0.000000,0.813145,0.991533,0.282523,0.947284,1.063618,685.000000,650.000000,34.000000,114.000000,27.000000,15.000000,8.000000,0.000000,0.000000;
#CREDIT:CopperPuppy;
#NOTES:
// measure 0
0000
0000
0000
2000
3012
1100
0000
0003
,  // measure 1
0102
0000
1013
0000
0002
0000
0000
2003
0101
0000
0000
0000
0011
0000
0000
0101
,  // measure 2
3000
1000
0010
0100
0001
1000
0100
0010
0101
0000
1010
0001
1000
0000
0010
0100
,  // measure 3
0012
0000
1103
0000
0001
0000
1000
0002
1010
0000
0000
0000
1100
0000
0000
1010
,  // measure 4
0003
0000
1000
0010
0100
0001
1000
0100
1010
0000
0101
0000
2000
0000
0000
0000
,  // measure 5
3012
0000
1100
0000
0003
0002
0000
0000
1010
0000
0000
0000
1103
0010
1000
0101
,  // measure 6
0010
0002
0000
0000
1003
0010
0100
0001
1010
0000
0101
1000
0010
0000
1000
0001
,  // measure 7
1100
0000
0011
0000
1000
0000
0100
0010
0002
0000
0000
0000
1003
0010
1000
0001
,  // measure 8
0010
0001
1000
0000
0001
0000
0100
0000
0010
0000
1000
0000
0001
0000
0010
0000
0200
0000
0000
0000
1300
0000
0000
0000
0100
0000
0000
0000
0020
0000
0000
0000
,  // measure 9
0031
1000
0000
0010
0100
0001
0000
1000
0100
0000
0010
0000
0001
0000
2000
0000
,  // measure 10
3010
0100
0000
0001
1000
0010
1000
0001
0100
0000
0010
0000
1000
0000
0002
0000
,  // measure 11
0003
001M
1000
0002
0003
001M
1000
0004
,  // measure 12
0000
0000
1003
0100
0001
0100
1000
0001
0100
0000
0010
0000
1000
0000
0002
0000
,  // measure 13
1003
0100
0000
0010
0001
1000
0000
0010
0100
0000
0001
0000
1000
0000
0200
0000
,  // measure 14
1300
0001
0000
0100
0010
0000
1000
0001
0020
0000
0000
0230
0000
0000
2300
0000
,  // measure 15
0000
3002
0000
0000
0000
0000
0000
0000
1000
0000
0000
0000
1000
0000
0000
0000
,  // measure 16
1000
0000
1000
0000
1000
0100
1000
0010
,  // measure 17
1000
0100
1000
0013
2000
3200
0010
0320
,  // measure 18
0031
1000
0010
0100
2000
0000
0000
0000
3200
0000
0300
0000
0102
0000
0000
0000
,  // measure 19
1003
0000
0010
0M00
0010
0000
0001
0000
1000
0000
0100
0000
01M0
0000
0100
0000
2000
0000
0000
0000
3001
0000
0200
0000
0010
0000
0300
0000
2000
0000
0000
0000
,  // measure 20
3001
0020
0001
0030
2000
0000
0000
0000
3004
0000
0000
0000
2003
0000
0000
0000
,  // measure 21
3001
0000
0100
00M0
0100
0000
1000
0000
0001
0000
0100
00M0
0100
0000
1000
0000
0001
0000
0010
0M00
0010
0000
1000
0000
0001
0000
0010
0M00
0010
0000
1000
0000
,  // measure 22
0001
0100
01M0
0100
0002
0000
0000
0000
4003
0000
0000
0000
3002
0000
0003
0000
,  // measure 23
1000
0000
0100
00M0
0100
0000
0001
0000
1000
0000
0010
0000
0M10
0000
0010
0000
2000
0000
0000
0000
3001
0000
2000
0000
0010
0000
3000
0000
0200
0000
0000
0000
,  // measure 24
0301
0020
0100
0030
2000
0000
0000
0000
3004
0000
0000
0000
2003
0000
0000
0000
,  // measure 25
3100
0000
0010
000M
0010
0000
1000
0000
0001
0000
0100
0000
01M0
0000
0100
0000
0002
0000
0000
0000
0000
0000
0003
0000
0002
0000
0000
0000
0000
0000
0003
0000
,  // measure 26
0002
0000
0000
0003
0002
0000
0000
0000
1003
0000
0001
0100
0020
0000
2030
0000
,  // measure 27
3100
0010
0000
0010
0001
1000
0010
0100
0001
0000
0010
0001
2000
0000
3020
0000
,  // measure 28
0000
0000
1030
0100
0010
0001
1000
0010
0100
0000
0001
1000
0002
0000
0023
0000
,  // measure 29
0130
0000
0M01
1000
0002
0000
0023
0000
0130
0000
0M01
1000
0002
0000
0043
0000
,  // measure 30
0000
0000
0031
0100
1000
0100
0001
1000
0200
0000
0310
0001
2000
0000
3010
0000
,  // measure 31
1000
0001
0000
0001
0100
0010
1000
0001
0020
0000
0031
0100
0020
0000
2030
0000
,  // measure 32
0000
0000
3001
0010
0100
0010
0001
1000
0010
0100
0001
1000
0010
1000
0001
0010
,  // measure 33
0001
1000
0100
0010
0001
1000
0001
0100
0010
1000
0010
1000
0001
0010
0001
0010
,  // measure 34
0100
0000
1000
0000
0100
0000
1000
0000
0001
0000
0100
0000
0001
0000
0100
0000
0010
0000
0000
0000
0000
0000
0000
0000
0010
0000
0000
0000
1000
0001
1000
0001
,  // measure 35
1000
0100
0010
0001
1000
0000
0010
0000
0020
0000
0000
0000
0100
0000
0000
0000
,  // measure 36
0100
0100
0100
0100
,  // measure 37
0130
0000
0000
0000
0001
2000
0000
0000
0000
0000
3002
0000
0000
0000
0000
0000
0023
0000
0000
0000
0000
0000
0000
0000
0001
0000
0000
0000
0000
0000
0000
0000
,  // measure 38
0001
0000
0001
0000
0032
0000
0013
0200
,  // measure 39
2300
0000
0000
3020
0000
0000
0230
0000
0001
0000
0000
0000
0001
0000
0000
0000
,  // measure 40
0001
0000
0000
0000
0000
0000
0000
0000
0001
0000
0000
0000
0000
0000
0000
0000
0001
0000
0000
0000
0000
0000
0000
0000
0301
0000
0000
0000
0010
0200
0000
0000
,  // measure 41
0000
0000
1300
0000
0001
0000
2000
0000
0000
3020
0000
0000
0000
0000
0000
0000
,  // measure 42
0000
0230
0000
0000
0000
0000
0000
0000
0301
0010
0001
1000
0010
0100
0001
1000
,  // measure 43
0100
0010
0100
1000
0001
0100
0010
1000
0002
0000
0000
0203
0000
0000
0320
0000
,  // measure 44
0000
2030
0000
0000
0001
0000
0000
0000
0001
0000
0100
0000
0001
0000
0010
0000
,  // measure 45
0001
0000
0100
0000
0001
0000
0010
0000
3001
1000
0010
0100
0001
1000
0100
0010
,  // measure 46
0001
1000
0100
1000
0001
0100
0010
1000
0001
0000
0010
0000
0001
0000
0100
0000
,  // measure 47
0010
0000
0000
1000
0000
0000
0001
0000
0000
1000
0000
0000
0100
0000
1000
0000
0001
0000
0100
0000
0010
0000
1000
0000
0002
0000
0000
0000
0000
0000
0003
0000
0000
0000
0000
0000
1011
0000
0000
0000
0000
0000
0000
0000
0000
0000
0000
0000
,  // measure 48
0001
0000
0100
0000
0010
0000
1000
0000
0001
0000
0010
0000
0001
0000
0000
1000
0000
0000
0001
0000
0000
0100
0000
0000
2000
0000
0000
0000
0000
0000
3100
0000
0000
0002
0000
0000
1000
0000
0000
0003
0000
0000
0200
0000
0000
0000
0000
0000
,  // measure 49
0310
0002
1003
0000
0100
0010
0001
2000
0010
0000
3001
0000
0100
0010
1000
0002
,  // measure 50
0013
0000
0000
0000
0001
0100
0000
0000
0020
0000
0000
0000
1030
0000
0001
0000
0010
0000
0000
0000
10M0
0000
0001
0000
0010
0000
0000
0000
0001
0000
1000
0000
,  // measure 51
0010
0000
0000
1000
0000
0000
0001
0000
0000
0010
0000
0000
0100
0000
0000
1000
0000
0000
0001
0000
0000
0400
0000
0000
0000
0000
0000
0000
0000
0000
0300
0000
0000
0000
0000
0000
1001
0000
0000
0000
0000
0000
1000
0000
0001
0000
0100
0000
,  // measure 52
2000
0000
0000
0000
0000
0000
3100
0000
0000
0001
0000
0000
0010
0000
0000
0100
0000
0000
1000
0000
0000
0001
0000
0000
0200
0000
0000
0000
0000
0000
0310
0000
0000
2000
0000
0000
3001
0000
0000
0020
0000
0000
0000
0000
0031
0000
1000
0000
,  // measure 53
0100
0000
0000
0000
0000
0000
1000
0000
0001
0000
0100
0000
0010
0000
0000
1000
0000
0000
0001
0000
0000
0010
0000
0000
0001
0000
0000
1000
0000
0000
0100
0000
0000
0001
0000
0000
1000
0000
0000
0010
0000
0000
0001
0000
0000
2000
0000
0000
,  // measure 54
0100
0000
0000
3000
0000
0000
0010
0000
0001
0000
1000
0000
0010
0000
0100
0000
0001
0000
1000
0000
0000
0100
0000
0000
1010
0000
0000
0000
0000
0000
0001
0000
0000
1100
0000
0000
0000
0000
0000
0001
0000
0000
1010
0000
0100
0000
1000
0000
,  // measure 55
0012
0000
0000
0103
0001
1000
0200
0000
0000
0000
0000
0000
2300
0000
0000
3000
0000
0000
2001
0000
0000
0000
0000
0000
,  // measure 56
3001
0000
0010
0M00
0010
0000
1000
0000
0001
0000
0100
0000
01M0
0000
0100
0000
0002
0000
0000
0000
1003
0000
0200
0000
0010
0000
0300
0000
0002
0000
0000
0000
,  // measure 57
1003
0020
1000
0030
0002
0000
0000
0000
4003
0000
3001
1000
0020
0000
0130
0001
,  // measure 58
1000
0000
0100
00M0
0100
0000
0001
0000
1000
0000
0100
00M0
0100
0000
0001
0000
1000
0000
0010
0M00
0010
0000
0001
0000
1000
0000
0010
0M00
0010
0000
0001
0000
,  // measure 59
1000
0100
01M0
0100
2000
0000
0000
0000
3004
0000
0003
0000
2001
0000
0000
0000
,  // measure 60
3001
0000
0100
00M0
0100
0000
1000
0000
0001
0000
0010
0000
0M10
0000
0010
0000
0002
0000
0000
0000
1003
0000
0002
0000
0010
0000
0003
0000
0200
0000
0000
0000
,  // measure 61
1300
0020
0100
0030
0002
0000
0000
0000
2003
0000
3001
0100
0020
0000
1030
0001
,  // measure 62
0100
0000
0010
000M
0010
0000
0001
0000
1000
0000
0100
0000
M100
0000
0100
0000
2000
0000
0000
0000
0000
0000
0000
0000
0000
0000
3001
0000
0100
0000
0010
0000
,  // measure 63
0100
0000
0001
0000
1000
0000
0100
0000
0010
0000
0001
0000
1000
0000
0010
0000
0100
0000
0001
1000
0100
0000
0010
0000
0001
0000
0000
0000
0010
0000
0100
1000
,  // measure 64
0001
1000
0020
0000
2030
0000
3002
0000
0013
0000
0000
0000
0000
0000
0000
0000
;

//---------------dance-single - ----------------
#NOTEDATA:;
#CHARTNAME:;
#STEPSTYPE:dance-single;
#DESCRIPTION:;
#CHARTSTYLE:;
#DIFFICULTY:Hard;
#METER:9;
#RADARVALUES:0.562673,0.671253,0.132952,1.130094,0.565047,474.000000,458.000000,16.000000,136.000000,4.000000,0.000000,4.000000,0.000000,0.000000,0.562673,0.671253,0.132952,1.130094,0.565047,474.000000,458.000000,16.000000,136.000000,4.000000,0.000000,4.000000,0.000000,0.000000;
#CREDIT:CopperPuppy;
#NOTES:
0000
0000
0000
0001
0011
1002
0000
0003
,
1010
0000
2001
0000
3002
0000
0000
2003
0010
0000
0000
0000
0001
0000
0000
0100
,
0000
0000
0000
0000
0000
0000
3000
0000
1100
0000
0100
0010
0001
0000
1000
0010
,
0200
0000
0000
0000
0301
0000
1000
0002
0010
0000
0000
0000
1000
0000
0000
0100
,
0000
0000
0000
0003
0101
0110
2000
3000
,
1100
0000
0110
0000
0000
0002
0000
0000
1000
0000
0000
0000
1003
0010
1000
0001
,
0100
0002
0000
0000
2003
0000
3000
0000
1010
0000
1000
0001
0010
0000
0001
0100
,
0020
0000
0000
0000
1030
0000
0100
0010
0002
0000
0000
0000
1003
0010
1000
0001
,
0010
0100
1000
0001
0100
0001
1000
0100
0020
0000
0031
0000
1000
0000
0020
0000
,
1030
0100
0000
1000
0001
0100
0000
0001
1000
0000
0010
0000
1000
0000
0002
0000
,
0013
0100
0000
1000
0001
0000
1000
0000
0010
0000
0100
0000
0001
0000
2000
0000
,
3000
M010
0001
2000
3000
M010
0001
2000
,
3000
0000
1000
0100
0002
0000
0103
0000
1000
0000
0010
0000
1000
0000
0002
0000
,
1003
0100
0000
0010
0001
1000
0000
0010
0100
0000
0001
0000
1000
0000
0200
0000
,
1300
0001
0000
0100
0010
0000
1000
0001
0020
0000
0000
0230
0000
0000
2300
0000
,
0000
3002
0000
0000
0000
0000
0000
0000
1000
0000
0000
0000
1000
0000
0000
0000
,
1000
0000
1000
0000
1003
0001
1000
0010
,
0100
0001
1000
0010
0200
0302
0000
2003
,
3001
0010
0100
1000
0020
0000
0000
0000
0230
0000
0300
0000
0102
0000
0000
0000
,
1003
0010
1000
0010
0100
0001
0100
0001
2000
0000
0000
3002
0000
0000
0023
0000
,
0000
0230
0000
0000
2300
0000
0000
0000
3002
0000
0000
0000
2003
0000
0000
0000
,
3001
0010
0001
0010
0100
1000
0100
1000
0001
0100
0001
0100
0010
1000
0010
1000
,
0100
0010
0100
0010
0002
0000
0000
0000
2003
0000
0000
0000
3002
0000
0003
0000
,
1000
0010
1000
0010
0100
0001
0100
0001
2000
0000
0000
3200
0000
0000
0320
0000
,
0000
0032
0000
0000
2003
0000
0000
0000
3002
0000
0000
0000
2003
0000
0000
0000
,
3100
0010
0100
0010
0001
1000
0001
1000
0002
0000
0000
0003
0002
0000
0000
0003
,
0002
0000
0000
0003
0002
0000
0000
0000
1003
0000
0002
0000
0203
0000
0320
0000
,
0000
0000
0000
1030
0001
0010
0000
0100
1000
0000
0002
0000
2003
0000
3020
0000
,
0000
0000
0130
0001
1000
0001
0020
0000
0000
0000
0031
0000
0100
0000
0020
0000
,
0030
00M1
0100
0020
0030
00M1
0100
0020
,
0000
0000
1030
0100
0002
0000
0103
0000
1000
0000
0020
0000
2030
0000
3002
0000
,
0000
0000
0000
0103
0010
0100
0001
1000
0100
0000
0020
0000
0032
0000
2003
0000
,
0000
0000
3010
0100
0001
1000
0001
0000
0200
0000
0000
0320
0000
0000
2030
0000
,
0000
3200
0000
0000
0010
0000
0010
0000
,
0010
0000
0310
0000
1001
0000
1001
0002
,
0203
0320
0000
2030
0000
0000
0000
0000
,
0000
0000
0000
0000
,
3000
0000
0200
0000
0000
0320
0000
0000
0032
0000
0000
0000
0000
0000
0000
0000
,
0000
0000
0000
0000
2003
0000
0000
3020
,
0230
0000
0000
0302
0000
0000
2003
0000
0000
0000
0000
0000
0000
0000
0000
0000
,
0000
0000
0000
0000
0000
0000
3000
0200
,
0000
0000
0320
0000
0230
0000
2300
0000
0000
3002
0000
0000
0000
0000
0000
0000
,
0000
0203
0000
0000
0000
0000
0000
0000
0000
0000
0000
0000
0000
0000
0000
0000
,
0000
0000
0000
0000
0000
0000
0000
0000
0320
0000
0000
2030
0000
0000
3002
0000
,
0000
2003
0000
0000
0100
0000
0000
0000
3100
0000
0010
0000
0001
0000
1000
0000
,
0010
0100
0001
1000
0100
0010
0001
1000
,
0010
0100
0001
1000
0001
0010
0001
0100
,
0010
1000
0001
1000
0400
0000
0000
0000
0320
0000
0030
0000
0011
0000
0000
0000
,
0004
0000
0000
0000
0013
0001
1000
0001
0020
0000
0000
0230
0000
0000
2300
0000
,
0000
3002
0000
0000
0103
0010
1000
0002
0000
0000
1003
0000
0100
0010
0001
2000
,
0000
3001
0010
0001
0100
0010
0100
0010
,
1000
0001
0010
0100
0000
1000
0001
0200
0000
0000
0300
0000
0101
0000
0004
0000
,
0000
0000
0103
0001
1000
0100
0010
0001
2000
0000
3010
0100
0000
0002
0000
0000
,
2003
0000
3001
0100
0010
0100
0001
1000
0100
1000
0001
0010
0100
1000
0004
0000
,
0000
0000
2003
0000
3100
0010
0001
1000
0020
0000
0000
0000
0000
0000
1030
0001
,
0200
0000
0301
1000
0200
0000
0300
0000
2000
0000
3000
0000
1001
0000
0000
0000
,
0001
0010
0001
0010
0100
1000
0100
1000
0002
0000
0000
2003
0000
0000
3020
0000
,
0000
0230
0000
0000
0302
0000
0000
0000
2003
0000
0000
0000
3002
0000
0000
0000
,
1003
0010
1000
0010
0100
0001
0100
0001
1000
0100
1000
0100
0010
0001
0010
0001
,
0100
0010
0100
0010
2000
0000
0000
0000
3002
0000
0000
0000
2003
0000
3000
0000
,
0001
0010
0001
0010
0100
1000
0100
1000
0002
0000
0000
0203
0000
0000
0320
0000
,
0000
2030
0000
0000
3002
0000
0000
0000
2003
0000
0000
0000
3002
0000
0000
0000
,
0103
0010
0100
0010
1000
0001
1000
0001
2000
0000
0000
3000
2000
0000
0000
3000
,
2000
0000
0000
3000
2000
0000
0000
3000
0001
0000
0010
0000
0100
0000
1000
0000
,
0001
0200
0320
2030
3002
0003
0000
0000
;

//---------------dance-single - ----------------
#NOTEDATA:;
#CHARTNAME:;
#STEPSTYPE:dance-single;
#DESCRIPTION:;
#CHARTSTYLE:;
#DIFFICULTY:Medium;
#METER:7;
#RADARVALUES:0.420224,0.456452,0.141262,1.105165,0.095559,354.000000,337.000000,17.000000,133.000000,0.000000,0.000000,3.000000,0.000000,0.000000,0.420224,0.456452,0.141262,1.105165,0.095559,354.000000,337.000000,17.000000,133.000000,0.000000,0.000000,3.000000,0.000000,0.000000;
#CREDIT:CopperPuppy;
#NOTES:
0000
0000
0000
0001
0011
1002
0000
0003
,
1010
0000
2001
0000
3002
0000
0000
0003
1010
0000
0000
0000
0011
0000
0000
0102
,
0000
0000
0000
0000
0000
1003
0010
1000
,
0002
0000
0000
0000
1003
0000
0100
0000
0020
0000
0000
0000
0001
0000
0000
0100
,
0030
0000
0000
0000
0011
1002
2003
3000
,
1010
0000
0110
0000
0000
0002
0000
0000
1000
0000
0000
0000
0010
0000
0000
1000
,
0000
0000
2003
3000
1010
1000
0001
0010
,
0002
0000
1003
0010
2000
0000
0000
3001
,
0010
0100
1000
0010
0100
0001
1000
0020
,
0000
0030
1000
0000
1000
0100
0010
0002
,
0000
0003
1000
0000
0001
0100
0010
2000
,
3000
0100
0010
0002
0003
0100
0010
4000
,
0000
3100
0002
0103
1000
0010
1000
0002
,
0000
0003
1000
0000
0100
0010
0100
2000
,
0000
0000
3000
0000
0001
0000
0000
0000
0200
0000
0000
0320
0000
0000
2030
0000
,
0000
3002
0000
0000
0000
0000
0000
0000
1000
0000
0000
0000
1000
0000
0000
0000
,
1000
0000
1000
0000
1003
0001
1000
0010
,
0100
0001
1000
0100
0020
0032
0000
2003
,
3001
0100
0020
0000
0230
0300
0102
0000
,
1003
0000
1000
0000
0001
0000
0001
0000
2000
0000
0000
3002
0000
0000
0023
0000
,
0000
0230
0000
0000
2300
0000
0000
0000
3002
0000
0000
0000
2003
0000
0000
0000
,
3001
0001
1000
1000
0010
0010
1000
1000
,
0100
0100
0020
0000
0032
0000
2003
3000
,
0001
0000
0001
0000
1000
0000
1000
0000
0002
0000
0000
0203
0000
0000
0320
0000
,
0000
2030
0000
0000
3002
0000
0000
0000
2003
0000
0000
0000
3002
0000
0000
0000
,
0013
0000
0010
0000
0001
0000
0001
0000
2000
0000
0000
3000
2000
0000
0000
3000
,
2000
0000
0000
3000
2000
0000
0000
3000
0001
0000
2000
0000
3020
0000
0230
0000
,
0000
0300
0001
0000
1000
0002
2003
3020
,
0000
0030
0100
0000
0001
1000
0100
0020
,
0030
0001
0100
0020
0030
1000
0001
4000
,
0000
3100
0001
0100
1000
0002
0203
0320
,
0000
0030
1000
0000
0001
0020
0032
2003
,
0000
0000
3000
0000
0001
0000
0100
0000
0020
0000
0000
2030
0000
0000
3002
0000
,
0000
0203
0000
0000
0010
0000
0010
0000
,
0010
0000
0310
0000
1001
0000
1001
0002
,
0023
0230
0000
2300
0000
0000
0000
0000
,
0000
0000
0000
0000
,
3000
0000
0200
0000
0000
0320
0000
0000
0032
0000
0000
0000
0000
0000
0000
0000
,
0000
0000
0000
0000
2003
0000
0000
3020
,
0230
0000
0000
0302
0000
0000
2003
0000
0000
0000
0000
0000
0000
0000
0000
0000
,
0000
0000
0000
0000
0000
0000
3000
0200
,
0000
0000
0320
0000
0230
0000
2300
0000
0000
3002
0000
0000
0000
0000
0000
0000
,
0000
0203
0000
0000
0000
0000
0000
0000
0000
0000
0000
0000
0000
0000
0000
0000
,
0000
0000
0000
0000
0000
0000
0000
0000
0320
0000
0000
2030
0000
0000
3002
0000
,
0000
2003
0000
0000
0100
0000
0000
0000
3100
0000
0010
0000
0001
0000
1000
0000
,
0010
0100
0001
1000
0100
0010
0001
1000
,
0010
0100
0001
1000
0001
0010
0001
0100
,
0010
0010
4000
0000
3002
0003
1001
0000
,
0002
0000
0000
0000
0013
0000
0100
0000
2000
0000
0000
3002
0000
0000
0203
0000
,
0000
0320
0000
0000
1030
0000
0001
0000
0020
0000
0130
0000
1000
0000
0001
0000
,
0200
0310
1000
0001
0010
0100
0010
0100
,
1000
0001
0100
0020
0000
0000
1030
0002
,
0000
0013
0100
1000
0002
0103
0010
1000
,
0002
0103
1000
0100
0001
1000
0100
0020
,
0000
0032
0103
0010
0020
0000
0000
1030
,
0020
1030
0200
0300
2000
3000
1001
0000
,
0001
0000
0001
0000
1000
0000
1000
0000
0002
0000
0000
2003
0000
0000
3200
0000
,
0000
0320
0000
0000
0032
0000
0000
0000
2003
0000
0000
0000
3002
0000
0000
0000
,
1003
1000
0010
0010
0100
0100
0001
0001
,
1000
1000
0002
0000
0023
0000
0032
0003
,
1000
0000
1000
0000
0010
0000
0010
0000
2000
0000
0000
3200
0000
0000
0320
0000
,
0000
0032
0000
0000
2003
0000
0000
0000
3002
0000
0000
0000
2003
0000
0000
0000
,
3100
0000
0100
0000
1000
0000
1000
0000
0002
0000
0000
0003
0002
0000
0000
0003
,
0002
0000
0000
0003
0002
0000
0000
0003
1000
0000
0010
0000
0100
0000
0001
0000
,
1000
0200
0320
0032
2003
3000
0000
0000
;

//---------------dance-single - ----------------
#NOTEDATA:;
#CHARTNAME:;
#STEPSTYPE:dance-single;
#DESCRIPTION:;
#CHARTSTYLE:;
#DIFFICULTY:Easy;
#METER:5;
#RADARVALUES:0.288459,0.322201,0.000000,0.623213,0.000000,243.000000,243.000000,0.000000,75.000000,0.000000,0.000000,0.000000,0.000000,0.000000,0.288459,0.322201,0.000000,0.623213,0.000000,243.000000,243.000000,0.000000,75.000000,0.000000,0.000000,0.000000,0.000000,0.000000;
#CREDIT:CopperPuppy;
#NOTES:
0000
0000
1000
0001
,
0010
0200
2300
0000
,
0000
0000
0000
0000
0000
0000
0000
3000
0000
0000
0001
0000
0200
0000
0000
0000
,
0310
1000
0002
0000
,
0000
0003
1000
0001
,
0010
0100
1000
0001
,
0200
0310
1000
0100
,
0020
0000
0130
0000
1000
0000
0001
1000
,
0001
0000
0100
0000
0010
1000
0001
0200
,
0000
0300
0001
0000
0000
1000
0100
0020
,
0000
0030
0001
0000
1000
0000
0100
0000
,
0010
0100
1000
0010
,
0100
0000
0001
0000
0000
1000
0001
0020
,
0000
0030
0001
0000
0000
0100
0010
2000
,
0000
3000
0001
0000
0020
0000
0230
0000
,
2300
0000
0000
0000
,
0000
0000
0000
0000
0000
3000
0000
0000
0001
0000
1000
0000
0001
0000
0000
0000
,
0010
0100
0010
0000
0001
0000
1000
0000
,
0010
0200
0302
1003
,
0001
1000
0001
0000
2000
0000
3200
0000
,
0320
0032
2003
3020
,
1030
0010
1000
0000
0001
0010
0001
0000
,
1000
0001
2000
0000
3020
0000
0230
0300
,
0001
1000
0001
0000
2000
0000
3020
0000
,
0230
0302
2003
3200
,
0310
0001
0010
0000
0001
0000
0001
0000
,
0001
0000
0001
0000
0000
1000
0010
0200
,
0000
0300
0001
0000
0000
1000
0100
0020
,
0000
0030
0001
0000
1000
0000
0010
0000
,
0100
0010
1000
0001
,
0010
0000
0100
0000
0000
1000
0010
0200
,
0000
0300
0001
0000
0000
1000
0100
0020
,
0000
0030
0001
0000
2000
0000
3002
0000
,
0203
0000
0000
0000
,
0000
0000
0310
0010
,
0200
0302
2003
0000
,
0000
0000
0000
0000
,
0000
3200
0320
0000
,
0000
0000
0032
0000
,
0203
0320
0230
0000
,
0000
0000
0000
0000
,
0302
2003
3002
0000
,
0023
0000
0000
0000
,
0000
0000
0031
0100
,
0010
0000
2000
0000
3100
0010
0100
0000
,
1000
0001
1000
0000
0010
0000
0100
0000
,
0001
1000
0100
0010
,
0100
2000
3002
1003
,
0002
0000
0000
0000
0013
0000
0100
0000
2000
0000
0000
3000
0002
0000
0000
0000
,
0203
0000
0310
1000
0010
0000
1000
0100
,
1000
0001
0100
0010
,
0100
0001
0000
1000
,
0100
0000
0010
0000
0001
0000
1000
0001
,
1000
0000
0010
0100
0010
0000
1000
0000
,
0001
0000
0010
0000
0200
0000
0300
1000
,
0001
1000
0001
0000
2000
0000
3001
0000
,
1000
0001
1000
0000
0002
0000
0203
0000
,
0320
2030
3002
0023
,
0031
0010
0001
0000
1000
0010
1000
0000
,
0001
1000
0002
0000
0023
0000
0230
0300
,
1000
0001
1000
0000
0002
0000
0023
0000
,
0230
2300
3002
0203
,
0310
1000
0010
0000
1000
0000
1000
0000
,
1000
0001
0010
0100
,
1000
0000
0001
0000
0200
0300
0000
0000
;

//---------------dance-single - ----------------
#NOTEDATA:;
#CHARTNAME:;
#STEPSTYPE:dance-single;
#DESCRIPTION:;
#CHARTSTYLE:;
#DIFFICULTY:Beginner;
#METER:2;
#RADARVALUES:0.143636,0.187587,0.000000,0.000000,0.000000,121.000000,121.000000,0.000000,0.000000,0.000000,0.000000,0.000000,0.000000,0.000000,0.143636,0.187587,0.000000,0.000000,0.000000,121.000000,121.000000,0.000000,0.000000,0.000000,0.000000,0.000000,0.000000,0.000000;
#CREDIT:CopperPuppy;
#NOTES:
0000
0000
1000
0000
,
0001
0000
0100
0000
,
0000
0000
0010
1000
,
0000
0001
0010
0000
,
0000
0000
0001
1000
,
0001
0000
0100
0010
,
0100
0000
0001
1000
,
0001
0000
1000
0000
,
0100
0000
0010
0000
,
0001
0000
1000
0010
,
0100
0000
0001
0000
,
1000
0000
0100
0000
,
0010
0000
0100
0000
,
1000
0000
0001
0100
,
0010
0000
1000
0000
,
0001
0000
0010
0000
,
0100
0000
0010
0000
,
0001
0000
1000
0000
,
0001
0000
0000
0000
,
0100
0000
0100
0000
,
0010
0000
0010
0000
,
1000
0000
1000
0000
,
0001
0000
0001
0000
,
0010
0000
0010
0000
,
0100
0000
0100
0000
,
1000
0000
1000
0000
,
0001
0000
0001
0000
,
0100
0000
0010
0000
,
1000
0000
0100
0000
,
0010
0000
0100
0000
,
1000
0000
0001
0000
,
0100
0000
0010
0000
,
0100
0000
0001
0000
,
1000
0000
0100
0000
,
0010
0000
0001
0000
,
1000
0000
0000
0000
,
0010
0000
0000
0000
,
0100
0000
0000
0000
,
0001
0000
0000
0000
,
1000
0000
0000
0000
,
0001
0000
0000
0000
,
0010
0000
0000
0000
,
0100
0000
0000
0000
,
0010
0000
0001
0000
,
1000
0000
0010
0000
,
1000
0000
0001
0000
,
0010
0000
0001
0000
,
1000
0000
0000
0000
,
1000
0000
0100
0000
,
0010
0000
0001
0000
,
1000
0000
0010
0000
,
0100
0000
0000
0000
,
0001
0000
0010
0000
,
0100
0000
1000
0000
,
0001
0000
1000
0000
,
0001
0000
0000
0000
,
0100
0000
0100
0000
,
0010
0000
0010
0000
,
1000
0000
1000
0000
,
0001
0000
0001
0000
,
0010
0000
0010
0000
,
0100
0000
0100
0000
,
1000
0000
0001
0000
,
0100
0000
0010
0000
,
1000
0000
0001
0000
;
