#VERSION:0.83;
#TITLE:Vibrate;
#SUBTITLE:;
#ARTIST:Rawtek & Henry Fong & IamStylezMusic;
#TITLETRANSLIT:;
#SUBTITLETRANSLIT:;
#ARTISTTRANSLIT:;
#GENRE:Jungle Terror;
#ORIGIN:;
#CREDIT:Feraligatr;
#BANNER:Vibrate-bn.png;
#BACKGROUND:vibrate-bg-wide.png;
#PREVIEWVID:;
#JACKET:Vibrate-jacket.png;
#CDIMAGE:;
#DISCIMAGE:vibrate-bg.png;
#LYRICSPATH:;
#CDTITLE:;
#MUSIC:Rawtek & Henry Fong & IamStylezMusic - Vibrate.ogg;
#OFFSET:0.010000;
#SAMPLESTART:29.990002;
#SAMPLELENGTH:15.000000;
#SELECTABLE:YES;
#DISPLAYBPM:128.000000;
#BPMS:0.000=128.000;
#STOPS:;
#DELAYS:;
#WARPS:;
#TIMESIGNATURES:0.000=4=4;
#TICKCOUNTS:0.000=4;
#COMBOS:0.000=1;
#SPEEDS:0.000=1.000=0.000=0;
#SCROLLS:0.000=1.000;
#FAKES:;
#LABELS:0.000=Song Start;
#BGCHANGES:;
#KEYSOUNDS:;
#ATTACKS:
;

//---------------dance-single - Feraligatr----------------
#NOTEDATA:;
#CHARTNAME:Feraligatr;
#STEPSTYPE:dance-single;
#DESCRIPTION:Feraligatr;
#CHARTSTYLE:;
#DIFFICULTY:Challenge;
#METER:10;
#RADARVALUES:0.800000,0.863077,0.761538,0.700000,0.696154,728.000000,629.000000,99.000000,91.000000,0.000000,31.000000,0.000000,0.000000,0.000000,0.800000,0.863077,0.761538,0.700000,0.696154,728.000000,629.000000,99.000000,91.000000,0.000000,31.000000,0.000000,0.000000,0.000000;
#CREDIT:Feraligatr;
#DISPLAYBPM:128.000000;
#NOTES:
// measure 0
0000
0000
0000
0000
,  // measure 1
0000
0000
0000
0000
,  // measure 2
0000
0000
0000
0000
,  // measure 3
0000
0000
0000
0000
,  // measure 4
1001
0000
1000
0100
0010
0100
1000
0001
0100
0010
1000
0001
0010
0000
0100
0000
,  // measure 5
0100
0000
0010
0001
1000
0010
0100
0010
1000
0001
0010
0100
1000
0001
0100
0001
,  // measure 6
0100
0000
0010
1000
0001
0010
0100
0010
0001
1000
0001
0100
0010
0000
1000
0000
,  // measure 7
0100
0000
0010
0100
1000
0001
0100
0001
0010
0000
0100
0010
0001
1000
0010
1000
,  // measure 8
0100
0000
0010
0000
0001
0000
1000
0000
1000
0000
0000
0000
0001
0010
0010
1000
,  // measure 9
0100
0000
0010
0000
0001
0000
0100
0000
0001
0000
1000
0100
1000
0001
0100
0001
,  // measure 10
0010
0000
0100
0000
1000
0000
0001
0000
0001
0000
0000
0000
1000
0010
0010
0001
,  // measure 11
0100
0000
0010
0000
1000
0000
0100
0000
1000
0000
0001
0010
0001
0100
0010
1000
,  // measure 12
0100
0000
1000
0001
0100
0000
0010
0000
0010
0000
0000
1000
0001
0100
0100
1000
,  // measure 13
0010
0000
0100
0001
1000
0000
0100
0000
0010
0000
0000
0100
1000
0001
0100
0001
,  // measure 14
0010
0100
1000
0001
1000
0010
0100
0001
1000
0100
0010
0001
1000
0100
0100
0010
,  // measure 15
0100
0000
0001
0000
1000
0000
0100
0000
1000
0000
0001
0100
0001
0000
0010
0000
,  // measure 16
1002
0000
0000
1003
0010
0000
0200
0000
0321
0000
2030
0000
3201
0000
0310
0000
,  // measure 17
0021
0000
0000
0031
1000
0000
0200
0000
1320
0000
0032
0000
1203
0000
0310
0000
,  // measure 18
0210
0000
0000
0301
1000
0100
0100
0001
1001
0000
1010
0000
0110
0000
0101
0000
,  // measure 19
1001
0000
1000
0000
1100
0000
0100
0010
0100
0000
1100
0000
1001
0000
0101
0000
,  // measure 20
2010
0000
0000
3001
0010
0000
0200
0000
1320
0000
0032
0000
1203
0000
0310
0000
,  // measure 21
1020
0000
0000
1030
0001
0000
0200
0000
0321
0000
2030
0000
3201
0000
0310
0000
,  // measure 22
0210
0000
0000
1300
0001
0100
0100
1000
1001
0000
0011
0000
0110
0000
1100
0000
,  // measure 23
1001
0000
1000
0001
0100
0000
0010
1000
0100
0000
1000
0010
0001
0000
0010
0000
,  // measure 24
0200
0000
0300
0001
0000
0000
2000
0000
3201
0000
1320
0000
0231
0000
0010
0300
,  // measure 25
1002
0000
0000
1003
0010
0000
0200
0000
0321
0000
2030
0000
3201
0000
0310
0000
,  // measure 26
0021
0000
0000
0031
1000
0100
0100
0001
1001
0000
1010
0000
0101
0000
0011
0000
,  // measure 27
0110
0000
0100
0000
1100
0000
1001
0000
0101
0000
0100
0010
0100
0000
0101
0000
,  // measure 28
2010
0000
0000
3001
0010
0000
0200
0000
1320
0000
0032
0000
1203
0000
0310
0000
,  // measure 29
0120
0000
0000
1030
0001
0000
0200
0000
0321
0000
2030
0000
3201
0000
0310
0000
,  // measure 30
0001
1000
0010
1000
0001
0010
0010
1000
0001
0100
0001
0010
0100
1000
0010
1000
,  // measure 31
0100
0000
0010
0001
0010
0000
0100
0000
1000
0000
0001
0100
0001
0000
0010
0000
,  // measure 32
0001
0000
1000
0000
0010
0000
0100
0000
0100
0000
0000
0000
0001
0100
0100
1000
,  // measure 33
0010
0100
0001
0010
0001
0000
1000
0010
,  // measure 34
0100
0000
0010
0000
1000
0000
0001
0000
0001
0000
0000
0000
1000
0010
0010
0001
,  // measure 35
0100
0000
0000
0000
0010
0000
0000
0000
1000
0000
0000
0000
0100
0000
0000
0000
1000
0000
0000
0000
0001
0000
0100
0001
1000
0000
0000
0000
0010
0000
0000
0000
,  // measure 36
1010
0000
1000
0000
0001
0010
0001
0100
0010
0000
1000
0000
0100
0000
0010
0001
,  // measure 37
1000
0000
0000
0000
0010
0000
0100
0000
0010
0000
0100
0000
0001
0000
0000
0000
1000
0000
0000
0000
0100
0000
0000
0000
0010
0000
0000
0001
0000
0000
1000
0000
,  // measure 38
0001
0000
0100
0000
1000
0000
0000
0000
0001
0000
0010
0000
1000
0000
0000
0000
0100
0000
0000
0000
0010
0000
0001
0000
1000
0000
0000
0010
0000
0000
0100
0000
,  // measure 39
0001
0000
0000
0000
0010
0000
0000
0000
1000
0000
0000
0000
0010
0000
0000
0000
0001
0000
0000
0000
0100
0000
0010
1000
0010
0000
0000
0000
0100
0000
0000
0000
,  // measure 40
0001
1000
0100
1000
0001
0100
0010
0100
0001
1000
0100
1000
0010
0100
0001
0010
,  // measure 41
0001
0100
0010
1000
0001
1000
0100
0010
0001
1000
0010
0100
0001
0010
0100
0010
,  // measure 42
0001
0100
0010
1000
0001
0010
0001
1000
0010
0100
0010
1000
0100
1000
0010
0100
,  // measure 43
0001
0000
0000
0010
0000
0000
0100
0000
0000
1000
0000
0000
0001
0000
0000
1000
0000
0000
0010
0000
0000
0100
0000
0000
0001
0000
0000
0000
1000
0000
0000
0000
0001
0000
0000
0000
1000
0000
0000
0000
0000
0000
0100
0000
0000
0000
0000
0000
,  // measure 44
0110
0000
0000
0010
0001
0000
1000
0000
0010
0000
0000
0100
0001
0000
1000
0000
,  // measure 45
0100
0000
0000
1000
0001
0000
0100
0000
0010
0000
0000
0100
0001
0010
0100
0010
,  // measure 46
0001
1000
0010
0100
0001
1000
0100
1000
0010
0100
0001
0010
0001
1000
0010
1000
,  // measure 47
0100
0000
0010
0000
0100
0000
1000
0000
0001
0000
1000
0100
1000
0000
0010
0000
,  // measure 48
0201
0000
0000
0000
0321
0000
2030
0000
3201
0000
0300
0010
0102
0000
1003
0000
,  // measure 49
1200
0000
0000
0000
1320
0000
0032
0000
2103
0000
3000
0010
1200
0000
0301
0000
,  // measure 50
1002
0000
1003
0010
0010
1000
0001
0010
,  // measure 51
0120
0000
0000
0000
0031
0000
1000
0000
1000
0000
0001
0100
0001
0000
0010
0000
,  // measure 52
1200
0000
0000
0000
1320
0000
0032
0000
1203
0000
0300
0010
2100
0000
3001
0000
,  // measure 53
0201
0000
0000
0000
0312
0000
2003
0000
3201
0000
0300
1000
0021
0000
0130
0000
,  // measure 54
0102
0000
1003
0100
0100
1000
0001
0100
,  // measure 55
0210
0000
0000
0310
1000
0000
0001
0000
0001
0000
1000
0100
0001
0000
0100
0000
,  // measure 56
0020
0000
0000
0000
0032
0000
2003
0000
3020
0000
0030
0100
0002
0000
1003
0000
,  // measure 57
2100
0000
0000
0000
3201
0000
2300
0000
3021
0000
0030
0100
0012
0000
1003
0000
,  // measure 58
1002
0000
1003
0010
0010
1000
0001
0010
,  // measure 59
0120
0000
0000
0000
0031
0000
1000
0000
1000
0000
0001
0100
0001
0000
0010
0000
,  // measure 60
1200
0000
0000
0000
2310
0000
3002
0000
1203
0000
0300
0010
2100
0000
3001
0000
,  // measure 61
0201
0000
0000
0000
0321
0000
2030
0000
3201
0000
0300
1000
0021
0000
0130
0000
,  // measure 62
0001
1000
0010
1000
0001
0010
0100
1000
0001
0100
0001
1000
0100
0010
0100
1000
,  // measure 63
0020
0000
0000
0000
0000
0000
0130
0000
0001
0000
0000
0000
1000
0000
0000
0000
1000
0000
0000
0000
0100
0000
0010
0001
1000
0000
0000
0000
0010
0000
0000
0000
,  // measure 64
0110
0000
0000
0110
0000
1000
0001
0000
1001
0000
0000
1001
0000
0000
0100
0000
,  // measure 65
0110
0000
0000
0110
0000
0001
1000
0000
1001
0000
0000
1010
0000
0000
0001
0000
,  // measure 66
0101
0000
0000
0101
0000
0001
1000
0000
1100
0000
0000
1100
0000
0000
0001
0000
,  // measure 67
0020
0000
0000
0000
0000
0000
0000
0000
0000
0000
0000
0000
0000
0000
0000
0000
0000
0000
0000
0000
0031
0000
1000
0001
0100
0000
0000
0000
0010
0000
0000
0000
,  // measure 68
1000
0000
0000
0000
;

//---------------dance-single - Feraligatr----------------
#NOTEDATA:;
#CHARTNAME:Feraligatr SH;
#STEPSTYPE:dance-single;
#DESCRIPTION:Feraligatr;
#CHARTSTYLE:;
#DIFFICULTY:Hard;
#METER:9;
#RADARVALUES:0.605494,0.653846,0.353846,0.292308,0.334615,551.000000,505.000000,46.000000,38.000000,0.000000,0.000000,0.000000,0.000000,0.000000,0.605494,0.653846,0.353846,0.292308,0.334615,551.000000,505.000000,46.000000,38.000000,0.000000,0.000000,0.000000,0.000000,0.000000;
#CREDIT:Feraligatr;
#DISPLAYBPM:128.000000;
#NOTES:
0000
0000
0000
0000
,
0000
0000
0000
0000
,
0000
0000
0000
0000
,
0000
0000
0000
0000
,
1001
1000
0001
0100
0010
1000
0100
0010
,
0010
0000
0001
0000
1000
0000
0010
0000
0100
0000
0001
0000
0010
0100
1000
0100
,
1000
0001
0100
0010
0100
0001
0010
0100
,
1000
0000
0001
0100
0001
0000
1000
0000
1000
0000
0100
0010
0001
1000
0001
1000
,
0010
0000
0100
0000
0001
0000
1000
0000
0100
0000
0000
0000
1000
0100
0100
0001
,
1000
0100
1000
0001
0100
0000
0010
1000
,
0100
0000
1000
0000
0001
0000
0100
0000
0001
0000
0000
0000
1000
0100
0100
0001
,
1000
0100
1000
0001
0100
0001
1000
0100
,
1000
0000
0001
0000
0100
0000
0010
0000
1000
0000
0000
0000
0001
0010
0010
1000
,
0001
0010
0001
1000
0010
0000
0100
0001
,
1000
0100
1000
0100
0010
0001
0010
0001
1000
0010
1000
0010
0100
0001
0010
0100
,
1000
0000
0000
0000
0000
0000
0000
0000
0000
0000
0001
0100
0001
0000
1000
0000
,
1100
0000
0000
0100
1000
0000
0010
0000
0001
0000
0010
0000
2000
0000
0000
3000
,
0101
0000
0000
0100
0001
0000
0010
0000
1000
0000
0010
0000
0002
0000
0000
0003
,
1100
0000
0000
0000
1000
0100
0100
0001
1000
0000
0001
0000
0010
0000
0100
0000
,
1000
0000
0001
0100
0001
1000
0100
0010
,
0011
0000
0000
0010
0001
0000
0100
0000
1000
0000
0100
0000
0002
0000
0000
0003
,
1010
0000
0000
0010
1000
0000
0100
0000
0001
0000
0100
0000
2000
0000
0000
3000
,
0011
0000
0000
0000
0001
0100
0100
1000
0001
0000
1000
0000
0100
0000
0010
0000
,
0001
0000
0100
0010
1000
0100
0001
1000
,
0010
0000
0000
0000
0000
0000
0000
0000
0110
0000
1001
0000
0210
0000
0000
0300
,
1001
0000
0000
1000
0010
0000
0001
0000
1000
0000
0100
0000
0002
0000
0000
0003
,
1010
0000
0000
0000
1000
0100
0100
0001
1000
0000
0100
0000
1000
0000
0010
0000
,
0100
0000
0001
0100
0001
1000
0100
1000
,
1001
0000
0000
0001
0100
0000
1000
0000
0001
0000
0010
0000
2000
0000
0000
3000
,
1001
0000
0000
1000
0100
0000
0001
0000
1000
0000
0010
0000
0002
0000
0000
0003
,
1100
0000
0000
0000
1000
0100
0100
0001
1000
0000
0010
0000
0100
0000
0001
0000
,
2000
0000
0100
0000
3002
0000
0100
0000
0023
0000
0130
1000
0001
0000
0100
0000
,
0010
0000
0100
0000
0001
0000
1000
0000
0100
0000
0000
0000
1000
0100
0100
0001
,
1000
0100
1000
0001
0100
0000
0010
1000
,
0001
0000
0100
0000
0001
0000
1000
0000
0100
0000
0000
0000
1000
0100
0100
0001
,
1000
0000
0010
0000
1000
0000
0001
0000
0100
0000
0010
1000
0200
0000
0000
0300
,
0110
0000
0010
0000
0001
1000
0100
1000
0001
0000
0100
0000
0010
0000
1000
0001
,
0010
0000
0000
0000
0100
0000
1000
0000
0001
0000
0100
0000
0001
0000
0000
0000
1000
0000
0000
0000
0100
0000
0000
0000
1000
0000
0000
0001
0000
0000
0000
0000
,
0100
0010
0100
0000
0001
1000
0001
0000
0010
0000
0100
1000
0001
0000
0100
0010
,
1000
0100
0001
0100
1000
0001
0100
0010
,
1000
0000
0000
0001
0100
0000
0001
0000
1000
0000
0000
0000
0100
0000
0010
0000
,
0001
0000
0000
1000
0010
0000
1000
0000
0001
0000
0000
0000
0010
0000
0100
0000
,
1000
0000
0000
0001
0100
0000
0001
0000
1000
0000
0000
0000
0100
0000
1000
0000
,
0001
0000
0000
0100
0010
0000
0100
0000
0001
0000
0000
0000
0010
0000
0100
0000
,
1000
0000
0000
1000
0001
0000
0100
0000
0010
0000
0000
0010
1000
0000
0001
0000
,
0010
0000
0000
0010
0100
0000
1000
0000
0001
0000
0000
0001
0100
0000
0010
0000
,
1000
0010
1000
0010
0100
0001
0100
0001
1000
0100
1000
0100
0010
0001
0010
0001
,
2000
0000
0000
0000
0000
0000
0000
0000
3000
0000
0001
0100
0001
0000
1000
0000
,
1100
0000
0000
0000
0012
0000
1000
0003
1020
0000
0000
0130
0002
0000
0100
0003
,
0101
0000
0000
0000
2010
0000
3001
0000
0021
0000
0000
0130
2000
0000
0100
3000
,
1100
0000
0001
0100
0001
1000
0100
1000
,
1100
0000
0000
0000
0001
0000
0100
0000
0001
0000
1000
0100
0010
0000
0001
0000
,
0011
0000
0000
0000
2100
0000
0001
3000
0201
0000
0000
0310
2000
0000
0010
3000
,
1010
0000
0000
0000
0102
0000
1003
0000
1200
0000
0000
1300
0020
0000
1000
0030
,
1010
0000
0001
0100
0001
1000
0100
1000
,
1100
0000
0001
0100
0001
0010
1000
0001
,
0100
0000
0000
0000
2000
0000
0010
0000
3002
0000
0000
0013
0200
0000
0010
0300
,
0110
0000
0000
0000
2001
0000
3010
0000
0210
0000
0000
0301
2000
0000
0001
3000
,
0101
0000
1000
0100
1000
0001
0100
0001
,
0101
0000
0000
0000
1000
0000
0100
0000
1000
0000
0001
0100
0010
0000
1000
0000
,
1010
0000
0000
0000
0120
0000
1000
0030
1002
0000
0000
0013
0200
0000
0010
0300
,
1100
0000
0000
0000
0120
0000
0031
0000
2001
0000
0000
3010
0200
0000
0010
0300
,
0101
0000
0001
0100
0001
1000
0100
1000
,
1100
0000
0000
0000
0001
0000
0010
0000
0001
0000
1000
0010
0100
0000
0001
0000
,
1001
0000
0000
1000
0000
0000
0100
0000
1000
0000
0000
1000
0000
0000
0100
0000
,
1000
0000
0000
1000
0000
0000
0100
0000
1000
0000
0000
0010
0000
0000
0100
0000
,
0001
0000
0000
0001
0000
0000
0100
0000
0001
0000
0000
0001
0000
0000
0100
0000
,
0020
0000
0000
0000
0000
0000
0000
0000
0000
0000
0130
0001
0010
0000
0100
0000
,
1000
0000
0000
0000
;

//---------------dance-single - Feraligatr----------------
#NOTEDATA:;
#CHARTNAME:Feraligatr SM;
#STEPSTYPE:dance-single;
#DESCRIPTION:Feraligatr;
#CHARTSTYLE:;
#DIFFICULTY:Medium;
#METER:7;
#RADARVALUES:0.398901,0.444615,0.161538,0.230769,0.023077,363.000000,342.000000,21.000000,30.000000,0.000000,0.000000,3.000000,0.000000,0.000000,0.398901,0.444615,0.161538,0.230769,0.023077,363.000000,342.000000,21.000000,30.000000,0.000000,0.000000,3.000000,0.000000,0.000000;
#CREDIT:Feraligatr;
#DISPLAYBPM:128.000000;
#NOTES:
0000
0000
0000
0000
,
0000
0000
0000
0000
,
0000
0000
0000
0000
,
0000
0000
0000
0000
,
1000
0000
0001
0000
0100
0000
0010
1000
,
1000
0000
0001
0000
0010
0000
0100
1000
,
0100
0000
0010
0000
0001
0000
1000
0010
,
0100
0001
1000
0001
0010
0000
0100
0010
,
0001
1000
0010
0100
0001
0000
1000
0100
,
1000
0001
0100
0001
1000
0000
0100
0010
,
0001
1000
0010
0100
0001
0000
1000
0100
,
1000
0001
0100
0001
1000
0000
0010
0100
,
0001
1000
0100
0010
0001
0000
1000
0010
,
0100
0001
1000
0100
0010
0000
0100
1000
,
0004
0000
0000
0000
,
0103
0000
0000
0000
,
1010
0000
0000
0000
0000
0000
0001
0000
1000
0000
0100
0000
2000
0000
0000
3000
,
0011
0000
0000
0000
0000
0000
1000
0000
0001
0000
0100
0000
0002
0000
0000
0003
,
1010
0000
1000
0001
0010
0100
1000
0001
,
0100
0000
0001
1000
0100
1000
0001
0100
,
0010
0000
0000
0000
0000
0000
1000
0000
0100
0000
0010
0000
0200
0000
0000
0300
,
1001
0000
0000
0000
0000
0000
0001
0000
0100
0000
0010
0000
0200
0000
0000
0300
,
1001
0000
1000
0100
0010
0001
1000
0010
,
1000
0000
0001
0010
1000
0010
0001
0100
,
0010
0000
0000
0000
0000
0000
0000
0000
0110
0000
0110
0000
0210
0000
0000
0300
,
1001
0000
0000
0000
0000
0000
1000
0000
0100
0000
0001
0000
0200
0000
0000
0300
,
0110
0000
0001
0100
0010
1000
0001
0010
,
0001
0000
1000
0010
1000
0001
0010
0001
,
0100
0000
0000
0000
0000
0000
0001
0000
0100
0000
1000
0000
0200
0000
0000
0300
,
0110
0000
0000
0000
0000
0000
0001
0000
0010
0000
1000
0000
0020
0000
0000
0030
,
0110
0000
0001
0100
0010
1000
0001
0010
,
0200
0300
2000
3000
0002
0003
0100
0010
,
1000
0001
0010
0100
1000
0000
0001
0100
,
0001
1000
0100
1000
0001
0000
0100
0010
,
1000
0001
0010
0100
1000
0000
0001
0100
,
0001
1000
0100
1000
0001
0000
0000
0000
,
1001
0000
1000
0001
0010
0000
0001
1000
,
0010
0100
0001
1000
0100
0000
0010
0000
,
0001
1000
0010
1000
0001
0000
0100
0010
,
1000
0100
0001
0100
1000
0000
0001
0100
,
0001
0000
1000
0000
0100
0000
0010
0001
,
1000
0000
0010
0000
0100
0000
0001
1000
,
0100
0000
0010
0000
0100
0000
1000
0001
,
0100
0000
0010
0000
1000
0000
0001
0010
,
0100
0000
0000
1000
0001
0000
0000
0100
,
0010
0000
0000
1000
0001
0000
0000
0010
,
0400
0000
0000
0000
,
1300
0000
0000
0000
,
0101
0000
0000
0000
1000
0000
0010
0000
2000
0000
0000
3000
0002
0000
0000
0003
,
0011
0000
0000
0000
1000
0000
0100
0000
2000
0000
0000
3000
0002
0000
0000
0003
,
0101
0000
1000
0100
1000
0000
0001
0100
,
0001
0000
1000
0010
1000
0000
0001
0010
,
0001
0000
0000
0000
1000
0000
0010
0000
2000
0000
0000
3000
0002
0000
0000
0003
,
0011
0000
0000
0000
1000
0000
0100
0000
2000
0000
0000
3000
0020
0000
0000
0030
,
0110
0000
1000
0010
1000
0000
0001
0010
,
0001
0000
1000
0100
1000
0000
0010
0100
,
0001
0000
0000
0000
2000
0000
0000
3000
0200
0000
0000
0300
2000
0000
0000
3000
,
1100
0000
0000
0000
0100
0000
1000
0000
0020
0000
0000
0030
0200
0000
0000
0300
,
0101
0000
0001
0100
0001
0000
1000
0100
,
1000
0000
0001
0010
0001
0000
1000
0010
,
1000
0000
0000
0000
0002
0000
0000
0003
0020
0000
0000
0030
0002
0000
0000
0003
,
1001
0000
0000
0000
1000
0000
0010
0000
2000
0000
0000
3000
0200
0000
0000
0300
,
0040
0000
0000
0000
,
0031
0000
1000
0100
1000
0000
0001
0100
,
0001
0000
0000
1000
0000
0000
0100
0000
1000
0000
0000
0001
0000
0000
0100
0000
,
0001
0000
0000
1000
0000
0000
0100
0000
1000
0000
0000
0010
0000
0000
0100
0000
,
0001
0000
0000
1000
0000
0000
0010
0000
1000
0000
0000
0001
0000
0000
0010
0000
,
0002
0000
0000
0003
,
1000
0000
0000
0000
;

//---------------dance-single - Feraligatr----------------
#NOTEDATA:;
#CHARTNAME:Feraligatr SE;
#STEPSTYPE:dance-single;
#DESCRIPTION:Feraligatr;
#CHARTSTYLE:;
#DIFFICULTY:Easy;
#METER:4;
#RADARVALUES:0.256044,0.313846,0.207692,0.038462,0.000000,233.000000,206.000000,27.000000,5.000000,0.000000,0.000000,0.000000,0.000000,0.000000,0.256044,0.313846,0.207692,0.038462,0.000000,233.000000,206.000000,27.000000,5.000000,0.000000,0.000000,0.000000,0.000000,0.000000;
#CREDIT:Feraligatr;
#DISPLAYBPM:128.000000;
#NOTES:
0000
0000
0000
0000
,
0000
0000
0000
0000
,
0000
0000
0000
0000
,
0000
0000
0000
0000
,
1000
0100
1000
0000
,
0001
0100
0001
0000
,
1000
0100
0010
0000
,
0001
0000
0000
1000
,
1000
0010
1000
0000
,
0001
0100
0001
0000
,
1000
0100
0010
0000
,
0001
0100
0010
0000
,
1000
0100
1000
0100
,
0010
0001
0010
0001
,
2000
0000
0020
0000
,
3030
0000
0000
0000
,
1001
0000
0001
0001
,
0101
0000
0100
0100
,
0110
0010
1000
0001
,
0010
0100
1000
0001
,
0101
0000
1000
1000
,
1100
0000
0100
0100
,
0110
0010
0001
1000
,
0001
0100
1000
0100
,
0001
0000
1000
1000
,
1001
0000
0001
0001
,
0101
0100
0010
1000
,
0100
0010
0100
1000
,
1001
0000
0001
0001
,
0011
0000
0010
0010
,
0110
0100
1000
0001
,
0100
0100
0100
0000
,
0001
1000
0100
0000
,
0010
0001
1000
0000
,
0001
0100
0010
0000
,
1000
0001
0010
0000
,
0110
1000
1000
0001
,
0001
0100
0100
0010
,
1000
0100
1000
0001
,
0100
1000
0100
0001
,
1000
0000
0100
0000
,
1000
0000
0001
0000
,
0100
0000
0001
0000
,
1000
0000
0100
0000
,
0010
0001
0010
0001
,
1000
0010
1000
0010
,
0200
0000
0002
0000
,
0303
0000
0000
0000
,
1001
1000
0100
1000
,
1001
0001
0100
0001
,
1001
1000
0010
0100
,
0110
0010
1000
0001
,
0110
1000
0001
1000
,
0110
0001
1000
0010
,
0110
0100
0001
1000
,
1100
0100
1000
0010
,
0100
0001
0010
0001
,
0101
1000
0100
1000
,
1010
0001
0010
0100
,
1100
1000
0001
0100
,
0110
0010
1000
0010
,
0101
1000
0100
0010
,
0011
1000
0001
0100
,
0110
0010
1000
0001
,
0010
0000
0010
0000
,
0010
0000
0010
0000
,
0100
0000
0100
0000
,
2000
0000
0000
3000
,
0001
0000
0000
0000
;

//---------------dance-single - Feraligatr----------------
#NOTEDATA:;
#CHARTNAME:Feraligatr SN;
#STEPSTYPE:dance-single;
#DESCRIPTION:Feraligatr;
#CHARTSTYLE:;
#DIFFICULTY:Beginner;
#METER:2;
#RADARVALUES:0.125275,0.209231,0.084615,0.023077,0.000000,114.000000,103.000000,11.000000,3.000000,0.000000,0.000000,0.000000,0.000000,0.000000,0.125275,0.209231,0.084615,0.023077,0.000000,114.000000,103.000000,11.000000,3.000000,0.000000,0.000000,0.000000,0.000000,0.000000;
#CREDIT:Feraligatr;
#DISPLAYBPM:128.000000;
#NOTES:
0000
0000
0000
0000
,
0000
0000
0000
0000
,
0000
0000
0000
0000
,
0000
0000
0000
0000
,
1000
0000
0000
0000
,
0010
0000
0000
0000
,
1000
0000
0000
0000
,
0100
0000
0000
0000
,
0010
0000
0000
0000
,
0001
0000
0000
0000
,
1000
0000
0000
0000
,
0001
0000
0000
0000
,
0100
0000
0100
0000
,
0010
0000
0010
0000
,
2000
0000
0000
0000
,
3000
0000
0000
0000
,
1001
0000
1000
0000
,
1001
0000
0001
0000
,
1001
0000
1000
0000
,
0100
0000
1000
0000
,
0110
0000
0010
0000
,
0110
0000
0100
0000
,
0110
0000
0001
0000
,
1000
0000
0001
0000
,
0100
0000
0000
0000
,
0110
0000
1000
0000
,
0110
0000
0001
0000
,
1000
0000
0100
0000
,
1001
0000
0010
0000
,
1001
0000
0100
0000
,
1001
0000
0001
0000
,
0100
0000
0000
0000
,
0010
0000
0000
0000
,
1000
0000
0000
0000
,
0001
0000
0000
0000
,
1000
0000
0000
0000
,
0001
0000
0001
0000
,
1000
0000
0000
0000
,
0001
0000
0001
0000
,
0010
0000
0000
0000
,
0100
0000
0000
0000
,
1000
0000
0000
0000
,
0100
0000
0000
0000
,
1000
0000
0000
0000
,
0001
0000
0100
0000
,
0001
0000
0100
0000
,
0020
0000
0000
0000
,
0030
0000
0000
0000
,
0000
1000
0001
1000
,
0000
0001
1000
0001
,
0000
0000
1000
0000
,
0100
0000
0010
0000
,
0000
1000
0001
1000
,
0000
0001
1000
0010
,
0000
0000
0100
0000
,
0001
0000
1000
0000
,
0000
0100
0100
0100
,
0000
0010
0010
0010
,
0000
0000
0001
0000
,
1000
0000
0010
0000
,
0000
0100
0100
0100
,
0000
0001
0001
0001
,
0000
0000
1000
0000
,
0100
0000
0010
0000
,
0001
0000
0000
0000
,
1000
0000
0000
0000
,
0001
0000
0000
0000
,
2000
0000
0000
3000
,
0001
0000
0000
0000
;
