#VERSION:0.83;
#TITLE:Up 'N Down;
#SUBTITLE:;
#ARTIST:Dr. Flowershirts;
#TITLETRANSLIT:;
#SUBTITLETRANSLIT:;
#ARTISTTRANSLIT:;
#GENRE:;
#ORIGIN:;
#CREDIT:;
#BANNER:up n down-bn.jpg;
#BACKGROUND:up n down-bg.jpg;
#PREVIEWVID:;
#JACKET:;
#CDIMAGE:;
#DISCIMAGE:;
#LYRICSPATH:;
#CDTITLE:;
#MUSIC:Up N Down.ogg;
#OFFSET:-1.179000;
#SAMPLESTART:14.420000;
#SAMPLELENGTH:13.240000;
#SELECTABLE:YES;
#DISPLAYBPM:145.000000;
#BPMS:0.000=145.000;
#STOPS:;
#DELAYS:;
#WARPS:;
#TIMESIGNATURES:0.000=4=4;
#TICKCOUNTS:0.000=4;
#COMBOS:0.000=1;
#SPEEDS:0.000=1.000=0.000=0;
#SCROLLS:0.000=1.000;
#FAKES:;
#LABELS:0.000=Song Start;
#BGCHANGES:;
#KEYSOUNDS:;
#ATTACKS: TIME=6.77:LEN=0.30:MODS=50% stealth: TIME=42.56:LEN=1.00:MODS=50% tipsy: TIME=45.87:LEN=0.60:MODS=tipsy;

//---------------dance-single - ----------------
#NOTEDATA:;
#CHARTNAME:;
#STEPSTYPE:dance-single;
#DESCRIPTION:;
#CHARTSTYLE:;
#DIFFICULTY:Challenge;
#METER:10;
#RADARVALUES:0.809546,1.015225,0.277242,0.543394,1.086788,511.000000,486.000000,25.000000,49.000000,60.000000,1.000000,0.000000,0.000000,0.000000,0.809546,1.015225,0.277242,0.543394,1.086788,511.000000,486.000000,25.000000,49.000000,60.000000,1.000000,0.000000,0.000000,0.000000;
#CREDIT:Maxx;
#ATTACKS:TIME=6.77:LEN=0.30:MODS=50% stealth:TIME=42.56:LEN=1.00:MODS=50% tipsy:TIME=45.87:LEN=0.60:MODS=tipsy:TIME=6.77:LEN=0.30:MODS=50% stealth:TIME=42.56:LEN=1.00:MODS=50% tipsy:TIME=45.87:LEN=0.60:MODS=tipsy:TIME=6.77:LEN=0.30:MODS=50% stealth:TIME=42.56:LEN=1.00:MODS=50% tipsy:TIME=45.87:LEN=0.60:MODS=tipsy;
#DISPLAYBPM:145.000000;
#NOTES:
0000
0000
0000
0000
,
0000
0000
0000
0000
,
0000
0000
0000
0000
,
0001
0000
1000
0000
0001
0000
1000
0001
2010
0000
0000
0000
31M0
0100
0100
0100
,
0002
0000
0003
0001
1000
0000
0100
0000
0010
0000
0010
0000
0001
0000
0001
0000
,
2000
0000
3000
1000
0001
0000
0100
0010
0100
0001
0000
0001
0010
0000
0010
0000
,
0200
0000
0300
0100
1000
0000
0001
0000
0100
0000
0100
0000
0010
0000
0010
0000
,
0100
00M0
0100
0000
1000
0000
0001
0000
0010
0M00
0010
0000
1000
0000
0100
0000
0010
0M00
0010
0000
0100
0000
0001
0000
0100
00M0
0100
0000
0010
0000
0001
0000
,
2000
0000
3000
1000
0001
0000
0100
0000
1000
0M00
1000
0000
0010
0M00
0010
0000
,
0002
0000
0003
0001
1000
0000
0100
0000
0001
0100
0010
0000
0011
0000
0001
0000
,
2000
0000
3000
1000
0001
0000
0010
0000
1000
0M00
1000
0000
0101
0000
1000
0000
,
0002
0000
0003
0001
1000
0000
0010
0000
0100
0000
1000
0100
0010
0000
1000
0000
,
2001
0000
3000
1000
0001
0000
0010
0000
1000
0M00
1000
0000
0100
00M0
0100
0000
,
0002
0000
0003
0001
1000
0000
0100
0000
0010
0000
1000
0010
0100
0000
1000
0000
,
0002
0000
0003
0001
1000
0000
0100
0000
0001
00M0
0001
0000
1010
0000
0100
0000
,
0010
0M00
0010
0000
1000
0000
0001
0000
0100
00M0
0100
0000
1000
0000
0010
0000
0100
00M0
0100
0000
1000
0000
0100
0000
0010
0M00
0010
0000
0100
0000
0001
0000
,
2000
0000
3000
1000
0001
0000
0010
0000
1000
0M00
1000
0000
0100
00M0
0100
0000
,
0002
0000
0003
0001
1000
0000
0010
0000
0001
0010
0100
0000
0101
0000
0001
0000
,
2000
0000
3000
1000
0001
0000
0100
0000
1000
0M00
1000
0000
0011
0000
1000
0000
,
0002
0000
0003
0001
1000
0000
0100
0000
0010
0000
1000
0010
0100
0000
1000
0000
,
2001
0000
3000
1000
0001
0000
0100
0000
1000
0M00
1000
0000
0010
0M00
0010
0000
,
0002
0000
0003
0001
1000
0000
0010
0000
0100
0000
1000
0100
0010
0000
1000
0000
,
0002
0000
0003
0001
1000
0000
0010
0000
0001
00M0
0001
0000
1100
0000
0010
0000
,
0100
00M0
0100
0000
1000
0000
0001
0000
0010
0M00
0010
0000
1000
0000
0100
0000
0010
0M00
0010
0000
0100
0000
0001
0000
1000
0000
0000
0000
1000
0000
0000
0000
,
0001
0010
0100
1000
0001
0100
0010
1000
0100
0010
0100
1000
0011
0100
0001
1000
,
0100
0010
0001
1000
0001
0100
0010
1000
0100
0010
0001
1000
0001
0100
0010
1000
,
0001
0010
0100
1000
0010
0100
0010
1000
0100
0010
0001
1000
0011
0100
0001
1000
,
0100
0010
0001
1000
0001
0100
0010
1000
0001
0010
0100
1000
0001
0000
0001
0000
,
0100
0020
0000
0000
1030
0000
0001
0000
1000
0100
00M0
0100
0012
0000
1003
0000
,
0001
0010
0M00
0010
2000
0000
3001
0000
1000
0010
0M00
0010
0002
0000
1003
0000
,
0100
0020
0000
0000
0130
0000
1000
0000
0001
0100
00M0
0100
2010
0000
3001
0000
,
0100
00M0
0100
0000
1000
0000
0001
0000
0010
0M00
0010
0000
1000
0000
0100
0000
0010
0M00
0010
0000
1000
0000
0001
0000
0100
0000
0000
0000
0100
0000
0000
0000
,
0020
0000
0030
0010
1000
0000
0001
0000
0010
0M00
0010
0000
1000
0M00
1000
0000
,
1200
0000
0300
0100
0001
0000
1000
0000
0100
00M0
0100
0000
0001
00M0
0001
0000
,
0011
1000
0100
0100
1010
0001
0100
0100
,
0220
0000
0000
0000
0000
0000
0000
0000
0000
0000
0000
0000
0000
0000
0000
0000
0000
0000
0000
0000
0000
0000
0000
0000
0000
0000
0000
0000
0000
0000
0000
0000
0000
0000
0000
0000
0330
0000
0000
0000
0000
0000
0000
0000
0000
0000
0000
0000
2002
0000
0000
0000
0000
0000
0000
0000
0000
0000
0000
0000
0000
0000
0000
0000
0000
0000
0000
0000
0000
0000
0000
0000
0000
0000
0000
0000
0000
0000
0000
0000
0000
0000
0000
0000
3003
0000
0000
0000
0000
0000
0000
0000
0000
0000
0000
0000
0001
0000
0000
0000
0000
0000
0000
0000
0000
0000
0000
0000
0000
0000
0000
0000
0000
0000
0000
0000
1000
0000
0000
0000
0000
0000
0000
0000
0000
0000
0000
0000
0000
0000
0000
0000
0000
0000
0100
0000
0000
0000
0000
0000
0000
0000
0000
0000
0000
0000
0000
0000
0000
0000
0000
0000
0010
0000
0000
0000
0000
0000
0000
0000
0000
0000
0000
0000
0000
0000
0000
0000
0000
0000
0000
0000
0000
0000
0000
0000
0000
0000
0000
0000
0000
0000
0000
0000
0000
0000
0000
0000
0000
0000
0000
0000
,
0002
0000
0000
0000
0000
0000
1003
0010
,
0200
0000
0000
0000
0000
0000
0000
0000
0301
0000
0000
0000
0000
0000
0000
0000
2000
0000
0000
0000
3002
0000
0000
0000
0013
0M00
0010
0000
1000
0000
0000
0000
,
0100
0000
00M0
0000
0100
0000
0000
0000
0001
0000
0000
0000
0000
0000
0000
0000
0100
0000
00M0
0000
0100
0000
0000
0000
1000
0000
0000
0000
0000
0000
0000
0000
0020
0000
0000
0000
0000
0000
0000
0000
0230
0000
0000
0000
0000
0000
0000
0000
0311
0000
0000
0000
0000
1000
0000
0000
0001
0000
0000
0000
0000
0000
0000
0000
,
0010
0000
0M00
0000
0010
0000
0000
0000
1000
0000
0000
0000
0000
0000
0000
0000
0100
0000
00M0
0000
0000
0100
0000
0000
0001
0000
0000
0000
0000
0000
0000
0000
0100
0000
00M0
0000
0100
0000
0000
0000
1000
0000
0000
0000
0000
0001
0000
0000
0100
0000
0000
0000
0000
0000
0000
0000
0100
0000
0000
0000
0000
0000
0000
0000
,
0020
0000
0000
0000
0000
0000
0000
0000
0030
0000
0000
0000
0010
0000
0000
0000
1000
0000
0000
0000
0000
0000
0000
0000
0001
0000
0000
0000
0000
0000
0000
0000
0010
0000
0M00
0000
0000
0010
0000
0000
1000
0000
0000
0000
0000
0000
0000
0000
0100
0000
00M0
0000
0100
0000
0000
0000
0001
0000
0000
0000
0000
0000
0000
0000
,
1002
0000
0000
0000
0000
0000
0000
0000
0103
00M0
0100
0000
1000
0000
0000
0000
0020
0000
0000
0000
0230
0000
0000
0000
0310
000M
0010
0000
0001
0000
0000
0000
,
0100
0000
00M0
0000
0000
0100
0000
0000
1000
0000
0000
0000
0000
0000
0000
0000
0100
0000
00M0
0000
0100
0000
0000
0000
0001
0000
0000
0000
0000
0000
0000
0000
0010
0000
0M00
0000
0010
0000
0000
0000
1000
0000
0000
0000
0000
0000
0000
0000
0101
0000
0000
0000
0000
0000
0000
0000
1000
0000
0000
0000
0000
0000
0000
0000
,
0010
0M00
0010
0000
0001
0000
1000
0000
0100
00M0
0100
0000
0001
0000
0010
0000
0100
00M0
0100
0000
0010
0000
1000
0000
0001
0000
0000
0000
0001
0000
0000
0000
,
2000
0000
3000
1000
0001
0000
0010
0000
1000
0M00
1000
0000
0100
00M0
0100
0000
,
0002
0000
0003
0001
1000
0000
0010
0000
0001
0010
0100
0000
0101
0000
0001
0000
,
2000
0000
3000
1000
0001
0000
0100
0000
1000
0M00
1000
0000
0011
0000
1000
0000
,
0002
0000
0003
0001
1000
0000
0100
0000
0010
0000
1000
0010
0100
0000
1000
0000
,
2001
0000
3000
1000
0001
0000
0100
0000
1000
0M00
1000
0000
0010
0M00
0010
0000
,
0002
0000
0003
0001
1000
0000
0010
0000
0100
0000
1000
0100
0010
0000
1000
0000
,
0002
0000
0003
0001
1000
0000
0010
0000
0001
00M0
0001
0000
1100
0000
0010
0000
,
0100
00M0
0100
0000
1000
0000
0001
0000
0010
0M00
0010
0000
1000
0000
0100
0000
0010
0M00
0010
0000
0100
0000
0001
0000
1000
0000
0000
0000
1000
0000
0000
0000
,
0002
0000
0000
0023
0000
0030
0000
0000
0000
0000
0000
0000
0000
0000
0000
0000
;

//---------------dance-single - ----------------
#NOTEDATA:;
#CHARTNAME:;
#STEPSTYPE:dance-single;
#DESCRIPTION:;
#CHARTSTYLE:;
#DIFFICULTY:Beginner;
#METER:2;
#RADARVALUES:0.148918,0.144166,0.000000,0.011090,0.000000,94.000000,94.000000,0.000000,1.000000,0.000000,0.000000,0.000000,0.000000,0.000000,0.148918,0.144166,0.000000,0.011090,0.000000,94.000000,94.000000,0.000000,1.000000,0.000000,0.000000,0.000000,0.000000,0.000000;
#CREDIT:Maxx;
#DISPLAYBPM:145.000000;
#NOTES:
0000
0000
0000
0000
,
0000
0000
0000
0000
,
0000
0000
0000
0000
,
0000
0000
0000
0000
,
0001
0000
0001
0000
,
1000
0000
1000
0000
,
0001
0000
0001
0000
,
1000
0000
1000
0000
,
0010
0000
0100
0000
,
0010
0000
0100
0000
,
0010
0000
0100
0000
,
0010
0000
0100
0000
,
0001
0000
1000
0000
,
0001
0000
1000
0000
,
0001
0000
1000
0000
,
0001
0000
1000
0000
,
0010
0000
0100
0000
,
0010
0000
0100
0000
,
0010
0000
0100
0000
,
0010
0000
0100
0000
,
0001
0000
1000
0000
,
0001
0000
1000
0000
,
0001
0000
1000
0000
,
0001
0000
1000
0000
,
0100
0000
0010
0000
,
0001
0000
1000
0000
,
0100
0000
0010
0000
,
0001
0000
1000
0000
,
0010
0000
0100
0000
,
0001
0000
1000
0000
,
0010
0000
0100
0000
,
0001
0000
1000
0000
,
0100
0000
0100
0000
,
0010
0000
0010
0000
,
0100
0000
0100
0000
,
1000
0000
1000
0000
,
0002
0000
0000
0000
,
0000
0000
0000
0000
,
1003
0000
1000
0000
,
0001
0000
0001
0000
,
1000
0000
1000
0000
,
0001
0000
0001
0000
,
0100
0000
0100
0000
,
0010
0000
1000
0000
,
0010
0000
0100
0000
,
0010
0000
0100
0000
,
0010
0000
0100
0000
,
0010
0000
0100
0000
,
0001
0000
1000
0000
,
0001
0000
1000
0000
,
0001
0000
1000
0000
,
0001
0000
1000
0000
,
0100
0000
0000
0000
;

//---------------dance-single - ----------------
#NOTEDATA:;
#CHARTNAME:;
#STEPSTYPE:dance-single;
#DESCRIPTION:;
#CHARTSTYLE:;
#DIFFICULTY:Easy;
#METER:3;
#RADARVALUES:0.210704,0.259498,0.011090,0.011090,0.000000,133.000000,132.000000,1.000000,1.000000,0.000000,0.000000,0.000000,0.000000,0.000000,0.210704,0.259498,0.011090,0.011090,0.000000,133.000000,132.000000,1.000000,1.000000,0.000000,0.000000,0.000000,0.000000,0.000000;
#CREDIT:Maxx;
#ATTACKS:TIME=6.77:LEN=0.30:MODS=50% stealth:TIME=42.56:LEN=1.00:MODS=50% tipsy:TIME=45.87:LEN=0.60:MODS=tipsy;
#DISPLAYBPM:145.000000;
#NOTES:
0000
0000
0000
0000
,
0000
0000
0000
0000
,
0000
0000
0000
0000
,
0000
0000
0000
0000
,
0001
1000
0001
1000
,
0100
0010
0100
0010
,
0001
1000
0001
1000
,
0100
0010
0001
1000
,
0010
0000
0100
0000
,
0010
0000
0100
0000
,
0001
0000
1000
0000
,
0001
0000
1000
0000
,
0100
0000
0010
0000
,
0100
0000
0010
0000
,
0001
0000
1000
0000
,
0100
0010
0001
1000
,
0010
0000
0100
0000
,
0010
0000
0100
0000
,
0001
0000
1000
0000
,
0001
0000
1000
0000
,
0100
0000
0010
0000
,
0100
0000
0010
0000
,
0001
0000
1000
0000
,
0001
0100
0010
1000
,
0001
0010
0001
0010
,
0100
1000
0100
1000
,
0001
0010
0001
0010
,
0100
1000
0100
1000
,
0001
0100
0001
0100
,
0010
1000
0010
1000
,
0001
0100
0001
0100
,
0010
1000
0001
0010
,
0100
0000
1000
0000
,
0100
0000
1000
0000
,
0001
0000
0100
0000
,
0001
0000
0200
0000
,
0310
0000
1000
0000
,
0001
0000
0010
0100
,
1000
0000
0001
0100
,
0010
0000
1000
0001
,
0010
0000
0100
1000
,
0001
0000
0100
0010
,
1000
0000
0001
0010
,
0100
0000
1000
0001
,
0010
0000
0100
0000
,
0010
0000
0100
0000
,
1000
0000
0001
0000
,
1000
0000
0001
0000
,
0100
0000
0010
0000
,
0100
0000
0010
0000
,
1000
0000
0001
0000
,
1000
0000
0001
0000
,
1001
0000
0000
0000
;

//---------------dance-single - ----------------
#NOTEDATA:;
#CHARTNAME:;
#STEPSTYPE:dance-single;
#DESCRIPTION:;
#CHARTSTYLE:;
#DIFFICULTY:Medium;
#METER:5;
#RADARVALUES:0.316848,0.374831,0.033269,0.221793,0.000000,200.000000,197.000000,3.000000,20.000000,0.000000,0.000000,1.000000,0.000000,0.000000,0.316848,0.374831,0.033269,0.221793,0.000000,200.000000,197.000000,3.000000,20.000000,0.000000,0.000000,1.000000,0.000000,0.000000;
#CREDIT:Maxx;
#DISPLAYBPM:145.000000;
#NOTES:
// measure 0
0000
0000
0000
0000
,  // measure 1
0000
0000
0000
0000
,  // measure 2
0000
0000
0000
0000
,  // measure 3
0000
0000
0000
0000
,  // measure 4
0001
0000
1000
0000
0001
1000
0100
0000
,  // measure 5
0010
0000
0001
0000
1000
0001
0100
0000
,  // measure 6
0010
0000
1000
0000
0001
1000
0100
0000
,  // measure 7
0010
0000
0001
0000
1000
0001
0100
0000
,  // measure 8
0010
0000
0000
0010
0200
0000
0000
0000
,  // measure 9
0310
0000
0000
0010
0200
0000
0000
0000
,  // measure 10
0301
0000
0000
0001
2000
0000
0000
0000
,  // measure 11
3001
0000
0000
0001
2000
0000
0000
0000
,  // measure 12
3100
0000
0000
0100
0020
0000
0000
0000
,  // measure 13
0130
0000
0000
0100
0020
0000
0000
0000
,  // measure 14
0031
0000
0000
0001
1000
0000
1100
0000
,  // measure 15
0100
0010
0001
1000
,  // measure 16
0010
0000
0000
0010
0200
0000
0000
0000
,  // measure 17
0310
0000
0000
0010
0200
0000
0000
0301
,  // measure 18
2000
0000
0000
3100
0010
0000
0011
0000
,  // measure 19
0001
1000
0010
0000
1000
0001
0100
0000
,  // measure 20
0010
0000
1000
0000
0001
1000
0001
0000
,  // measure 21
1000
0000
0100
0000
0010
0001
0010
0000
,  // measure 22
0001
0000
1000
0000
0010
0100
0010
0000
,  // measure 23
1000
0001
0010
0100
,  // measure 24
1000
0001
0100
0010
,  // measure 25
1000
0001
1000
0001
1000
0001
1000
0000
,  // measure 26
0001
0100
0010
1000
,  // measure 27
0001
1000
0001
1000
0001
1000
0001
0000
,  // measure 28
0100
0000
0010
0000
1000
0001
0010
0000
,  // measure 29
0100
0000
1000
0000
0001
1000
0010
0000
,  // measure 30
0100
0000
0001
0000
1000
0001
0010
0000
,  // measure 31
0100
1000
0010
0100
,  // measure 32
0001
0000
0000
0001
2000
0000
0000
0000
,  // measure 33
3010
0000
0000
0010
0200
0000
0000
0000
,  // measure 34
0300
0001
1000
0000
0000
0001
1000
0000
,  // measure 35
0100
0010
0004
0000
,  // measure 36
1003
0000
0000
0000
0001
0000
0100
0010
,  // measure 37
1000
0001
0010
0100
,  // measure 38
1000
0000
0010
0000
1000
0001
1000
0000
,  // measure 39
0100
0000
0010
0000
0001
1000
0001
0000
,  // measure 40
0100
0010
1000
0100
,  // measure 41
0020
0031
1000
0010
,  // measure 42
0100
0001
1000
0100
,  // measure 43
0010
0001
1000
0000
0100
1000
0001
0000
,  // measure 44
0010
0000
0000
0010
0200
0000
0000
0000
,  // measure 45
0310
0000
0000
0010
0200
0000
0000
0000
,  // measure 46
1300
0000
0000
1000
0002
0000
0000
0000
,  // measure 47
1003
0000
0000
1000
0002
0000
0000
0000
,  // measure 48
0103
0000
0000
0100
0020
0000
0000
0000
,  // measure 49
0130
0000
0000
0100
0020
0000
0000
0000
,  // measure 50
1030
0000
0000
1000
0002
0000
0000
0000
,  // measure 51
1003
0000
0000
1000
0002
0000
0000
0003
,  // measure 52
1001
0000
0000
0000
;

//---------------dance-single - ----------------
#NOTEDATA:;
#CHARTNAME:;
#STEPSTYPE:dance-single;
#DESCRIPTION:;
#CHARTSTYLE:;
#DIFFICULTY:Hard;
#METER:7;
#RADARVALUES:0.405565,0.490163,0.088717,0.232883,0.000000,256.000000,248.000000,8.000000,21.000000,0.000000,0.000000,1.000000,0.000000,0.000000,0.405565,0.490163,0.088717,0.232883,0.000000,256.000000,248.000000,8.000000,21.000000,0.000000,0.000000,1.000000,0.000000,0.000000;
#CREDIT:Maxx;
#ATTACKS:TIME=6.77:LEN=0.30:MODS=50% stealth:TIME=42.56:LEN=1.00:MODS=50% tipsy:TIME=45.87:LEN=0.60:MODS=tipsy;
#DISPLAYBPM:145.000000;
#NOTES:
0000
0000
0000
0000
,
0000
0000
0000
0000
,
0000
0000
0000
0000
,
1000
0001
0100
0010
2000
0000
0000
0000
,
3001
0000
1000
0000
0001
1000
0010
0100
,
0001
0000
1000
0000
0001
0010
0100
1000
,
0001
0000
1000
0000
0001
1000
0010
0100
,
0001
0000
1000
0000
0001
0010
0100
1000
,
0010
0000
0000
0010
0200
0000
0000
0000
,
0310
0000
0000
0010
0200
0000
0000
0000
,
0301
0000
0000
0001
1000
0000
1001
0000
,
0001
0000
0000
0001
2000
0000
0000
0000
,
3100
0000
0000
0100
0020
0000
0000
0000
,
0130
0000
0000
0100
0020
0000
0000
0000
,
0031
0000
0000
0001
1000
0000
1001
0000
,
0001
0100
0010
1000
0001
0010
0100
1000
,
0010
0000
0000
0010
0200
0000
0000
0000
,
0310
0000
0000
0010
0200
0000
0000
0301
,
2000
0000
0000
3001
1000
0000
1001
0000
,
0001
1000
0100
0000
1000
0001
0100
0010
,
1000
0000
0001
0000
1000
0100
0010
0001
,
1000
0000
0010
0000
1000
0001
0100
0010
,
1000
0000
0001
0000
1000
0100
0010
0001
,
1000
0010
0100
0001
,
1000
0100
0010
0001
1000
0010
0100
0010
,
1000
0001
0010
0100
1000
0001
0100
0010
,
1000
0001
0010
0100
1000
0010
0100
0010
,
1000
0001
0010
0100
1000
0001
0100
0010
,
1000
0001
0010
0110
,
1000
0000
0001
0000
1000
0001
0010
0000
,
0100
0000
1000
0000
0001
1000
0010
0000
,
0100
0001
0100
0001
1000
0100
1000
0100
,
0010
0000
0000
0001
2000
0000
0000
0000
,
3010
0000
0000
0010
0200
0000
0000
0000
,
0300
0001
2000
0000
0000
3001
1000
0000
,
0100
0000
0000
0000
0010
0000
0000
0000
0004
0000
0000
0000
0000
0000
0000
0003
,
2000
0000
0000
3000
1001
0000
0001
2000
,
0000
0000
3100
0000
0010
0001
1000
0010
,
0100
0010
1000
0001
0010
0100
1000
0001
,
0100
0010
0100
0001
1000
0100
0010
0000
,
0001
0000
1000
0010
1000
0010
0100
0001
,
2000
0000
3001
0010
0001
0010
0100
1000
,
0001
0100
0001
0100
0010
1000
0010
1000
,
0001
0010
0100
1000
0001
0100
0010
1000
,
0001
0000
0000
0001
2000
0000
0000
0000
,
3001
0000
0000
0001
2000
0000
0000
0000
,
3010
0000
0000
0010
0100
0000
0110
0000
,
1000
0000
0000
1000
0002
0000
0000
0000
,
0103
0000
0000
0100
0020
0000
0000
0000
,
0130
0000
0000
0100
0020
0000
0000
0000
,
1030
0000
0000
1000
0001
0000
1001
0000
,
1000
0000
0000
1000
0002
0000
0000
0003
,
1001
0000
0000
0000
;
