#TITLE:TiME;
#SUBTITLE:(feat. Bok Nero);
#ARTIST:Max Styler;
#TITLETRANSLIT:;
#SUBTITLETRANSLIT:;
#ARTISTTRANSLIT:;
#GENRE:;
#CREDIT:;
#BANNER:TiME-bn.png;
#BACKGROUND:TiME-bg.png;
#LYRICSPATH:;
#CDTITLE:;
#MUSIC:TiME.ogg;
#OFFSET:-0.072000;
#SAMPLESTART:103.088997;
#SAMPLELENGTH:17.900000;
#SELECTABLE:YES;
#DISPLAYBPM:122.000000;
#BPMS:0.000000=122.000000
;
#STOPS:
;
#BGCHANGES:;
#KEYSOUNDS:;
#ATTACKS:;

//---------------dance-single - Maxx----------------
#NOTES:
     dance-single:
     Maxx:
     Challenge:
     10:
     0.763361,0.837508,0.146198,0.489763,1.016075,731.000000,711.000000,20.000000,67.000000,4.000000,0.000000,0.763361,0.837508,0.146198,0.489763,1.016075,731.000000,711.000000,20.000000,67.000000,4.000000,0.000000:
// measure 0
0000
0000
0000
0000
,  // measure 1
0000
0000
0000
0000
,  // measure 2
0000
0000
0000
0000
,  // measure 3
0000
0000
0000
0000
,  // measure 4
0000
0000
0000
0000
0000
0000
0002
0000
0003
0000
1000
0000
0001
1000
0010
0100
,  // measure 5
0001
0000
2000
0000
3000
0000
0001
1000
0100
0010
0001
0000
1000
0000
0010
0100
,  // measure 6
0010
0000
2000
0000
3000
0000
0001
0000
0000
0000
1000
0100
0010
0001
1000
0010
,  // measure 7
0100
0000
0001
0000
0010
0000
0100
0010
0001
0000
1000
0000
0010
0000
0100
0001
,  // measure 8
1000
0000
0001
0000
000M
0000
1000
0000
M000
0000
0001
0000
0020
0000
0030
0100
,  // measure 9
0000
1000
0000
1000
0002
0000
0003
0100
0000
0010
0000
0010
2000
0000
3000
0001
,  // measure 10
0000
1000
0000
1000
0200
0000
0300
0000
0000
0000
0010
0000
0001
0000
0000
0100
,  // measure 11
0000
0010
0000
0010
2000
0000
3000
0001
0000
0010
0000
0010
0200
0000
1300
0010
,  // measure 12
0000
0010
0000
0100
0002
0000
0003
0000
0000
1000
0001
0010
0100
0000
1000
0000
,  // measure 13
0002
0000
0003
0000
0100
0000
0010
1000
0001
0000
0001
1000
0100
0000
0010
0000
,  // measure 14
0002
0000
0003
0000
1000
0010
0100
0000
0002
0000
0003
0100
0010
0000
1000
0000
,  // measure 15
0001
0000
0010
0100
0010
0001
1000
0000
0010
0000
0100
0000
0001
0000
0010
0000
,  // measure 16
0200
0300
0000
2000
3000
0000
0002
0003
1000
0001
0010
0001
1000
0010
0100
0001
,  // measure 17
1000
0100
1000
0001
0100
0010
0100
0010
1000
0100
0010
0001
1000
0010
0100
0010
,  // measure 18
1000
0100
1000
0100
0010
0001
0010
0001
1000
0010
0100
0001
1000
0100
0010
0001
,  // measure 19
1000
0010
1000
0001
0010
0100
0010
0001
0100
0000
0100
0010
1000
0000
0100
0010
,  // measure 20
0001
1000
0001
1000
0001
0000
0000
0000
0000
1000
0001
0010
0100
1000
0001
0100
,  // measure 21
0010
0001
0010
0100
0001
1000
0100
0010
0000
0001
1000
0100
0010
0001
1000
0010
,  // measure 22
0100
1000
0100
0010
1000
0001
0010
0100
0002
0000
0103
0010
0001
1000
0010
0100
,  // measure 23
0010
0000
000M
0010
0100
0000
0002
0000
1003
0000
0010
0100
0001
1000
0100
0010
,  // measure 24
0100
0000
0010
0001
1000
0000
0001
0000
1001
0000
1000
0001
0100
0010
1000
0001
,  // measure 25
0010
0000
0001
1000
0100
0000
0010
0000
0001
0000
1000
0001
0100
0010
0100
0001
,  // measure 26
1000
0000
0010
0100
2000
3100
0010
0000
0110
0000
0010
1000
0001
0010
0100
0010
,  // measure 27
0001
0000
1000
0001
0100
0000
0010
0000
2000
0000
3000
2000
0000
3000
0002
0000
,  // measure 28
0003
0002
0000
0003
0002
0000
0000
0003
1001
0000
1000
0001
0100
0010
1000
0001
,  // measure 29
0010
0000
0001
0010
0100
0000
0002
0000
0103
0000
0010
0001
1000
0010
0100
0010
,  // measure 30
1000
0000
0001
1000
0100
0000
0010
0000
0011
0000
0001
1000
0010
0100
0001
0100
,  // measure 31
0010
0000
1000
0100
0010
0000
0001
0000
1000
0000
0010
0100
0010
1000
0001
1000
,  // measure 32
0100
0000
0010
0001
1000
0000
0001
0000
0101
0000
0100
0010
1000
0001
0000
0001
,  // measure 33
0010
0100
0000
0100
1000
0000
0020
0000
0130
0000
0001
1000
0001
0010
0000
0010
,  // measure 34
0001
1000
0000
1000
0010
0000
0100
0000
0110
0000
0010
0100
0001
1000
0000
1000
,  // measure 35
0100
0010
0000
0001
1000
0000
0001
0000
0202
0000
0303
0202
0000
0303
2020
0000
,  // measure 36
3030
2020
0000
3030
1000
0001
1000
0001
0100
0000
0010
0000
1000
0100
0010
0001
,  // measure 37
1000
0000
0000
0000
0000
0000
1000
0000
0000
0000
0000
0000
0010
0000
0000
0000
0001
0000
0000
0000
0000
0000
0000
0000
0010
0000
0000
1000
0000
0000
0010
0000
0000
1000
0000
0000
0001
0000
0000
0000
0000
0000
0001
0000
0000
0000
0000
0000
,  // measure 38
0010
0000
0000
0000
0000
0000
0000
0000
0000
0000
0000
0000
0000
0000
0000
0000
0000
0000
0000
0000
0000
0000
0000
0000
0010
0000
0000
0000
0000
0000
0000
0000
0000
0000
0000
0000
0000
0000
0000
0000
0000
0000
0000
0000
0000
0000
0000
0000
0100
0000
0000
0000
0000
0000
0000
0000
0000
0000
0000
0000
0000
0000
0000
0000
0001
0000
0000
0000
0000
0000
0000
0000
0000
0000
0000
0000
0000
0000
0000
0000
0000
0000
0000
0000
0000
0000
0000
0000
0000
0000
0000
0000
0000
0000
0000
0000
0000
0000
0000
0000
0000
0000
0000
0000
0000
0000
0000
0000
0000
0000
0000
0000
0000
0000
0000
0000
0000
0000
0000
0000
1000
0000
0000
0000
0000
0000
0000
0000
0000
0000
0000
0000
0000
0010
0000
0000
0000
0000
0000
0000
0000
0000
0000
0000
0000
0100
0000
0000
0000
0000
0000
0000
0000
0000
0000
0000
0000
0000
0000
0000
0000
0000
0000
0000
0000
0000
0000
0000
0000
0000
0000
0000
0000
0000
0000
0000
0001
0000
0000
0000
0000
0000
0000
0000
0000
0000
0000
0000
0000
0000
0000
0000
,  // measure 39
1000
0000
0000
0000
0000
0000
0000
0000
0000
0000
0000
0000
0000
0000
0000
0000
0000
0000
0000
0000
0000
0000
0000
0000
0100
0000
0000
0000
0000
0000
0000
0000
0000
0000
0000
0000
0000
0010
0000
0000
0000
0000
0000
0000
0000
0000
0000
0000
0000
0000
0000
0000
0000
0000
0000
0000
0000
0000
0000
0000
0000
0000
0000
0000
0000
0000
0000
0000
0000
0000
0000
0000
0002
0000
0000
0000
0000
0000
0000
0000
0000
0000
0000
0000
0000
0000
0000
0000
0000
0000
0000
0000
0000
0000
0000
0000
1003
0000
0000
0000
0000
0000
0000
0000
0000
0000
0000
0000
0000
0000
0000
0000
0000
0000
0000
0000
0000
0000
0000
0000
0100
0000
0000
0000
0000
0000
0000
0000
0000
0000
0000
0000
0000
0000
0000
0000
0000
0000
0000
0000
0000
0000
0000
0000
0010
0000
0000
0000
0000
0000
0000
0000
0000
0000
0000
0000
0000
0000
0000
0000
0000
0000
0000
0000
0000
0000
0000
0000
0001
0000
0000
0000
0000
0000
0000
0000
0000
0000
0000
0000
1000
0000
0000
0000
0000
0000
0000
0000
0000
0000
0000
0000
,  // measure 40
0010
0000
1000
0100
0010
0000
0010
0000
0100
0001
0000
0000
0100
0010
0001
0000
,  // measure 41
0001
0000
1000
0100
0001
0010
0000
0000
0001
0000
0100
0010
0001
0000
1000
0000
,  // measure 42
1000
0000
0010
0100
0001
1000
0000
0000
0001
0010
0100
0000
1000
0000
0001
1000
,  // measure 43
0010
0000
0000
0000
0000
0000
0100
0000
0000
0000
0000
0000
0010
0000
0000
0000
0001
0000
0000
0000
0000
0000
0000
0000
0000
0000
0000
0000
0000
0000
2000
0000
0000
0000
0000
0000
3000
0000
0000
0000
0000
0000
0001
0000
0000
1000
0000
0000
,  // measure 44
0100
0000
0010
0000
1000
0000
0010
0000
0001
0100
0001
0100
0010
0000
1000
0001
,  // measure 45
0010
0000
0001
0000
0200
0000
0300
0000
0000
0001
1000
0100
0010
0000
0001
0000
,  // measure 46
2000
0000
3000
0000
0100
0000
0010
0001
1000
0000
1000
0001
0100
0000
0010
0000
,  // measure 47
2000
0000
3000
0000
0001
0010
0100
0000
2000
0000
3000
0100
0010
0000
0001
0000
,  // measure 48
1000
0000
0010
0100
0010
1000
0001
0000
0010
0000
0100
0000
1000
0000
0010
0000
,  // measure 49
0200
0300
0000
0002
0003
0000
2000
3000
0001
1000
0100
1000
0001
0100
0010
1000
,  // measure 50
0001
0010
0001
1000
0010
0100
0010
0100
0001
0010
0100
1000
0001
0100
0010
0100
,  // measure 51
0001
0010
0001
0010
0100
1000
0100
1000
0001
0100
0010
1000
0001
0010
0100
1000
,  // measure 52
0001
0100
0001
1000
0100
0010
0100
1000
0010
0000
0010
0100
0001
0000
0100
0010
,  // measure 53
1000
0001
1000
0001
1000
0000
0000
0000
0000
0001
1000
0010
0100
0001
1000
0100
,  // measure 54
0010
1000
0010
0100
1000
0001
0100
0010
0000
1000
0001
0100
0010
1000
0001
0010
,  // measure 55
0100
0001
0200
0320
0032
0203
0320
0230
2300
0000
3100
0010
1000
0001
0010
0100
,  // measure 56
0010
0000
000M
0010
0100
0000
2000
0000
3001
0000
0100
0010
1000
0001
0010
0100
,  // measure 57
1000
0000
0001
0100
0010
0000
1000
0000
1001
0000
0001
1000
0010
0100
0001
0100
,  // measure 58
0010
0000
1000
0001
0010
0000
0100
0000
1000
0000
0001
1000
0100
0010
0100
1000
,  // measure 59
0001
0000
0010
0100
0002
0103
0010
0000
0110
0000
0010
0001
1000
0010
0100
0010
,  // measure 60
1000
0000
0001
1000
0100
0000
0010
0000
0002
0000
0003
0002
0000
0003
2000
0000
,  // measure 61
3000
2000
0000
3000
2000
0000
0000
3000
1001
0000
1000
0001
0010
0100
1000
0100
,  // measure 62
0010
0000
0001
0100
0010
1000
0002
0000
0103
0000
0010
1000
0001
0010
0100
0010
,  // measure 63
0001
0000
1000
0001
0100
0000
0010
0000
1010
0000
1000
0001
0100
0010
1000
0010
,  // measure 64
0100
0000
0001
0010
0100
0000
1000
0000
0001
0000
0100
0010
1000
0001
0010
0001
,  // measure 65
1000
0000
0100
0010
0001
0000
1000
0000
1010
0000
1000
0010
0100
0001
1000
0001
,  // measure 66
0010
0100
0000
0100
1000
0001
0200
0000
0310
0000
1000
0001
0010
0100
0000
0100
,  // measure 67
1000
0001
0000
0001
0100
0000
0010
0000
0110
0000
0100
0010
1000
0001
0000
0001
,  // measure 68
0010
0100
0000
1000
0001
0000
1000
0000
2020
0000
3030
2020
0000
3030
0202
0000
,  // measure 69
0303
0202
0000
0303
0001
1000
0001
1000
0000
0000
0000
0000
0000
0000
0000
0000
;

//---------------dance-single - sangyule----------------
#NOTES:
     dance-single:
     :
     Beginner:
     1:
     0.101294,0.151315,0.116958,0.000000,0.000000,97.000000,81.000000,16.000000,0.000000,0.000000,0.000000,0.101294,0.151315,0.116958,0.000000,0.000000,97.000000,81.000000,16.000000,0.000000,0.000000,0.000000:
0000
0000
0000
0000
,
0000
0000
0000
0000
,
0000
0000
0000
0000
,
0000
0000
0000
0000
,
0000
0000
0001
0000
,
0000
0000
1000
0000
,
0000
0000
0010
0000
,
0000
0000
0000
0000
,
0000
0100
0000
0100
0000
0000
0000
0000
,
0000
0000
0001
0000
,
0000
0000
1000
0000
,
0000
0000
0100
0000
,
0100
0000
0010
0000
,
0000
0000
0001
0000
,
0000
0000
1000
0000
,
0000
0000
0010
0000
,
0010
0000
1000
0000
,
1000
0000
0001
0000
,
0001
0000
0010
0000
,
0010
0000
0100
0000
,
0000
0000
1000
0000
,
1000
0000
1000
0000
,
0000
0000
1001
0000
,
0000
0000
1000
0000
,
0000
0000
0110
0000
,
0000
0000
0100
0000
,
0000
0000
1001
0000
,
0000
0000
0001
0000
,
0001
0000
0110
0000
,
0000
0000
0100
0000
,
0000
0000
1001
0000
,
0000
0000
0001
0000
,
0000
0000
1001
0000
,
0000
0000
1000
0000
,
0001
0000
0110
0000
,
0000
0000
1001
0000
,
0000
0000
1000
0000
,
0000
0000
0001
0000
,
0000
0000
0000
0000
,
0000
0000
0110
0000
,
1000
0000
1000
0000
,
0000
0000
0001
0000
,
0000
0000
0100
0000
,
0000
0000
0010
0000
,
0000
0000
1000
0000
,
0000
0000
0001
0000
,
0000
0000
1000
0000
,
1000
0000
0010
0000
,
0000
0000
0100
0000
,
0100
0000
0001
0000
,
0001
0000
1000
0000
,
1000
0000
0100
0000
,
0100
0000
0010
0000
,
0000
0000
0001
0000
,
0001
0000
0001
0000
,
0000
0000
1001
0000
,
0000
0000
1000
0000
,
0000
0000
0110
0000
,
0000
0000
0100
0000
,
0000
0000
1001
0000
,
0000
0000
0001
0000
,
1000
0000
0110
0000
,
0000
0000
0010
0000
,
0000
0000
1001
0000
,
0000
0000
0010
0000
,
0000
0000
1001
0000
,
0000
0000
1000
0000
,
0000
0000
0110
0000
,
0000
0000
0100
0000
,
0100
0000
0000
0000
;

//---------------dance-single - sangyule----------------
#NOTES:
     dance-single:
     :
     Hard:
     9:
     0.595234,0.583717,0.168127,0.701749,0.650580,570.000000,547.000000,23.000000,96.000000,10.000000,0.000000,0.595234,0.583717,0.168127,0.701749,0.650580,570.000000,547.000000,23.000000,96.000000,10.000000,0.000000:
0000
0000
0000
0000
,
0000
0000
0000
0000
,
0000
0000
0000
0000
,
0000
0000
0000
0000
,
0000
0000
0000
0000
0000
0000
2000
0000
3000
0000
0001
0000
1000
0001
1000
0001
,
0100
0000
0020
0000
0030
0000
1000
0000
0001
0010
0001
0000
0100
0000
0010
1000
,
0010
0000
0200
0000
0300
0000
0001
0000
0000
0000
1000
0001
1000
0000
0001
0010
,
0100
0000
1000
0000
0010
0000
1000
0100
1000
0000
0001
0000
0100
0000
0010
0100
,
0010
0000
1000
0000
M000
0000
1000
0000
0000
0000
0001
0000
0200
0000
0300
0010
,
0000
0010
0000
1000
0002
0000
0003
1000
0000
1000
0000
0100
2000
0000
3000
0001
,
0000
0001
0000
0100
0020
0000
0030
0000
0000
0000
0100
0000
0001
0000
0000
1000
,
0000
1000
0000
0100
0020
0000
0030
0001
0000
0001
0000
1000
0020
0000
0130
0001
,
0000
0001
0000
1000
0200
0000
0300
0000
0000
1000
0001
1000
0010
0000
0010
0000
,
0200
0000
0300
0000
0010
0000
0100
0001
1000
0000
0100
0010
0001
0000
0010
0000
,
0002
0000
0003
0000
1000
0010
1000
0000
0200
0000
0300
1000
0100
0000
1000
0000
,
0001
0100
0100
0010
1000
0001
0010
0100
,
1000
0000
0000
1000
0000
0000
0002
0000
0003
0000
0100
0000
0010
0000
0000
0000
,
0010
0000
0000
0000
0000
0000
0000
0000
1000
0000
0000
0000
0000
0000
0000
0001
0000
0000
1000
0000
0000
0001
0000
0000
0020
0000
0000
0000
0000
0000
0030
0000
0000
0000
0000
0000
0000
0000
0000
0000
0000
0000
0100
0000
0000
1000
0000
0000
,
0020
0000
0230
0000
0302
0000
0000
0000
0003
0000
1000
0001
0010
0100
0010
0000
,
0002
0000
0100
0000
0103
0000
0010
1000
0001
0000
1000
0100
0010
0000
0100
1000
,
0001
0001
0100
0000
0001
1000
0001
0010
,
0100
0001
0100
1000
0010
0100
0001
1000
,
0100
0000
0001
0000
0100
0010
0100
1000
0002
0000
0103
0010
1000
0001
0000
0010
,
0000
0000
0100
0000
0010
0000
0002
0000
1003
0000
0010
1000
0010
0100
0000
0001
,
0000
0000
2000
0000
0002
0000
3003
0000
1001
0000
1000
0100
1000
0001
0000
0010
,
0000
0000
0002
0000
2000
0000
3003
0000
0010
0000
1000
0000
0001
1000
0100
0010
,
0000
0000
0100
0000
M002
0000
0103
0000
0110
0000
0010
0001
1000
0001
0000
0100
,
0000
0000
0010
1000
0001
0000
0020
0000
0230
0000
0300
0200
0000
0300
2000
0000
,
3000
2000
0000
3000
0020
0000
0000
0030
0110
0000
0100
0001
1000
0001
0000
0010
,
0000
0000
0100
0010
0001
0000
2000
0000
3010
0000
0100
0010
1000
0010
0000
0100
,
0000
0000
0002
0000
0020
0000
0033
0000
0011
0000
0001
1000
0010
1000
0000
0100
,
0000
0000
2000
0000
0002
0000
3003
0000
0100
0000
0010
0100
0010
1000
0000
0001
,
0010
0000
0100
1000
0020
0000
0030
0000
1010
0000
1000
0001
0010
0100
0000
1000
,
0001
1000
0000
0010
0000
0000
0200
0000
0310
0000
1000
0001
1000
0100
0000
0010
,
0001
0010
0200
0000
2000
0000
3300
0000
1100
0000
1000
0001
0100
0001
0000
0100
,
0010
1000
0002
0000
2000
0000
3003
0000
2020
0000
3030
2020
0000
3030
0202
0000
,
0303
0202
0000
0303
2200
0000
0000
3300
0001
0000
0100
0000
0010
1000
0010
1000
,
0001
0000
0000
0000
0000
0000
1000
0000
0000
0000
0000
0000
0100
0000
0000
0000
1000
0000
0000
0000
0000
0000
0000
0000
0100
0000
0000
0010
0000
0000
0100
0000
0000
0010
0000
0000
0001
0000
0000
0000
0000
0000
1000
0000
0000
0000
0000
0000
,
0010
0000
0000
0000
0000
0000
0000
0000
0000
0000
0000
0000
0000
0000
0000
0000
0000
0000
0000
0000
0000
0000
0000
0000
0010
0000
0000
0000
0000
0000
0000
0000
0000
0000
0000
0000
0000
0000
0000
0000
0000
0000
0000
0000
0000
0000
0000
0000
1000
0000
0000
0000
0000
0000
0000
0000
0000
0000
0000
0000
0000
0000
0000
0000
0001
0000
0000
0000
0000
0000
0000
0000
0000
0000
0000
0000
0000
0000
0000
0000
0000
0000
0000
0000
0000
0000
0000
0000
0000
0000
0000
0000
0000
0000
0000
0000
0000
0000
0000
0000
0000
0000
0000
0000
0000
0000
0000
0000
0000
0000
0000
0000
0000
0000
0000
0000
0000
0000
0000
0000
M000
0000
0000
0000
0000
0000
0000
0000
0000
0000
0000
0000
0000
0M00
0000
0000
0000
0000
0000
0000
0000
0000
0000
0000
0000
M000
0000
0000
0000
0000
0000
0000
0000
0000
0000
0000
0000
0000
0000
0000
0000
0000
0000
0000
0000
0000
0000
0000
0000
0000
0000
0000
0000
0000
0000
0000
00M0
0000
0000
0000
0000
0000
0000
0000
0000
0000
0000
0000
0000
0000
0000
0000
,
00M0
0000
0000
0000
0000
0000
0000
0000
0000
0000
0000
0000
0000
0000
0000
0000
0000
0000
0000
0000
0000
0000
0000
0000
M000
0000
0000
0000
0000
0000
0000
0000
0000
0000
0000
0000
0000
000M
0000
0000
0000
0000
0000
0000
0000
0000
0000
0000
0000
0000
0000
0000
0000
0000
0000
0000
0000
0000
0000
0000
0000
0000
0000
0000
0000
0000
0000
0000
0000
0000
0000
0000
0000
0000
0000
0000
0000
0000
0000
0000
0000
0000
0000
0000
0000
0000
0000
0000
0000
0000
0000
0000
0000
0000
0000
0000
1001
0000
0000
0000
0000
0000
0000
0000
0000
0000
0000
0000
0000
0000
0000
0000
0000
0000
0000
0000
0000
0000
0000
0000
1000
0000
0000
0000
0000
0000
0000
0000
0000
0000
0000
0000
0000
0000
0000
0000
0000
0000
0000
0000
0000
0000
0000
0000
0010
0000
0000
0000
0000
0000
0000
0000
0000
0000
0000
0000
0000
0000
0000
0000
0000
0000
0000
0000
0000
0000
0000
0000
0100
0000
0000
0000
0000
0000
0000
0000
0000
0000
0000
0000
0001
0000
0000
0000
0000
0000
0000
0000
0000
0000
0000
0000
,
1000
0000
0001
0010
0001
0000
0100
0000
0010
0100
0000
0000
0001
1000
0100
0000
,
0010
0000
0100
1000
0010
0100
0000
0000
0001
0000
0100
0010
0100
0000
0001
0000
,
1000
0000
0001
0010
0001
1000
0000
0000
0010
0100
0001
0000
1000
0000
0001
0010
,
0100
0000
0000
0000
0000
0000
1000
0000
0000
0000
0000
0000
0001
0000
0000
0000
0100
0000
0000
0000
0000
0000
0000
0000
0000
0000
0000
0000
0000
0000
0020
0000
0000
0000
0000
0000
0030
0000
0000
0000
0000
0000
1000
0000
0000
0001
0000
0000
,
1000
0000
0100
0000
0010
0000
0001
0000
1000
0000
0010
0100
0010
0000
1000
0001
,
0010
0000
0100
0000
2000
0000
3000
0000
0000
0001
0010
0001
0010
0000
0001
0000
,
0200
0000
0300
0000
0010
0000
0100
0001
1000
0000
0100
0010
0001
0000
0100
0000
,
0002
0000
0003
0000
1000
0100
1000
0000
0020
0000
0030
0100
0010
0000
1000
0000
,
0001
0010
0001
1000
0100
1000
0010
0100
,
0001
0000
0000
0000
0000
0000
0000
0000
0000
0001
0000
0000
0000
0000
0000
0000
0000
0000
2000
0000
0000
0000
0000
0000
3000
0000
0000
0000
0000
0000
0001
0000
0000
0000
0000
0000
0010
0000
0000
0000
0000
0000
0100
0000
0000
0000
0010
0000
,
0000
0000
0010
0000
0000
0001
1000
0001
0200
0000
0300
0000
0000
0000
0010
1000
,
0001
0000
1000
0000
0200
0000
0000
0000
0300
0000
0010
0001
0010
0000
0100
0000
,
2000
0000
0010
0000
3010
0000
0100
0001
1000
0000
0100
0010
0001
0000
1000
0010
,
0100
0001
0001
0000
0010
0001
1000
0010
,
0100
1000
0100
0001
0010
0001
1000
0010
,
0100
0000
1000
0000
0100
0010
0100
0001
2000
0000
3100
0010
0001
1000
0000
0010
,
0000
0000
0100
0000
0010
0000
2000
0000
3001
0000
0010
0001
0010
0100
0000
1000
,
0000
0000
0002
0000
2000
0000
3003
0000
1001
0000
0001
0100
0001
1000
0000
0010
,
0000
0000
2000
0000
0002
0000
3003
0000
0010
0000
0001
0000
1000
0001
0100
0010
,
0000
0000
0100
0000
200M
0000
3100
0000
0110
0000
0010
1000
0001
1000
0000
0100
,
0000
0000
0010
0001
1000
0000
0020
0000
0230
0000
0300
0200
0000
0300
0002
0000
,
0003
0002
0000
0003
0020
0000
0000
0030
0110
0000
0100
1000
0001
1000
0000
0010
,
0000
0000
0100
0010
1000
0000
0002
0000
0013
0000
0100
0010
0001
0010
0000
0100
,
0000
0000
2000
0000
0020
0000
3030
0000
1010
0000
1000
0001
0010
0001
0000
0100
,
0000
0000
0002
0000
2000
0000
3003
0000
0100
0000
0010
0100
0010
0001
0000
1000
,
0010
0000
0100
0001
0020
0000
0030
0000
0011
0000
0001
1000
0010
0100
0000
0001
,
1000
0001
0000
0010
0000
0000
0200
0000
0310
0000
0001
1000
0001
0100
0000
0010
,
1000
0010
0200
0000
0002
0000
0303
0000
0101
0000
0001
1000
0100
1000
0000
0100
,
0010
0001
2000
0000
0002
0000
3003
0000
0022
0000
0033
0022
0000
0033
2200
0000
,
3300
2200
0000
3300
0202
0000
0000
0303
0000
0000
0000
0000
0000
0000
0000
0000
;

//---------------dance-single - sangyule----------------
#NOTES:
     dance-single:
     :
     Easy:
     4:
     0.284041,0.304548,0.051169,0.146198,0.124268,272.000000,265.000000,7.000000,20.000000,4.000000,0.000000,0.284041,0.304548,0.051169,0.146198,0.124268,272.000000,265.000000,7.000000,20.000000,4.000000,0.000000:
0000
0000
0000
0000
,
0000
0000
0000
0000
,
0000
0000
0000
0000
,
0000
0000
0000
0000
,
0000
0000
1000
0001
,
0100
0000
0010
1000
,
0001
0000
0000
0010
0000
0000
0001
0000
,
1000
0100
1000
0001
,
0100
0010
0000
0010
0000
0000
1000
0000
,
0001
1000
0100
0010
,
0100
1000
0000
0001
,
0010
0001
1000
0010
,
0100
0100
0000
0001
,
1000
0001
0010
0100
,
0010
0001
1000
0010
,
0100
0001
0100
0010
,
1000
0000
0000
1000
0000
0000
0001
0000
1000
0000
0000
0000
1000
0000
0000
0000
,
0010
0010
0100
0100
,
0001
0001
1000
0100
,
1000
0000
0001
0100
0010
0000
0000
0000
,
0000
0000
1001
1000
,
1000
1000
0100
0100
,
0100
0000
0000
0000
0000
0000
0000
0000
0011
0000
0000
0000
0001
0000
0000
1000
,
0000
0000
0010
0000
0000
0000
0100
0000
0000
0000
0001
0000
1000
0000
0000
0001
,
0000
0000
1000
0000
0200
0000
0000
0000
1300
0000
0000
0000
0001
0000
0000
0100
,
0000
0000
0010
0000
0200
0000
0000
0000
0310
0000
0000
0000
1000
0000
0000
0002
,
0000
0003
0000
0000
000M
0000
0000
0000
1001
0000
0000
0000
1000
0000
0000
0100
,
0000
0000
0000
0000
1000
0000
0001
0000
0010
0000
0000
0010
0000
0000
0100
0000
,
0000
0100
0000
0000
0200
0000
0000
0000
1300
0000
0000
0000
0001
0000
0000
0010
,
0000
0000
0000
0000
0001
0000
1000
0000
0000
0000
0000
0000
0010
0000
0000
1000
,
0000
0000
0001
0000
2000
0000
0000
0000
3001
0000
0000
0000
0100
0000
0000
0010
,
0000
0000
0100
0000
0002
0000
0000
0000
1003
0000
0000
0000
0100
0000
0000
1000
,
0000
0000
0000
0000
0002
0000
0000
0000
0013
0000
0000
0000
0100
0000
0000
0010
,
0000
0000
0000
0000
0001
0000
1000
0000
0000
0000
0000
0000
0010
0000
0000
1000
,
0000
0000
0001
0000
0020
0000
0000
0000
0031
0000
0000
0000
1000
0000
0000
0100
,
0000
0000
1000
0000
0020
0000
0000
0000
0130
0000
0000
0100
0000
0000
0001
0000
,
0000
0001
0000
0000
0002
0000
0000
0000
1003
0000
0000
0000
0100
0000
0000
0000
,
1000
0001
0100
0010
,
0100
0010
0000
0000
,
M00M
0000
1001
1000
,
0010
0100
0100
0010
,
1000
0100
0010
0001
,
1000
0001
0100
0010
,
0100
0000
0001
0000
1000
0001
0000
0000
,
0010
0001
1000
1000
,
0010
0010
0000
1000
,
0001
1000
0100
0010
,
0100
1000
0001
0100
,
0010
1000
0010
0100
,
0001
0000
0000
0001
0000
0000
1000
0000
0001
0000
0000
0000
0001
0000
0000
0000
,
0100
0100
0010
0010
,
1000
1000
0001
0010
,
0001
0000
1000
0010
0100
0000
0000
0000
,
0000
0000
1001
0001
,
0001
0001
0010
0010
,
0010
0000
0000
0000
0000
0000
0000
0000
1100
0000
0000
0000
1000
0000
0000
0001
,
0000
0000
0100
0000
0000
0000
0010
0000
0000
0000
1000
0000
0001
0000
0000
1000
,
0000
0000
0001
0000
0020
0000
0000
0000
0031
0000
0000
0000
1000
0000
0000
0010
,
0000
0000
0100
0000
0020
0000
0000
0000
0130
0000
0000
0000
0001
0000
0000
2000
,
0000
3000
0000
0000
M000
0000
0000
0000
1001
0000
0000
0000
0001
0000
0000
0010
,
0000
0000
0000
0000
0001
0000
1000
0000
0100
0000
0000
0100
0000
0000
0010
0000
,
0000
0010
0000
0000
0020
0000
0000
0000
0031
0000
0000
0000
1000
0000
0000
0100
,
0000
0000
0000
0000
1000
0000
0001
0000
0000
0000
0000
0000
0100
0000
0000
0001
,
0000
0000
1000
0000
0002
0000
0000
0000
1003
0000
0000
0000
0010
0000
0000
0100
,
0000
0000
0010
0000
2000
0000
0000
0000
3001
0000
0000
0000
0010
0000
0000
0001
,
0000
0000
0000
0000
2000
0000
0000
0000
3100
0000
0000
0000
0010
0000
0000
0100
,
0000
0000
0000
0000
1000
0000
0001
0000
0000
0000
0000
0000
0100
0000
0000
0001
,
0000
0000
1000
0000
0200
0000
0000
0000
1300
0000
0000
0000
0001
0000
0000
0010
,
0000
0000
0001
0000
0200
0000
0000
0000
0310
0000
0000
0010
0000
0000
1000
0000
,
0000
1000
0000
0000
2000
0000
0000
3000
0000
0000
0000
0000
0000
0000
0000
0000
;

//---------------dance-single - sangyule----------------
#NOTES:
     dance-single:
     :
     Medium:
     7:
     0.455302,0.456822,0.109648,0.307015,0.255846,436.000000,421.000000,15.000000,42.000000,4.000000,0.000000,0.455302,0.456822,0.109648,0.307015,0.255846,436.000000,421.000000,15.000000,42.000000,4.000000,0.000000:
0000
0000
0000
0000
,
0000
0000
0000
0000
,
0000
0000
0000
0000
,
0000
0000
0000
0000
,
0000
0000
0000
2000
3000
0001
0100
0010
,
0100
0001
0000
1000
0100
1000
0010
1000
,
0001
0002
0000
0103
0000
0001
1000
0100
,
0010
0010
0001
1000
0010
0010
0100
0001
,
1000
0100
0000
0100
0000
1000
0001
0000
,
0100
0010
0100
0000
0001
1000
0001
0000
,
0010
0100
0010
0000
0000
0001
0100
0000
,
0010
1000
0100
0000
0010
0001
0100
0010
,
1000
1000
0001
0000
1001
1000
0010
0100
,
0002
0000
1003
0100
1000
0001
1000
0010
,
0200
0000
0301
1000
0020
0000
1030
0001
,
0010
0010
0100
0100
1000
0001
1000
0010
,
0100
0000
0000
0001
0000
0000
2000
0000
3100
0000
0010
0000
0100
0000
1000
0000
,
0001
0100
0010
1000
0100
1000
0100
0010
,
0001
1000
0010
1000
0100
0010
0100
1000
,
0010
0100
0001
1000
1010
0000
0000
0000
,
0001
1000
0002
0000
1003
0000
1000
0000
,
0010
0010
0100
0100
,
0001
0000
1000
0000
0001
0000
1000
0000
1001
0000
0000
0000
0001
1000
0000
0100
,
0000
0000
0010
0000
0001
0000
0100
0000
0000
0000
0010
0000
1000
0001
0000
0010
,
0000
0000
0200
0000
0020
0000
0330
0000
0110
0000
0000
0000
0001
1000
0000
0010
,
0000
0000
0100
0000
0002
0000
0000
0000
1003
0000
0100
0000
1000
0001
0000
0200
,
0000
0000
0000
0000
1300
0000
0000
0000
0110
0000
0000
0000
0001
0010
0000
0001
,
0000
0000
0100
0000
0010
0000
2000
0000
0001
0000
0000
0001
0000
0000
0100
0000
,
0000
0100
0000
0000
3002
0000
0003
0000
0011
0000
0000
0000
0010
0001
0000
0010
,
0000
0000
0100
0000
1000
0000
0020
0000
0130
0000
0001
0000
1000
0100
0000
1000
,
0000
0000
0002
0000
0200
0000
0303
0000
0101
0000
0000
0000
0001
1000
0000
0010
,
0000
0000
1000
0000
0200
0000
0000
0000
1300
0000
0001
0000
0010
0001
0000
1000
,
0000
0000
0010
0000
0400
0000
0000
0000
0310
0000
0000
0000
1000
0001
0000
0010
,
0001
0010
0000
0001
0000
0000
0200
0000
0310
0000
1000
0000
0001
1000
0000
0001
,
1000
0001
0000
0200
0000
0000
0000
0000
0301
0000
0000
0000
0010
0100
0000
1000
,
0100
1000
0000
0002
0000
0000
0000
0000
1003
0000
0000
1000
0000
0000
0001
0000
,
0000
0001
0000
0000
0002
0000
0000
0000
1003
0000
0000
0000
0010
0000
0100
0000
,
0010
1000
0001
0000
1000
0001
1000
0100
,
0010
0010
0002
0000
0003
M000
M000
0000
,
00M0
00M0
0000
0000
0101
0000
0100
0010
,
1000
0100
0010
0010
0001
0000
1000
0010
,
0100
0001
0010
0000
0100
1000
0100
1000
,
0001
0001
0100
0000
0010
1000
0100
1000
,
0001
0010
0100
0000
1000
0020
0030
0100
,
0001
1000
0001
0010
0100
0100
1000
0001
,
0100
0001
1000
0000
1001
0001
0100
0010
,
2000
0000
3001
0010
0001
1000
0001
0100
,
0020
0000
1030
0001
0200
0000
0301
1000
,
0100
0100
0010
0010
0001
1000
0001
0100
,
0010
0000
0000
1000
0000
0000
0002
0000
0013
0000
0100
0000
0010
0000
0001
0000
,
1000
0010
0100
0001
0010
0001
0010
0100
,
1000
0001
0100
0001
0010
0100
0010
0001
,
0100
0010
1000
0001
0101
0000
0000
0000
,
1000
0001
2000
0000
3001
0000
0001
0000
,
0100
0100
0010
0010
,
1000
0000
0001
0000
1000
0000
0001
0000
1001
0000
0000
0000
1000
0001
0000
0010
,
0000
0000
0100
0000
1000
0000
0010
0000
0000
0000
0100
0000
0001
1000
0000
0100
,
0000
0000
0020
0000
0200
0000
0330
0000
0110
0000
0000
0000
1000
0001
0000
0100
,
0000
0000
0010
0000
2000
0000
0000
0000
3001
0000
0010
0000
0001
1000
0000
0020
,
0000
0000
0000
0000
0031
0000
0000
0000
0110
0000
0000
0000
1000
0100
0000
1000
,
0000
0000
0010
0000
0100
0000
0002
0000
1000
0000
0000
1000
0000
0000
0010
0000
,
0000
0010
0000
0000
2003
0000
3000
0000
1100
0000
0000
0000
0100
1000
0000
0100
,
0000
0000
0010
0000
0001
0000
0200
0000
0310
0000
1000
0000
0001
0010
0000
0001
,
0000
0000
2000
0000
0020
0000
3030
0000
1010
0000
0000
0000
1000
0001
0000
0100
,
0000
0000
0001
0000
0020
0000
0000
0000
0031
0000
1000
0000
0100
1000
0000
0001
,
0000
0000
0100
0000
0040
0000
0000
0000
0130
0000
0000
0000
0001
1000
0000
0100
,
1000
0100
0000
1000
0000
0000
0020
0000
0130
0000
0001
0000
1000
0001
0000
1000
,
0001
1000
0000
0020
0000
0000
0000
0000
1030
0000
0000
0000
0100
0010
0000
0001
,
0010
0001
0000
2000
0000
0000
0000
0000
3001
0000
0000
0001
0000
0000
1000
0000
,
0000
1000
0000
0000
2000
0000
0000
3000
0000
0000
0000
0000
0000
0000
0000
0000
;

//---------------dance-single - Feraligatr----------------
#NOTES:
     dance-single:
     Feraligatr:
     Edit:
     11:
     0.823929,0.837508,0.182747,0.387424,1.154962,789.000000,758.000000,25.000000,53.000000,36.000000,8.000000,0.823929,0.837508,0.182747,0.387424,1.154962,789.000000,758.000000,25.000000,53.000000,36.000000,8.000000:
// measure 0
0000
0000
0000
0000
,  // measure 1
0000
0000
0000
0000
,  // measure 2
0000
0000
0000
0000
,  // measure 3
0000
0000
0000
0000
0000
0000
0000
0000
0000
0000
0000
0000
0000
0000
1000
0100
,  // measure 4
1000
0000
0100
0000
1000
0000
0000
0000
0001
0000
0000
0000
0100
0000
0000
0000
0110
0000
0000
0000
0001
0000
0000
0000
1000
0000
0100
00M0
0100
0000
0010
0000
,  // measure 5
1000
0000
0000
0000
0001
0000
0000
0000
0100
0000
0000
0000
0010
0000
1000
0000
0100
00M0
0100
0000
0001
0000
0000
0000
1000
0000
0000
0000
0001
0000
0100
0000
,  // measure 6
0010
0000
0000
0000
1000
0000
0000
0000
0001
0000
0000
0000
0010
0000
0000
0000
0100
0000
0000
0000
0010
0000
0001
0000
1000
0000
0010
000M
0010
0000
0100
0000
,  // measure 7
1000
0000
0100
0000
0010
0000
0001
1000
0010
0000
0100
0000
0001
0000
1000
0100
,  // measure 8
0010
0000
0011
0000
00M0
0000
1010
0000
M001
0000
0100
0000
0020
0000
1030
0001
,  // measure 9
0000
0010
0M00
0010
2000
0000
3000
0001
0000
0100
00M0
0100
2000
0000
3001
1000
,  // measure 10
0000
0100
00M0
0100
0002
0000
0103
0000
0010
0000
1000
0000
0200
0000
1300
0001
,  // measure 11
0000
0100
00M0
0100
2000
0000
3000
0001
0000
0010
0M00
0010
2000
0000
3001
0010
,  // measure 12
0M00
0000
0010
0000
0000
0000
0100
0000
0002
0000
0000
0000
1003
0000
0000
0000
0001
0000
0100
0000
0010
0000
1000
0000
0010
000M
0010
0000
0100
0000
0000
0000
,  // measure 13
1000
0000
0001
0000
0100
0000
0010
1000
0001
0000
0010
0100
1000
0000
0010
0000
,  // measure 14
0100
0000
0001
0000
0100
0010
1000
0000
0001
0000
1000
0100
0010
0000
0001
0000
,  // measure 15
1000
0000
0010
1000
0100
0010
0001
0000
0100
0000
0010
0000
1000
0000
0010
0000
,  // measure 16
0100
0000
0000
0100
0000
0000
0100
0000
0001
1000
0100
1000
0001
0100
0001
1000
,  // measure 17
0100
0000
0010
0000
0001
0000
1000
0000
0001
0000
0100
0000
0010
M000
0010
0000
0001
0000
1000
0000
0001
0000
0010
0000
0100
0000
1000
0000
0100
000M
0100
0000
,  // measure 18
0010
0000
1000
0000
0100
0000
0010
0000
0001
0000
0100
0000
0010
0000
0100
0000
0001
0000
1000
0000
0100
0000
1000
0000
0010
000M
0010
0000
0100
0000
1000
0000
,  // measure 19
0010
0000
0100
0000
0001
0000
1000
0000
0001
0000
0100
0000
0010
M000
0010
0000
0001
0000
0000
0000
1000
0000
0100
0000
0010
0000
000M
0000
0010
0000
1000
0000
,  // measure 20
0100
000M
0100
000M
0100
000M
0100
0000
0020
0000
0000
0000
0000
0000
0030
0000
1000
0000
0100
0000
0010
0000
0001
0000
1000
0000
0010
0000
0100
0000
0001
0000
,  // measure 21
0010
1000
0010
0001
0100
0010
1000
0001
0000
0010
0100
1000
0001
0100
0010
1000
,  // measure 22
0100
0001
0100
1000
0010
0100
0001
1000
0202
0000
0313
0001
1000
0010
0100
1000
,  // measure 23
0100
0000
1000
0001
0010
0000
2000
0000
3001
0000
0010
0001
1000
0010
0100
1000
,  // measure 24
0100
0000
0010
1000
0200
0000
0010
0300
0111
0000
0100
1000
0001
0100
0010
0001
,  // measure 25
0010
0000
0100
0001
0020
0000
0000
0000
0130
0000
0010
0001
1000
0010
0100
1000
,  // measure 26
0100
0001
0100
0001
0010
0001
1000
0001
1100
0000
0010
1000
0001
0010
0100
0001
,  // measure 27
0100
0000
0010
0001
1000
0000
0200
0000
2300
0000
3000
2000
0001
3000
0020
0000
,  // measure 28
0030
0020
0000
0030
0020
0000
0130
0010
1011
0000
0001
1000
0001
0010
0100
0001
,  // measure 29
0100
0000
0010
0001
1000
0000
0010
0000
0100
0000
0010
1000
0001
0010
0100
0001
,  // measure 30
0100
0000
0010
0001
0200
0000
0010
0300
1110
0000
0100
0001
1000
0100
0010
1000
,  // measure 31
0010
0000
0100
1000
0020
0000
0100
0000
1030
0000
0010
1000
0001
0010
0100
0001
,  // measure 32
0100
1000
0100
1000
0010
1000
0001
1000
0101
0000
0010
0001
1000
0010
0100
1000
,  // measure 33
0100
0100
0000
0100
0001
0000
0010
0000
0001
0000
1000
0100
1000
0010
0000
0010
,  // measure 34
0100
0100
0000
0001
1000
0000
0100
0000
1010
0000
0001
1000
0010
0100
0000
0100
,  // measure 35
0001
0001
0000
0010
0100
0000
1000
0000
2002
0000
3003
2002
0000
3003
2020
0000
,  // measure 36
3030
2020
0000
3030
0010
1000
0010
1000
0100
0000
0010
0000
0001
0100
0010
1000
,  // measure 37
0001
0000
0000
0000
0000
0000
0010
0000
0000
0000
0000
0000
0100
0000
0000
0M00
0001
0000
0000
0000
0000
0000
0000
0000
1000
0000
0000
0010
0000
0000
0100
0000
0000
0001
0000
0000
1000
0000
0000
0000
0000
0000
0100
0000
0000
0000
0000
0000
,  // measure 38
0010
0000
0000
0000
0000
0000
0000
0000
0000
0000
0000
0000
0000
0000
0000
0000
0000
0000
0000
0000
0000
0000
0000
0000
0001
0000
0000
0000
0000
0000
0000
0000
0000
0000
0000
0000
0000
0000
0000
0000
0000
0000
0000
0000
0000
0000
0000
0000
0010
0000
0000
0000
0000
0000
0000
0000
0000
0000
0000
0000
00M0
0000
0000
0000
1000
0000
0000
0000
0000
0000
0000
0000
0000
0000
0000
0000
0000
0000
0000
0000
0000
0000
0000
0000
0000
0000
0000
0000
0000
0000
0000
0000
0000
0000
0000
0000
0000
0000
0000
0000
0000
0000
0000
0000
0000
0000
0000
0000
0000
0000
0000
0000
0000
0000
0000
0000
0000
0000
0000
0000
0010
0000
0000
0000
0000
0000
0000
0000
0000
0000
0000
0000
0000
0010
0000
0000
0000
0000
0000
0000
0000
0000
0000
0000
0000
0100
0000
0000
0000
0000
0000
0000
0000
0000
0000
0000
0000
0000
0000
0000
0000
0000
0000
0000
0000
0000
0000
0000
0000
0000
0000
0000
0000
0000
0000
0000
0001
0000
0000
0000
0000
0000
0000
0000
0000
0000
0000
0000
0000
0000
0000
0000
,  // measure 39
0001
0000
0000
0000
0000
0000
0000
0000
0000
0000
0000
0000
0000
0000
0000
0000
0000
0000
0000
0000
0000
0000
0000
0000
0100
0000
0000
0000
0000
0000
0000
0000
0000
0000
0000
0000
0000
0100
0000
0000
0000
0000
0000
0000
0000
0000
0000
0000
0000
0000
0000
0000
0000
0000
0000
0000
0000
0000
0000
0000
0000
0000
0000
0000
0000
0000
0000
0000
0000
0000
0000
0000
0002
0000
0000
0000
0000
0000
0000
0000
0000
0000
0000
0000
0000
0000
0000
0000
0000
0000
0000
0000
0000
0000
0000
0000
1003
0000
0000
0000
0000
0000
0000
0000
0000
0000
0000
0000
0000
0000
0000
0000
0000
0000
0000
0000
0000
0000
0000
0000
0100
0000
0000
0000
0000
0000
0000
0000
0000
0000
0000
0000
0000
0000
0000
0000
0000
0000
0000
0000
0000
0000
0000
0000
0010
0000
0000
0000
0000
0000
0000
0000
0000
0000
0000
0000
0000
0000
0000
0000
0000
0000
0000
0000
0000
0000
0000
0000
0001
0000
0000
0000
0000
0000
0000
0000
0000
0000
0000
0000
1000
0000
0000
0000
0000
0000
0000
0000
0000
0000
0000
0000
,  // measure 40
0010
0000
1000
0001
0010
0000
0100
0000
1000
M010
0000
0000
0001
1000
0010
0000
,  // measure 41
0100
0000
0001
0010
10M0
M100
0000
0000
0001
0000
0100
0010
1000
0000
0001
0000
,  // measure 42
0010
0000
0100
1000
0001
010M
0000
0000
1000
0010
0100
0000
0001
0000
1000
0100
,  // measure 43
1000
0000
0000
0000
0000
0000
0001
0000
0000
0000
0000
0000
0100
0000
0000
0M00
1000
0000
0000
0000
0000
0000
0000
0000
0001
0000
0000
0000
0000
0000
0100
0000
0000
0000
0000
0000
0010
0000
0000
0000
0000
0000
1000
0000
0000
0001
0000
0000
,  // measure 44
0010
0000
0100
0000
1000
0000
0010
0000
0100
0001
0100
0010
1000
0000
0001
1000
,  // measure 45
0100
0000
0000
0000
0010
0000
0000
0000
0001
0000
0000
0000
1000
0000
0000
0000
0001
0000
0010
0000
0100
0000
1000
0000
0100
000M
0100
0000
0010
0000
0000
0000
,  // measure 46
1000
0000
0001
0000
0010
0000
0100
1000
0001
0000
0100
0010
1000
0000
0100
0000
,  // measure 47
1000
0000
0001
0000
0100
0010
1000
0000
0001
0000
1000
0010
0100
0000
0001
0000
,  // measure 48
1000
0000
0100
1000
0010
0100
0001
0000
0010
0000
0100
0000
1000
0000
0100
0000
,  // measure 49
0010
0000
0000
0010
0000
0000
0010
0000
0001
1000
0010
1000
0001
0010
0001
1000
,  // measure 50
0010
0000
0100
0000
0001
0000
1000
0000
0001
0000
0010
0000
0100
M000
0100
0000
0001
0000
1000
0000
0001
0000
0100
0000
0010
0000
1000
0000
0010
000M
0010
0000
,  // measure 51
0100
0000
1000
0000
0010
0000
0100
0000
0001
0000
0010
0000
0100
0000
0010
0000
0001
0000
1000
0000
0010
0000
1000
0000
0100
000M
0100
0000
0010
0000
1000
0000
,  // measure 52
0100
0000
0010
0000
0001
0000
1000
0000
0001
0000
0010
0000
0100
M000
0100
0000
0001
0000
0000
0000
1000
0000
0010
0000
0100
0000
000M
0000
0100
0000
1000
0000
,  // measure 53
0010
000M
0010
000M
0010
000M
0010
0000
0200
0000
0000
0000
0000
0000
0300
0000
1000
0000
0010
0000
0100
0000
0001
0000
1000
0000
0100
0000
0010
0000
0001
0000
,  // measure 54
0100
1000
0100
0001
0010
0100
1000
0001
0000
0100
0010
1000
0001
0010
0100
1000
,  // measure 55
0010
0001
0010
0010
1000
1000
0100
0100
2020
0000
3130
0010
0001
0010
0100
0001
,  // measure 56
0100
0000
0001
1000
0010
0000
0002
0000
1003
0000
0100
1000
0001
0100
0010
0001
,  // measure 57
0010
0000
0100
0001
0020
0000
0100
0030
1110
0000
0010
0001
1000
0010
0100
1000
,  // measure 58
0100
0000
0010
1000
0200
0000
0000
0000
0310
0000
0100
1000
0001
0100
0010
0001
,  // measure 59
0010
1000
0010
1000
0100
1000
0001
1000
0011
0000
0100
0001
1000
0100
0010
1000
,  // measure 60
0010
0000
0100
1000
0001
0000
0020
0000
0032
0000
0003
0002
1000
0003
0200
0000
,  // measure 61
0300
0200
0000
0300
0200
0000
0310
0100
1101
0000
1000
0001
1000
0100
0010
1000
,  // measure 62
0010
0000
0100
1000
0001
0000
0100
0000
0010
0000
0100
0001
1000
0100
0010
1000
,  // measure 63
0010
0000
0100
1000
0020
0000
0100
0030
0111
0000
0010
1000
0001
0010
0100
0001
,  // measure 64
0100
0000
0010
0001
0200
0000
0010
0000
0301
0000
0100
0001
1000
0100
0010
1000
,  // measure 65
0010
0001
0010
0001
0100
0001
1000
0001
1010
0000
0100
1000
0001
0100
0010
0001
,  // measure 66
0010
0010
0000
0010
1000
0000
0100
0000
1000
0000
0001
0010
0001
0100
0000
0100
,  // measure 67
0010
0010
0000
1000
0001
0000
0010
0000
0101
0000
1000
0001
0100
0010
0000
0010
,  // measure 68
1000
1000
0000
0100
0010
0000
0001
0000
2002
0000
3003
2002
0000
3003
2020
0000
,  // measure 69
3030
2020
0000
3030
0010
1000
0010
1000
0000
0000
0000
0000
0000
0000
0000
0000
;
