#VERSION:0.83;
#TITLE:Thirsty;
#SUBTITLE:;
#ARTIST:Speaker of the House;
#TITLETRANSLIT:;
#SUBTITLETRANSLIT:;
#ARTISTTRANSLIT:;
#GENRE:Big Room Trap;
#ORIGIN:;
#CREDIT:Feraligatr;
#BANNER:Thirsty-bn.png;
#BACKGROUND:Thirsty-bg.png;
#PREVIEWVID:;
#JACKET:Thirsty-jacket.png;
#CDIMAGE:;
#DISCIMAGE:;
#LYRICSPATH:;
#CDTITLE:;
#MUSIC:Speaker of the House - Thirsty.ogg;
#OFFSET:0.009000;
#SAMPLESTART:36.912998;
#SAMPLELENGTH:14.769000;
#SELECTABLE:YES;
#DISPLAYBPM:130.000000:145.000000;
#BPMS:0.000=130.000,
139.000=128.600,
141.000=129.900,
146.000=130.780,
147.000=131.000,
148.000=132.000,
149.000=133.000,
150.000=134.380,
151.000=135.000,
152.000=136.000,
153.000=137.000,
154.000=138.000,
155.000=139.500,
156.000=140.440,
157.000=141.100,
158.000=142.140,
159.000=143.480,
160.000=144.480,
161.000=145.000;
#STOPS:75.750=1.384;
#DELAYS:;
#WARPS:;
#TIMESIGNATURES:0.000=4=4;
#TICKCOUNTS:0.000=4;
#COMBOS:0.000=1;
#SPEEDS:0.000=1.000=0.000=0;
#SCROLLS:0.000=1.000,
89.000=1.200,
93.000=1.000,
107.000=1.200,
109.000=1.000,
121.000=1.200,
125.000=1.000,
193.000=0.500,
195.000=1.000,
225.000=0.500,
227.000=1.000,
239.000=0.500,
241.000=1.000;
#FAKES:;
#LABELS:0.000=Song Start;
#LASTSECONDHINT:113.000000;
#BGCHANGES:;
#KEYSOUNDS:;
#ATTACKS:
;

//---------------dance-single - Feraligatr----------------
#NOTEDATA:;
#CHARTNAME:Feraligatr;
#STEPSTYPE:dance-single;
#DESCRIPTION:Feraligatr;
#CHARTSTYLE:;
#DIFFICULTY:Challenge;
#METER:11;
#RADARVALUES:0.688199,0.838261,0.182609,0.086957,0.891304,554.000000,533.000000,21.000000,10.000000,6.000000,2.000000,9.000000,0.000000,0.000000,0.688199,0.838261,0.182609,0.086957,0.891304,554.000000,533.000000,21.000000,10.000000,6.000000,2.000000,9.000000,0.000000,0.000000;
#CREDIT:Feraligatr;
#DISPLAYBPM:130.000000:145.000000;
#NOTES:
// measure 0
0000
0000
0000
0000
,  // measure 1
0000
0000
0000
0000
,  // measure 2
0000
0000
0000
0000
,  // measure 3
0000
0000
0000
0000
,  // measure 4
1000
0001
0100
0001
0010
0000
0010
0000
0100
0010
0001
1000
0010
0000
0100
0000
,  // measure 5
0001
1000
0100
1000
0001
0000
0100
0000
0010
1000
0001
1000
0100
0000
0010
0000
,  // measure 6
0001
0001
1000
1000
0010
0010
0100
0100
,  // measure 7
0001
1000
0100
0010
0100
1000
0001
0100
0001
0010
0100
1000
0001
0100
0010
1000
,  // measure 8
0100
0000
0000
0100
0000
0000
0010
0000
0001
0000
0000
1000
0000
0000
0010
0000
,  // measure 9
0100
0000
0000
0100
0000
0000
0001
0000
0010
0000
0000
0100
0000
0000
1000
0000
,  // measure 10
0001
0000
0000
0100
0000
0000
0010
0000
00M1
0000
0000
0100
0000
0000
0010
0000
,  // measure 11
1000
0000
0000
0100
0000
0000
1000
0000
0010
0000
0000
0100
0000
0000
0001
0000
,  // measure 12
1000
0000
0000
0100
0000
0000
0010
0000
10M0
0000
0000
0100
0000
0000
0010
0000
,  // measure 13
0001
0000
0000
0100
0000
0000
0010
0000
00M1
0000
0000
0100
0000
0000
0010
0000
,  // measure 14
1000
0000
0000
0001
0000
0000
0010
0000
10M0
0000
0000
0001
0000
0000
0010
0000
,  // measure 15
0001
0000
0000
1000
0000
0000
0010
0000
01M0
0000
0000
0010
0000
0000
0001
0000
,  // measure 16
1000
0000
0010
0000
1000
0000
0010
0000
0100
0000
0001
0000
1000
0100
1000
0100
,  // measure 17
0010
0000
0000
0000
0000
0000
0001
0000
0000
0000
0000
0000
0010
0000
0000
0000
0000
0000
0001
0000
0000
0000
0000
0000
1000
0000
0000
0000
0000
0000
0010
0000
0000
0000
0000
0000
0100
0000
0000
0001
0000
0000
1000
0000
0100
0000
1000
0000
,  // measure 18
0001
0010
0001
1000
0010
0100
0001
1000
0001
0010
0100
1000
0001
0100
0001
0010
,  // measure 19
0000
0000
0000
0000
1100
0000
0000
0100
1000
0000
0010
0000
0100
0001
0000
0001
,  // measure 20
1000
0000
0200
0000
1000
0000
0000
0310
0001
0000
0100
0000
0010
1000
0000
1000
,  // measure 21
0100
0000
0000
0000
0100
0000
0000
0000
0100
0000
0000
0000
0110
0000
0000
0000
0000
0000
0000
0000
0000
0010
0000
0000
0001
0000
0000
0000
0000
0000
0100
0000
0000
0000
0000
0000
0010
0000
0000
1000
0000
0000
0000
0000
0000
1000
0000
0000
,  // measure 22
0400
0000
0000
0000
1310
0001
0010
0101
1000
0100
1010
0001
1100
0010
1000
0011
,  // measure 23
0100
0010
1100
0001
0100
0000
0000
0010
1000
0000
0100
0000
0010
0001
0000
0001
,  // measure 24
1000
0000
0020
0000
1000
0000
0000
0130
0001
0000
0010
0000
0100
1000
0000
1000
,  // measure 25
0010
0000
0000
0000
0010
0000
0000
0000
0010
0000
0000
0000
0110
0000
0000
0000
0000
0000
0000
0000
0000
0100
0000
0000
0001
0000
0000
0000
0000
0000
0010
0000
0000
0000
0000
0000
0100
0000
0000
1000
0000
0000
0000
0000
0000
1000
0000
0000
,  // measure 26
0001
0000
0100
0000
0010
0000
1000
0000
0400
0000
0000
0300
1010
0100
0010
0101
,  // measure 27
0010
0000
0101
0000
1000
0001
0000
0100
0010
1000
0100
0010
0001
1000
0000
0010
,  // measure 28
0100
0001
0010
0100
0010
0100
0000
1000
0100
1000
0010
0100
0001
1000
0000
0100
,  // measure 29
0010
0000
0000
0000
0010
0000
0000
0000
0010
0000
0000
0000
0001
0000
0000
1000
0000
0000
0000
0000
0000
0010
0000
0000
0100
0000
0000
0001
0000
0000
0010
0000
0000
0100
0000
0000
1000
0000
0000
0001
0000
0000
0000
0000
0000
0100
0000
0000
,  // measure 30
0040
0000
0000
0000
1130
0000
0000
0011
0000
0000
1100
00M0
0101
0000
0000
1010
,  // measure 31
0000
0000
0101
0000
1000
0001
0000
0010
0100
1000
0010
0100
0001
1000
0000
0100
,  // measure 32
0010
0001
0100
0010
0100
0010
0000
1000
0010
1000
0100
0010
0001
1000
0000
0001
,  // measure 33
0100
0000
0000
0000
0100
0000
0000
0000
0100
0000
0000
0000
0010
0000
0000
1000
0000
0000
0000
0000
0000
0001
0000
0000
0100
0000
0000
0001
0000
0000
0010
0000
0000
0100
0000
0000
1000
0000
0000
0001
0000
0000
0000
0000
0000
0100
0000
0000
,  // measure 34
0010
1000
0100
0010
0100
0000
1000
0000
0040
0000
0000
0030
4001
0000
0000
0000
,  // measure 35
0000
3100
0000
0000
,  // measure 36
0000
1000
0010
0100
,  // measure 37
0001
1000
0100
0010
,  // measure 38
0001
1000
0010
0100
,  // measure 39
0001
1000
0100
0010
,  // measure 40
0001
0000
1000
0010
1000
0010
0100
0001
,  // measure 41
1000
0100
1000
0100
0010
0000
0001
0000
0010
0000
0001
0000
1000
0000
0010
0000
,  // measure 42
0100
0000
0000
0001
0000
0000
1000
0000
0100
0000
1000
0000
0001
0000
0000
0100
0000
0000
0010
0000
0000
1000
0000
0000
0001
0000
0000
0010
0000
0000
0100
0000
0000
0010
0000
0000
0001
0000
0000
1000
0000
0000
0010
0000
0000
0100
0000
0000
,  // measure 43
0001
1000
0100
1000
0010
0000
0000
0000
0100
0000
0000
0000
0001
0000
0000
0000
,  // measure 44
0040
0000
0000
0000
0000
0000
0000
0000
0000
0030
0000
0000
1100
0000
0000
0000
0000
0000
0100
0000
0000
0000
0000
0000
0001
0000
0000
0100
0000
0000
0001
0000
0000
0100
0000
0000
0010
0000
0000
0000
0010
0000
0000
0000
0010
0000
0000
0000
,  // measure 45
0001
0000
0000
1000
0000
0000
0020
0000
0000
0032
0000
0000
0013
0000
0000
1000
0000
0000
0001
0100
0001
0100
0000
0000
,  // measure 46
1000
0100
0001
0010
0100
1000
0001
0100
1000
0000
0100
0000
0010
0000
0100
0000
,  // measure 47
1000
0000
0000
0100
0000
0000
0001
0000
0000
1000
0000
0000
0001
0000
0000
0010
0000
0000
0100
0000
0000
1000
0000
0000
0010
0000
0000
0000
0001
0000
0000
0000
1000
0000
0000
0000
0100
0000
0000
0000
0001
0000
0000
0000
0010
0000
0000
0000
,  // measure 48
0100
0010
0001
0400
0000
0000
0000
0000
0000
0310
0010
0010
,  // measure 49
1000
0001
0020
2030
3010
0001
0001
0100
,  // measure 50
1000
0100
0010
1000
0100
0010
0100
0010
0001
0000
0100
0000
0100
0000
0100
0000
,  // measure 51
1000
0000
0000
0100
0000
0000
0010
0000
0000
1000
0000
0000
0001
0000
0000
0010
0000
0000
0001
0000
0000
0010
0000
0000
0100
0000
0000
0000
1000
0000
0000
0000
0001
0000
0000
0000
0100
0000
0000
0000
0010
0000
0000
0000
1000
0000
0000
0000
,  // measure 52
0100
0000
0000
0000
0010
0000
0000
0000
0001
0000
0000
0000
0011
0000
0000
0000
0000
0000
0010
0000
0000
0000
0000
0000
1000
0000
0000
0010
0000
0000
1000
0000
0000
0010
0000
0000
0100
0000
0000
0000
0100
0000
0000
0000
0100
0000
0000
0000
,  // measure 53
1000
0000
0000
0001
0000
0000
0200
0000
0000
2300
0000
0000
3100
0000
0000
0001
0000
0000
1000
0010
1000
0010
0000
0000
,  // measure 54
0001
0010
1000
0100
0010
0001
1000
0010
0001
0000
0010
0000
0100
0000
0010
0000
,  // measure 55
0001
0000
0000
0010
0000
0000
1000
0000
0000
0001
0000
0000
1000
0000
0000
0100
0000
0000
0010
0000
0000
0001
0000
0000
0100
0000
0000
0000
1000
0000
0000
0000
0001
0000
0000
0000
0010
0000
0000
0000
1000
0000
0000
0000
0100
0000
0000
0000
,  // measure 56
0010
0100
1000
0040
0000
0000
0000
0000
0000
0130
0100
0100
,  // measure 57
0001
1000
0200
0302
0103
1000
1000
0010
,  // measure 58
0001
0010
0100
0001
0010
0100
0010
0100
1000
0000
0010
0000
0010
0000
0010
0000
,  // measure 59
0001
0010
0100
0001
1000
0100
1000
0100
0010
0000
0001
0000
0400
0000
0000
0000
,  // measure 60
0000
0310
0000
0000
;

//---------------dance-single - Feraligatr----------------
#NOTEDATA:;
#CHARTNAME:Feraligatr SH;
#STEPSTYPE:dance-single;
#DESCRIPTION:Feraligatr;
#CHARTSTYLE:Pad;
#DIFFICULTY:Hard;
#METER:9;
#RADARVALUES:0.600000,0.707283,0.139130,0.147826,0.695652,483.000000,467.000000,16.000000,17.000000,0.000000,0.000000,3.000000,0.000000,0.000000,0.600000,0.707283,0.139130,0.147826,0.695652,483.000000,467.000000,16.000000,17.000000,0.000000,0.000000,3.000000,0.000000,0.000000;
#CREDIT:Feraligatr;
#DISPLAYBPM:130.000000:145.000000;
#NOTES:
0000
0000
0000
0000
,
0000
0000
0000
0000
,
0000
0000
0000
0000
,
0000
0000
0000
0000
,
1000
0001
0000
1000
0010
0000
0010
0000
0100
0010
0000
1000
0001
0000
0010
0000
,
0100
1000
0000
0001
0100
0000
0010
0000
1000
0001
0000
0010
0100
0000
1000
0000
,
0001
0001
0100
0100
0010
0010
1000
1000
,
0001
0010
0001
0010
0100
1000
0100
1000
0001
0100
0010
1000
0001
0010
0100
1000
,
0010
0000
0000
0010
0000
0000
0100
0000
0001
0000
0000
1000
0000
0000
0100
0000
,
0010
0000
0000
0010
0000
0000
0001
0000
0100
0000
0000
0010
0000
0000
1000
0000
,
0001
0000
0000
0010
0000
0000
0100
0000
1000
0000
0000
0010
0000
0000
0100
0000
,
0001
0000
0000
0010
0000
0000
0001
0000
0100
0000
0000
0010
0000
0000
1000
0000
,
0100
0000
0000
0010
0000
0000
0001
0000
0100
0000
0000
0010
0000
0000
1000
0000
,
0100
0000
0000
0010
0000
0000
0001
0000
0100
0000
0000
0010
0000
0000
1000
0000
,
0100
0000
0000
0010
0000
0000
0001
0000
0100
0000
0000
0010
0000
0000
1000
0000
,
0100
0000
0000
0010
0000
0000
0001
0000
1000
0000
0000
0010
0000
0000
0100
0000
,
0001
0000
0001
0000
1000
0000
1000
0000
0100
0000
0010
0000
0001
1000
0001
1000
,
0010
0000
0010
0000
0100
0000
0100
0000
0001
0000
1000
0000
0001
0100
0001
0100
,
0010
1000
0001
1000
0100
0010
0001
1000
0001
0100
0010
1000
0001
0010
0100
1000
,
0000
0000
0000
0000
1001
0000
0000
0001
0000
0000
0100
0000
0010
1000
0000
1000
,
0000
0000
0200
0000
0000
0000
0000
1300
0000
0000
0001
0000
0000
0100
0000
0010
,
1000
0000
0000
0000
0001
0000
0000
0000
1000
0000
0000
0000
0100
0000
0000
0000
0000
0000
0000
0000
0000
0010
0000
0000
0000
0000
0000
0000
0000
0000
0001
0000
0000
0000
0000
0000
1000
0000
0000
0010
0000
0000
0000
0000
0000
0010
0000
0000
,
0100
0000
0100
0000
0101
0000
0000
0110
0000
0000
1010
0000
1100
0000
0000
0110
,
0000
0000
0011
0000
0001
0000
0000
1000
0000
0000
0010
0000
0100
0001
0000
0001
,
0000
0000
0020
0000
0000
0000
0000
0130
0000
0000
1000
0000
0000
0010
0000
0100
,
0001
0000
0000
0000
1000
0000
0000
0000
0001
0000
0000
0000
0010
0000
0000
0000
0000
0000
0000
0000
0000
0100
0000
0000
0000
0000
0000
0000
0000
0000
0010
0000
0000
0000
0000
0000
0001
0000
0000
1000
0000
0000
0000
0000
0000
1000
0000
0000
,
0000
0000
0010
0000
0100
0000
0001
0000
0020
0000
0000
0030
0001
0100
0001
0010
,
0100
0000
1100
0000
1000
0000
0000
0001
0100
0000
0010
0000
1000
0001
0000
0001
,
0010
0000
0200
0000
0010
0000
0000
1300
0001
0000
0100
0000
0010
1000
0000
0001
,
0010
0000
0000
0000
0100
0000
0000
0000
0010
0000
0000
0000
0001
0000
0000
0000
0000
0000
0000
0000
0000
1000
0000
0000
0010
0000
0000
0000
0000
0000
0100
0000
0000
0000
0000
0000
0001
0000
0000
1000
0000
0000
0000
0000
0000
1000
0000
0000
,
0100
0000
0100
0000
1100
0000
0000
0110
0000
0000
0011
0000
0101
0000
0000
0110
,
0000
0000
1010
0000
0001
0000
0000
1000
0010
0000
0100
0000
0001
1000
0000
1000
,
0100
0000
0020
0000
0100
0000
0000
0031
0010
0000
0100
0000
1000
0001
0000
0100
,
0010
0000
0000
0000
1000
0000
0000
0000
0010
0000
0000
0000
0100
0000
0000
0000
0000
0000
0000
0000
0000
0001
0000
0000
1000
0000
0000
0000
0000
0000
0100
0000
0000
0000
0000
0000
0010
0000
0000
0001
0000
0000
0000
0000
0000
0001
0000
0000
,
1000
0000
0010
0000
0100
0000
0001
0000
0020
0000
0000
0030
0410
0000
0000
0000
,
0000
1300
0000
0000
,
0000
0001
0100
0010
,
1000
0001
0010
0100
,
1000
0001
0100
0010
,
1000
0001
0010
0100
,
1000
0000
0001
0001
0100
0100
0010
1000
,
0001
0010
0001
0010
0100
0000
0100
0000
1000
0000
1000
0000
0001
0000
0100
0000
,
0010
1000
0100
0010
0001
0000
0100
0010
1000
0000
0100
0010
0001
0000
0100
0010
,
1000
0000
0100
1000
0010
0000
0000
0000
0100
0000
0000
0000
0001
0000
0000
0000
,
0010
0000
0000
0000
0000
0000
0010
0000
0000
0000
0000
0000
0110
0000
0000
0000
0000
0000
0100
0000
0000
0000
0000
0000
1000
0000
0000
0001
0000
0000
1000
0000
0000
0001
0000
0000
0100
0000
0000
0000
0010
0000
0000
0000
1000
0000
0000
0000
,
0100
1000
0020
0032
0013
0100
0400
0300
,
0001
0010
0100
1000
0000
0001
0100
0001
1000
0000
0100
0000
1000
0000
0100
0000
,
1000
0000
0000
0010
0000
0000
0100
0000
0000
0001
0000
0000
1000
0000
0000
0100
0000
0000
1000
0000
0000
0100
0000
0000
0010
0000
0000
0000
0001
0000
0000
0000
1000
0000
0000
0000
0010
0000
0000
0000
0100
0000
0000
0000
0001
0000
0000
0000
,
1000
0100
1000
0020
0000
0000
0000
0000
0000
0130
0001
0100
,
0010
1000
0200
0302
0103
0010
0010
0100
,
1000
0000
0001
0100
0010
1000
0010
1000
0001
0000
0010
0000
0010
0000
0010
0000
,
0100
0000
0000
0000
0000
0000
0010
0000
0000
0001
0000
0000
1000
0000
0000
0010
0000
0000
1000
0000
0000
0010
0000
0000
0100
0000
0000
0000
0001
0000
0000
0000
1000
0000
0000
0000
0100
0000
0000
0000
0010
0000
0000
0000
0001
0000
0000
0000
,
1000
0000
0000
0000
0010
0000
0000
0000
0100
0000
0000
0000
0001
0000
0000
0000
0000
0000
0010
0000
0000
0000
0000
0000
0001
0000
0000
1000
0000
0000
0001
0000
0000
1000
0000
0000
0010
0000
0000
0000
0100
0000
0000
0000
0001
0000
0000
0000
,
0010
0001
0200
2300
3100
0010
0040
0030
,
1000
0100
0010
0001
0000
1000
0010
1000
0001
0000
0010
0000
0001
0000
0010
0000
,
0001
0000
0000
0100
0000
0000
0010
0000
0000
1000
0000
0000
0001
0000
0000
0010
0000
0000
0001
0000
0000
0010
0000
0000
0100
0000
0000
0000
1000
0000
0000
0000
0001
0000
0000
0000
0100
0000
0000
0000
0010
0000
0000
0000
1000
0000
0000
0000
,
0001
0010
0001
0200
0000
0000
0000
0000
0000
0310
1000
0010
,
0100
0001
0020
2030
3010
0100
0100
0010
,
0001
0000
1000
0010
0100
0001
0100
0001
1000
0000
0100
0000
0100
0000
0100
0000
,
0010
0000
0100
1000
0001
0100
0001
0100
0010
0000
1000
0000
0200
0000
0000
0000
,
0000
0310
0000
0000
;

//---------------dance-single - Feraligatr----------------
#NOTEDATA:;
#CHARTNAME:Feraligatr SM;
#STEPSTYPE:dance-single;
#DESCRIPTION:Feraligatr;
#CHARTSTYLE:;
#DIFFICULTY:Medium;
#METER:7;
#RADARVALUES:0.403727,0.471522,0.147826,0.173913,0.221739,325.000000,308.000000,17.000000,20.000000,0.000000,0.000000,21.000000,0.000000,0.000000,0.403727,0.471522,0.147826,0.173913,0.221739,325.000000,308.000000,17.000000,20.000000,0.000000,0.000000,21.000000,0.000000,0.000000;
#CREDIT:Feraligatr;
#DISPLAYBPM:130.000000:145.000000;
#NOTES:
0000
0000
0000
0000
,
0000
0000
0000
0000
,
0000
0000
0000
0000
,
0000
0000
0000
0000
,
1000
0010
0100
0001
1000
0100
0010
0000
,
0100
1000
0001
0100
0010
1000
0001
0000
,
1000
0010
1000
0010
0100
0001
0100
0001
,
4000
3400
0340
0034
,
0103
0000
0000
0100
0000
0000
0010
0000
1000
0000
0000
0001
0000
0000
0010
0000
,
0100
0000
0000
0100
0000
0000
1000
0000
0010
0000
0000
0100
0000
0000
0001
0000
,
1000
0000
0000
0100
0000
0000
1000
0000
0001
0000
0000
0100
0000
0000
0001
0000
,
1000
0000
0000
0010
0000
0000
1000
0000
0001
0000
0000
0010
0000
0000
0100
0000
,
1000
0000
0000
0010
0000
0000
1000
0000
0001
0000
0000
0010
0000
0000
0001
0000
,
1000
0000
0000
0100
0000
0000
1000
0000
0001
0000
0000
0100
0000
0000
0001
0000
,
1000
0000
0000
0100
0000
0000
1000
0000
0001
0000
0000
0100
0000
0000
0001
0000
,
1000
0000
0000
0010
0000
0000
1000
0000
0001
0000
0000
0010
0000
0000
0100
0000
,
1000
0000
1000
0000
0001
0100
0004
0000
,
0013
0100
0010
0100
1000
0001
0400
0000
,
0310
0010
0010
0010
1000
1000
1000
1000
,
0000
0000
0000
0000
1001
0000
0000
0001
0000
0000
0010
0000
0000
0100
0000
1000
,
0000
0000
0002
0000
0000
0000
0000
0103
0000
0000
0010
0000
0000
1000
0000
0000
,
0200
0000
0000
0000
0310
0000
0000
0001
0000
0000
1000
0000
0000
0010
0000
0000
,
0100
0000
0000
0000
0101
0000
0000
0101
0000
0000
0101
0000
1001
0000
0000
1001
,
0000
0000
1001
0000
1000
0000
0000
0100
0000
0000
0010
0000
0000
0001
0000
1000
,
0000
0000
0020
0000
0000
0000
0000
0130
0000
0000
0001
0000
0000
1000
0000
0000
,
0200
0000
0000
0000
0310
0000
0000
0001
0000
0000
1000
0000
0000
0010
0000
0100
,
0000
0000
0001
0000
1000
0000
0100
0000
0010
0000
0000
0000
0011
0000
0000
0011
,
0000
0000
0011
0000
0001
0000
0000
1000
0000
0000
0010
0000
0000
0100
0000
0001
,
0000
0000
2000
0000
0000
0000
0000
3100
0000
0000
0010
0000
0000
0001
0000
0000
,
0200
0000
0000
0000
0310
0000
0000
1000
0000
0000
0001
0000
0000
0010
0000
0000
,
0100
0000
0000
0000
1100
0000
0000
1100
0000
0000
1100
0000
1001
0000
0000
1001
,
0000
0000
1001
0000
0001
0000
0000
0100
0000
0000
0010
0000
0000
1000
0000
0001
,
0000
0000
0020
0000
0000
0000
0000
0130
0000
0000
1000
0000
0000
0001
0000
0000
,
0200
0000
0000
0000
0310
0000
0000
1000
0000
0000
0001
0000
0000
0010
0000
0100
,
0000
1000
0001
0100
0010
0000
2000
0000
,
0000
3001
0000
0000
,
0000
1000
1000
0001
,
0001
0100
0100
0010
,
0010
1000
1000
0001
,
0001
0010
0010
0100
,
0100
0000
1000
0000
1000
0000
0001
0100
,
0040
0000
1030
0001
1000
0001
0010
0100
,
4000
3004
0403
0340
,
4030
3100
0010
0001
,
0000
0000
1001
0000
1000
0010
1000
0001
,
0010
0100
2000
3020
0130
0000
0001
0000
,
1000
0000
0100
0010
0001
1000
0001
1000
,
0010
0100
0001
0000
4000
0000
3400
0000
,
0340
0000
0032
0000
0000
0000
1003
0010
,
0100
0001
2000
3200
0300
0010
0010
0000
,
0010
0000
0001
1000
0001
0100
0100
0100
,
0010
1000
0001
0010
0400
0000
4300
0000
,
3004
0000
0103
0000
0001
0010
0001
1000
,
0010
0100
0002
0023
0130
0000
1000
0000
,
0001
0000
0100
0010
1000
0001
1000
0001
,
0010
0100
1000
0000
0004
0000
0403
0000
,
0340
0000
2030
0000
0000
0000
3001
0010
,
0100
1000
0002
0203
0300
0010
0010
0000
,
0010
0000
1000
0001
1000
0100
0100
0100
,
0010
0001
1000
0010
0100
0000
0002
0000
,
0000
0013
0000
0000
;

//---------------dance-single - Feraligatr----------------
#NOTEDATA:;
#CHARTNAME:Feraligatr SE;
#STEPSTYPE:dance-single;
#DESCRIPTION:Feraligatr;
#CHARTSTYLE:;
#DIFFICULTY:Easy;
#METER:4;
#RADARVALUES:0.249689,0.288152,0.017391,0.286957,0.021739,201.000000,199.000000,2.000000,33.000000,0.000000,0.000000,0.000000,0.000000,0.000000,0.249689,0.288152,0.017391,0.286957,0.021739,201.000000,199.000000,2.000000,33.000000,0.000000,0.000000,0.000000,0.000000,0.000000;
#CREDIT:Feraligatr;
#DISPLAYBPM:130.000000:145.000000;
#NOTES:
0000
0000
0000
0000
,
0000
0000
0000
0000
,
0000
0000
0000
0000
,
0000
0000
0000
0000
,
1000
0010
0100
0000
,
0001
0010
0100
0000
,
1000
1000
0010
0010
,
0200
0302
0023
0230
,
2300
0000
0000
0000
,
3002
0000
0000
0000
,
0203
0000
0000
0000
,
0000
0000
0000
0000
,
0310
0010
1000
1000
,
0001
0001
0010
0010
,
0100
0100
1000
1000
,
0001
0001
0100
0010
,
1000
1000
0001
0010
,
0010
0100
1000
0001
,
0200
0000
0000
0000
0320
0000
0000
0000
2030
0000
0000
0000
3002
0000
0000
0003
,
0000
1001
1000
0010
,
1000
0001
0010
0001
,
0200
0310
1000
0001
,
0010
0000
0000
0000
0100
0000
0000
0100
0000
0000
0100
0000
1000
0000
0000
1000
,
0000
1000
0001
0000
0100
0000
0010
0000
,
1000
0001
0010
0001
,
0200
0310
1000
0001
,
0010
0000
0000
0000
0100
0000
0000
0000
0000
0000
0000
0000
1000
0000
0000
1000
,
0000
1000
0001
0000
1000
0000
0100
0000
,
1000
0001
0100
0001
,
0020
0130
1000
0001
,
0100
0000
0000
0000
0010
0000
0000
0010
0000
0000
0010
0000
1000
0000
0000
1000
,
0000
1000
0002
0000
0100
0000
1000
0000
,
0100
2003
3100
1000
,
0020
0130
0001
1000
,
0100
0010
0000
0002
,
0000
1003
0000
0000
,
0000
0001
0001
1000
,
1000
0010
0010
0100
,
0100
0001
0001
1000
,
1000
0100
0100
0010
,
0010
0001
1000
0010
,
0100
0001
1000
0100
,
0010
0002
2003
3020
,
0230
0301
1000
0100
,
0000
1001
1000
0010
,
0100
0001
1000
0000
0000
0000
0200
0300
,
0000
0000
0010
0000
0001
1000
0001
1000
,
0001
0000
0200
0000
,
0000
0320
0000
1030
,
0001
0010
0100
0000
0000
1000
1000
0000
,
0001
0200
0000
0010
,
0301
1000
0200
0000
,
0000
0310
0001
0100
,
0010
1000
0001
0000
0000
0000
0020
0030
,
0000
0000
0100
0000
1000
0001
1000
0001
,
1000
0000
0020
0000
,
0000
0230
0000
0301
,
1000
0100
0010
0000
0000
0001
0001
0000
,
1000
0020
0000
0100
,
1030
0001
0020
0230
,
0000
1300
0000
0000
;

//---------------dance-single - Feraligatr----------------
#NOTEDATA:;
#CHARTNAME:Feraligatr SN;
#STEPSTYPE:dance-single;
#DESCRIPTION:Feraligatr;
#CHARTSTYLE:;
#DIFFICULTY:Beginner;
#METER:2;
#RADARVALUES:0.120497,0.157174,0.017391,0.113043,0.000000,97.000000,95.000000,2.000000,13.000000,0.000000,0.000000,0.000000,0.000000,0.000000,0.120497,0.157174,0.017391,0.113043,0.000000,97.000000,95.000000,2.000000,13.000000,0.000000,0.000000,0.000000,0.000000,0.000000;
#CREDIT:Feraligatr;
#DISPLAYBPM:130.000000:145.000000;
#NOTES:
0000
0000
0000
0000
,
0000
0000
0000
0000
,
0000
0000
0000
0000
,
0000
0000
0000
0000
,
1000
0000
0000
0000
,
0010
0000
0000
0000
,
1000
0000
0100
0000
,
0010
0000
0001
0000
,
2000
0000
0000
0000
,
3020
0000
0000
0000
,
0230
0000
0000
0000
,
0000
0000
0000
0000
,
0301
0000
0000
0000
,
1000
0000
0000
0000
,
0001
0000
0000
0000
,
1000
0000
0000
0000
,
0100
0000
0100
0000
,
0010
0000
0010
0000
,
0002
0000
0000
0000
0000
0000
0000
0000
0000
0000
0000
0000
0000
0000
0000
0003
,
0000
1001
0000
0000
,
0000
1000
0000
0000
,
0020
0130
0000
0000
,
0000
0001
0000
1000
,
0000
0001
0000
0000
,
0000
0010
0000
0000
,
0200
1300
0000
0000
,
0000
0001
0000
1000
,
0000
0001
0000
0010
,
0000
0100
0000
1000
,
0002
0103
0000
0010
,
0000
1000
0000
0001
,
0000
1000
0000
0100
,
0000
0010
0000
0001
,
2000
3010
0000
0100
,
0000
0001
0000
2000
,
0000
3001
0000
0000
,
0000
1000
0000
0001
,
0000
1000
0000
0001
,
0000
0010
0000
0100
,
0000
0010
0000
0100
,
0000
1000
0000
1000
,
0000
0001
0000
0001
,
0000
0200
0000
0000
,
0000
0300
0000
0000
,
0000
1001
0000
1000
,
0000
0001
0000
0100
,
0000
0010
0000
1000
,
0000
0001
0000
0010
,
0000
0200
0000
1300
,
0000
0001
0000
0100
,
0000
0001
0000
1000
,
0000
0100
0000
0010
,
0000
0001
0000
1000
,
0000
0010
0000
0100
,
0000
0010
0000
1000
,
0000
0001
0000
0010
,
0000
0200
0000
1300
,
0000
0001
0000
0100
,
0000
0010
0000
1000
,
0000
0001
0000
0020
,
0000
0130
0000
0000
;
