#VERSION:0.83;
#TITLE:TURBO;
#SUBTITLE:;
#ARTIST:Tokyo Machine;
#TITLETRANSLIT:;
#SUBTITLETRANSLIT:;
#ARTISTTRANSLIT:;
#GENRE:;
#ORIGIN:;
#CREDIT:;
#BANNER:turbo-bn.jpg;
#BACKGROUND:turbo-bg.jpg;
#PREVIEWVID:;
#JACKET:;
#CDIMAGE:;
#DISCIMAGE:;
#LYRICSPATH:;
#CDTITLE:;
#MUSIC:TURBO.ogg;
#OFFSET:0.201000;
#SAMPLESTART:83.109001;
#SAMPLELENGTH:17.455000;
#SELECTABLE:YES;
#DISPLAYBPM:128.000000;
#BPMS:0.000=128.000;
#STOPS:;
#DELAYS:;
#WARPS:;
#TIMESIGNATURES:0.000=4=4;
#TICKCOUNTS:0.000=4;
#COMBOS:0.000=1;
#SPEEDS:0.000=1.000=0.000=0;
#SCROLLS:0.000=1.000;
#FAKES:;
#LABELS:0.000=Song Start;
#BGCHANGES:;
#KEYSOUNDS:;
#ATTACKS:
;

//---------------dance-single - Maxx----------------
#NOTEDATA:;
#CHARTNAME:Maxx;
#STEPSTYPE:dance-single;
#DESCRIPTION:Maxx;
#CHARTSTYLE:;
#DIFFICULTY:Challenge;
#METER:10;
#RADARVALUES:0.739735,0.852871,0.356813,0.591788,0.966007,595.000000,546.000000,41.000000,68.000000,63.000000,10.000000,4.000000,0.000000,0.000000,0.739735,0.852871,0.356813,0.591788,0.966007,595.000000,546.000000,41.000000,68.000000,63.000000,10.000000,4.000000,0.000000,0.000000;
#CREDIT:Maxx;
#DISPLAYBPM:128.000000;
#NOTES:
// measure 0
0000
0000
0000
0000
,  // measure 1
0000
0000
0000
0000
,  // measure 2
0000
0000
0000
0000
,  // measure 3
0000
0000
0000
0000
,  // measure 4
0000
0000
0000
0000
0000
0000
0000
0000
0004
0000
0000
0000
4003
0000
0000
3001
,  // measure 5
1100
0000
0001
0000
0010
0000
0001
0000
2000
0000
0000
3002
0000
0000
0103
0000
,  // measure 6
2020
0000
3030
0000
1000
0000
0001
0000
0020
0000
0000
0230
0000
0000
1300
0000
,  // measure 7
0202
0000
0303
0000
0001
0000
1000
0000
0200
0000
0000
0320
0000
0000
0031
0000
,  // measure 8
1010
1000
0100
0010
0202
1303
0202
0313
,  // measure 9
1001
0000
0001
0000
0100
0000
0010
0000
2000
0000
0000
3001
0010
0000
0100
0000
,  // measure 10
2200
0000
3300
0000
1000
0000
0001
0000
0100
0000
0000
0010
1000
0000
0001
0000
,  // measure 11
0022
0000
0033
0000
0001
0000
1000
0000
0100
0000
0000
0010
0001
0000
1000
0000
,  // measure 12
1010
0000
0010
0000
0100
0000
0001
0000
1000
0000
0100
0000
0020
0000
0000
0030
,  // measure 13
1001
0000
0001
0000
1000
0010
0000
0100
0000
0010
1000
0000
0001
0000
1000
0000
,  // measure 14
0100
0000
0010
0000
0100
1000
0000
0010
0000
0100
0001
0000
0101
0002
0000
0003
,  // measure 15
1001
0000
1000
0000
0001
0100
0000
0010
0000
0100
0001
0000
0010
0000
0100
0000
,  // measure 16
1000
0000
0001
0000
1000
0010
0000
0100
0000
0010
1000
0000
1010
2000
0000
3000
,  // measure 17
1001
0000
0001
0000
1000
0100
0010
0000
0001
1000
0010
0000
0100
0001
1000
0000
,  // measure 18
0100
0010
0001
0000
1000
0001
0100
0000
0010
1000
0001
0000
1000
0100
0010
0000
,  // measure 19
0001
1000
0100
0010
0001
1000
0010
0100
0001
1000
0100
1000
0001
0100
0010
1000
,  // measure 20
0001
0000
0010
0M00
0010
0000
1000
0000
0001
0000
0100
00M0
0100
0000
1000
0000
0001
0000
0010
0M00
0010
0000
0000
0000
1000
0000
0000
0000
0001
0000
0000
0000
,  // measure 21
0222
0000
0333
0000
0001
1000
0010
0M00
0010
0001
0100
00M0
0100
1000
0010
0M00
,  // measure 22
0010
0001
0100
00M0
0100
1000
0010
0M00
0010
0001
0100
0000
0001
2200
0000
3300
,  // measure 23
1001
0000
0001
0000
1000
0100
0000
0100
00M0
0100
0001
0000
1000
0001
0010
0000
,  // measure 24
0001
0000
0100
00M0
0100
0000
0000
0000
1000
0000
0010
0000
0000
0000
0010
0000
0M00
0000
0010
0000
0001
0000
0000
0000
0100
0000
0000
0000
0010
0000
0000
0000
,  // measure 25
2220
0000
3330
0000
1000
0001
0010
0M00
0010
1000
0100
00M0
0100
0001
0010
0M00
,  // measure 26
0010
1000
0100
00M0
0100
0001
0010
0M00
0010
1000
0100
0010
0001
1000
0010
0000
,  // measure 27
0110
0000
0100
0000
0001
0010
0000
0010
0M00
0010
1000
0000
0001
1000
0100
0000
,  // measure 28
0010
0001
1000
0000
0001
0100
0000
0100
00M0
0100
1000
0000
0001
0000
0100
0000
,  // measure 29
2220
0000
3330
0000
1000
0001
0100
00M0
0100
1000
0010
0M00
0010
0001
0100
00M0
,  // measure 30
0100
1000
0010
0M00
0010
0001
0100
00M0
0100
1000
0010
0000
1000
0202
0000
0303
,  // measure 31
1001
0000
1000
0000
0001
0010
0000
0010
0M00
0010
1000
0000
0001
1000
0010
0000
,  // measure 32
1000
0000
0100
00M0
0100
0000
0000
0000
0001
0000
0100
0000
0000
0000
0100
0000
00M0
0000
0100
0000
1000
0000
0000
0000
0010
0000
0000
0000
0100
0000
0000
0000
,  // measure 33
0222
0000
0333
0000
0001
1000
0100
00M0
0100
0001
0010
0M00
0010
1000
0100
00M0
,  // measure 34
0100
0001
0010
0M00
0010
1000
0100
00M0
0100
0001
0010
0000
0001
2000
0000
3000
,  // measure 35
1001
0000
0001
0000
1000
0010
0000
0010
0M00
0010
0001
0000
1000
0000
0001
0000
,  // measure 36
0100
0010
0100
0001
0010
0100
1000
0001
,  // measure 37
1001
0000
0001
0000
1000
0100
0010
0000
0001
0000
0000
1000
0010
0000
0100
0000
,  // measure 38
0004
0000
0000
0000
0013
0100
1000
0000
0001
0000
0000
0100
0010
0000
2000
0000
,  // measure 39
0001
3000
0000
0000
0001
1000
0100
0000
0010
0000
0000
0001
1000
0000
0010
0000
,  // measure 40
0100
0000
0001
0000
1000
0100
0010
0000
0002
0000
0100
0000
2003
0000
0100
3000
,  // measure 41
1001
0000
1000
0000
0001
1000
0010
0000
0100
0000
0000
0001
0010
0000
0100
0000
,  // measure 42
4000
0000
0000
0000
3010
0100
0001
0000
1000
0000
0000
0100
0010
0000
0002
0000
,  // measure 43
1000
0000
0003
0000
0000
0000
0000
0000
1000
0000
0001
0000
0100
0000
0000
0000
0202
0000
0000
0000
0303
0000
0220
0000
0000
0000
0330
0000
2002
0000
0000
3003
,  // measure 44
0001
0000
0100
00M0
0100
0000
1000
0000
0001
0000
0010
0M00
0010
0000
1000
0000
0001
0000
0100
00M0
0100
0000
0000
0000
1000
0000
0000
0000
0001
0000
0000
0000
,  // measure 45
0222
0000
0333
0000
0001
1000
0010
0M00
0010
0001
0100
00M0
0100
1000
0010
0M00
,  // measure 46
0010
0001
0100
00M0
0100
1000
0010
0M00
0010
0001
0100
0000
0001
2200
0000
3300
,  // measure 47
0110
0000
0010
0000
1000
0100
0000
0100
00M0
0100
0001
0000
1000
0100
0010
0000
,  // measure 48
0001
0000
0100
00M0
0100
0000
0000
0000
1000
0000
0010
0000
0000
0000
0010
0000
0M00
0000
0010
0000
0001
0000
0000
0000
0100
0000
0000
0000
0010
0000
0000
0000
,  // measure 49
2220
0000
3330
0000
1000
0001
0010
0M00
0010
1000
0100
00M0
0100
0001
0010
0M00
,  // measure 50
0010
1000
0100
00M0
0100
0001
0010
0M00
0010
1000
0001
0010
0100
1000
0010
0000
,  // measure 51
0110
0000
0100
0000
0001
0010
0000
0010
0M00
0010
1000
0000
0001
0010
0100
0000
,  // measure 52
1000
0001
0010
0000
0001
0100
0000
0100
00M0
0100
1000
0000
0010
0000
0100
0000
,  // measure 53
0222
0000
0333
0000
1000
0001
0100
00M0
0100
1000
0010
0M00
0010
0001
0100
00M0
,  // measure 54
0100
1000
0010
0M00
0010
0001
0100
00M0
0100
1000
0010
0000
1000
0202
0000
0303
,  // measure 55
1001
0000
1000
0000
0001
0010
0000
0010
0M00
0010
1000
0000
0001
1000
0010
0000
,  // measure 56
1000
0000
0100
00M0
0100
0000
0000
0000
0001
0000
0100
0000
0000
0000
0100
0000
00M0
0000
0100
0000
1000
0000
0000
0000
0010
0000
0000
0000
0100
0000
0000
0000
,  // measure 57
0222
0000
0333
0000
0001
1000
0100
00M0
0100
0001
0010
0M00
0010
1000
0100
00M0
,  // measure 58
0100
0001
0010
0M00
0010
1000
0100
00M0
0100
0010
1000
0001
0010
0200
0000
0300
,  // measure 59
1001
0000
0001
0000
1000
0100
0000
1000
0000
0001
0100
0000
0001
0000
1000
0000
,  // measure 60
0100
0010
0001
1000
0010
0100
0010
1000
,  // measure 61
2002
3003
0000
0000
;

//---------------dance-single - sangyule----------------
#NOTEDATA:;
#CHARTNAME:;
#STEPSTYPE:dance-single;
#DESCRIPTION:sangyule;
#CHARTSTYLE:;
#DIFFICULTY:Beginner;
#METER:1;
#RADARVALUES:0.108163,0.159261,0.087028,0.000000,0.000000,87.000000,77.000000,10.000000,0.000000,0.000000,0.000000,0.000000,0.000000,0.000000,0.108163,0.159261,0.087028,0.000000,0.000000,87.000000,77.000000,10.000000,0.000000,0.000000,0.000000,0.000000,0.000000,0.000000;
#CREDIT:sangyule;
#DISPLAYBPM:128.000000;
#NOTES:
0000
0000
0000
0000
,
0000
0000
0000
0000
,
0000
0000
0000
0000
,
0000
0000
0000
0000
,
0000
0000
0000
0000
,
1000
0000
0000
0000
,
1000
0000
0000
0000
,
0001
0000
0000
0000
,
0001
0000
0001
0000
,
0100
0000
0000
0000
,
0100
0000
0000
0000
,
0010
0000
0000
0000
,
0010
0000
0000
0000
,
1000
0000
0000
0000
,
0001
0000
0000
0000
,
0010
0000
0000
0000
,
0100
0000
0000
0000
,
1000
0000
1000
0000
,
1000
0000
1000
0000
,
0010
0000
0000
0000
,
0000
0000
0000
0000
,
1001
0000
0000
0000
,
0001
0000
0000
0100
,
0100
0000
0100
0000
,
0010
0000
0000
0000
,
0110
0000
0000
0000
,
0001
0000
0000
0010
,
0010
0000
0010
0000
,
0100
0000
0000
0000
,
1001
0000
0000
0000
,
1000
0000
0000
0001
,
0001
0000
0001
0000
,
1000
0000
0000
0000
,
0110
0000
0000
0000
,
0010
0000
0000
0100
,
0100
0000
0000
0000
,
0000
0000
0000
0000
,
1001
0000
0000
0000
,
0001
0000
0001
0000
,
0100
0000
0000
0000
,
0010
0000
0010
0000
,
1000
0000
0000
0000
,
0001
0000
0001
0000
,
1000
0000
1000
0000
,
0001
0000
0000
0000
,
1001
0000
1000
0000
,
0001
0000
0000
0100
,
0100
0000
0100
0000
,
0010
0000
0000
0000
,
0110
0000
0001
0000
,
1000
0000
0000
0001
,
0001
0000
1000
0000
,
0001
0000
0000
0000
,
1001
0000
0001
0000
,
0100
0000
0000
0010
,
0010
0000
0100
0000
,
0010
0000
0000
0000
,
0110
0000
0000
0000
,
0001
0000
0000
0000
,
1000
0000
0000
0000
,
0000
0000
0000
0000
,
1001
0000
0000
0000
;

//---------------dance-single - sangyule----------------
#NOTEDATA:;
#CHARTNAME:;
#STEPSTYPE:dance-single;
#DESCRIPTION:sangyule;
#CHARTSTYLE:;
#DIFFICULTY:Easy;
#METER:4;
#RADARVALUES:0.252380,0.291978,0.226272,0.043514,0.004351,203.000000,177.000000,26.000000,5.000000,0.000000,0.000000,1.000000,0.000000,0.000000,0.252380,0.291978,0.226272,0.043514,0.004351,203.000000,177.000000,26.000000,5.000000,0.000000,0.000000,1.000000,0.000000,0.000000;
#CREDIT:sangyule;
#DISPLAYBPM:128.000000;
#NOTES:
0000
0000
0000
0000
,
0000
0000
0000
0000
,
0000
0000
0000
0000
,
0000
0000
0000
0000
,
0000
0000
0000
0000
,
1001
0000
0000
0000
,
0110
0000
0000
0000
,
1001
0000
0000
0000
,
1100
0000
0011
0011
,
1000
1000
0001
0001
,
0100
0100
0010
0010
,
1000
1000
0001
0001
,
0010
0010
0010
0200
,
1300
0001
0100
0001
,
1000
0100
0010
0100
,
0110
0010
0001
1000
,
0010
0100
0001
1000
,
1001
0001
0010
0010
,
0100
0100
1000
1000
,
0040
0000
0000
0000
,
0030
0000
0000
0000
,
1001
0001
0010
0010
,
0100
0100
1000
0001
,
0101
0000
1000
0100
,
1000
0000
0001
0100
,
0101
0001
1000
1000
,
0100
0100
0010
0001
,
1001
0000
1000
0010
,
0100
0000
0100
0001
,
1001
1000
0100
0100
,
0010
0010
0001
1000
,
1010
0000
0010
0100
,
0001
0000
1000
0100
,
1100
1000
0001
0001
,
0100
0100
0010
1000
,
2020
0000
0000
0000
,
3030
0000
0000
0000
,
0001
0010
0001
1000
,
0100
0100
1000
1000
,
0010
0000
0100
0001
,
1000
0001
0010
0010
,
0110
1000
0001
0100
,
0010
0100
0001
0100
,
0010
0000
0000
0000
0000
0000
0000
0000
1000
0000
0000
0001
0000
0000
1000
0000
,
0000
0000
0000
0000
,
1001
1000
0100
0100
,
0010
0010
0001
1000
,
1010
0000
0001
0010
,
0001
0000
1000
0010
,
1010
1000
0001
0001
,
0010
0010
0100
1000
,
1001
0000
0001
0100
,
0010
0000
0010
1000
,
1001
0001
0010
0010
,
0100
0100
1000
0001
,
0101
0000
0100
0010
,
1000
0000
0001
0010
,
0011
0001
1000
1000
,
0010
0010
0100
0001
,
0202
0000
0000
0000
,
0303
0000
0000
0000
,
1001
0000
0000
0000
;

//---------------dance-single - sangyule----------------
#NOTEDATA:;
#CHARTNAME:;
#STEPSTYPE:dance-single;
#DESCRIPTION:sangyule;
#CHARTSTYLE:;
#DIFFICULTY:Medium;
#METER:5;
#RADARVALUES:0.356813,0.399783,0.295894,0.113136,0.039162,287.000000,253.000000,34.000000,13.000000,11.000000,0.000000,2.000000,0.000000,0.000000,0.356813,0.399783,0.295894,0.113136,0.039162,287.000000,253.000000,34.000000,13.000000,11.000000,0.000000,2.000000,0.000000,0.000000;
#CREDIT:;
#DISPLAYBPM:128.000000;
#NOTES:
0000
0000
0000
0000
,
0000
0000
0000
0000
,
0000
0000
0000
0000
,
0000
0000
0000
0000
,
0000
0000
0000
0000
0001
0010
0001
0000
,
1001
0000
0000
0000
,
0011
0000
0000
0000
,
1010
0000
0000
0000
,
0101
0000
1010
1010
,
1000
0000
0000
0000
0001
0000
0000
0000
0010
0000
0000
0100
0000
0000
0010
0000
,
0200
0000
0000
0000
1300
0000
0000
0000
0001
0000
0000
0100
0000
0000
0001
0000
,
2000
0000
0000
0000
3100
0000
0000
0000
0010
0000
0000
0001
0000
0000
0100
0000
,
0002
0000
1003
0000
0001
1000
0020
0000
,
0130
0000
0001
0000
1000
0000
0100
0010
,
0100
0010
0001
0011
,
1010
0000
1000
0000
0010
0000
0100
0001
,
0100
0010
1000
1001
,
0011
0010
0001
0001
,
0100
0100
0010
0010
,
1000
0001
1000
0001
1000
0001
1000
0001
,
4000
0000
0000
0000
30M0
0M00
00M0
0000
,
1001
0000
0001
0010
0001
0000
0100
0010
,
0100
0000
0001
1000
0001
0000
1001
0000
,
0110
0000
1000
0001
0000
0001
0010
0000
,
0100
0000
1000
0001
0000
0001
0100
0000
,
0110
0000
0010
1000
0010
0000
0100
0001
,
0100
0000
0001
1000
0001
0000
0011
0000
,
1100
0000
0100
0010
0000
0010
0001
0000
,
1000
0000
0010
0100
0000
0100
0001
0000
,
1001
0000
1000
0100
0010
0000
0001
0010
,
0100
0000
1000
0010
0100
0000
0101
0000
,
1010
0000
1000
0001
0000
0010
0001
0000
,
1000
0000
0010
0100
0000
0001
0100
0000
,
0101
0000
0001
0100
0010
0000
1000
0010
,
0100
0000
0001
0010
0100
0000
1000
0000
,
2200
0000
0000
0000
,
3300
0000
00MM
00MM
,
1000
0000
0000
0000
0001
0000
1000
0000
0001
0000
0000
0100
0000
0000
0020
0000
,
0000
0000
0000
0000
0130
0000
0001
0000
1000
0000
0000
0001
0000
0000
1000
0000
,
00M0
0000
0000
0000
0100
0000
1000
0000
0001
0000
0000
0100
0000
0000
0002
0000
,
0000
1003
0100
0010
0100
0000
0100
0000
,
0110
0000
0000
0000
0001
0000
1000
0000
0010
0000
0000
0100
0000
0000
0020
0000
,
0000
0000
0000
0000
0130
0000
0001
0000
1000
0000
0000
0001
0000
0000
0010
0000
,
0M00
0000
0000
0000
0100
0000
1000
0000
0001
0000
0000
0001
0000
0000
0100
0000
,
0040
0000
0030
0000
,
1001
0000
1000
0010
1000
0000
0100
0010
,
0100
0000
1000
0001
1000
0000
1001
0000
,
0110
0000
0001
1000
0000
1000
0010
0000
,
0100
0000
0001
1000
0000
1000
0100
0000
,
0110
0000
0010
0001
0010
0000
0100
1000
,
0100
0000
1000
0001
1000
0000
1010
0000
,
0101
0000
0100
0010
0000
0010
1000
0000
,
0001
0000
0010
0100
0000
0100
1000
0000
,
1001
0000
0001
0100
0010
0000
1000
0100
,
0010
0000
0001
0100
0010
0000
1010
0000
,
0101
0000
0001
1000
0000
0010
1000
0000
,
0001
0000
0010
0100
0000
1000
0100
0000
,
1100
0000
1000
0100
0010
0000
0001
0100
,
0010
0000
1000
0100
0010
0000
0001
0000
,
0022
0000
0000
0000
,
0033
0000
0000
0000
,
2MM2
3003
0000
0000
;

//---------------dance-single - sangyule----------------
#NOTEDATA:;
#CHARTNAME:;
#STEPSTYPE:dance-single;
#DESCRIPTION:sangyule;
#CHARTSTYLE:;
#DIFFICULTY:Hard;
#METER:8;
#RADARVALUES:0.519679,0.559697,0.322002,0.139244,0.356813,418.000000,381.000000,37.000000,16.000000,19.000000,0.000000,4.000000,0.000000,0.000000,0.519679,0.559697,0.322002,0.139244,0.356813,418.000000,381.000000,37.000000,16.000000,19.000000,0.000000,4.000000,0.000000,0.000000;
#CREDIT:sangyule;
#DISPLAYBPM:128.000000;
#NOTES:
0000
0000
0000
0000
,
0000
0000
0000
0000
,
0000
0000
0000
0000
,
0000
0000
0000
0000
,
0000
0000
0000
0000
0000
0000
0000
0000
0001
0000
1000
0000
0010
0000
0100
0010
,
1000
1000
0000
0000
0000
0000
0000
0000
,
0011
0000
0000
0000
,
1010
0000
0000
0000
,
0101
0001
0000
0000
1100
0000
0011
0000
,
1001
0000
1000
0000
0001
0000
0100
0000
0010
0000
0000
0100
0000
0000
0001
0000
,
1002
0000
0000
0000
1003
0000
0100
0000
0010
0000
0000
0100
0000
0000
1000
0000
,
2001
0000
0000
0000
3010
0000
0100
0000
0001
0000
0000
1000
0000
0000
0001
0000
,
1001
1000
0010
0100
0001
1000
0002
0000
,
0M13
0000
0001
0000
1000
0010
0000
0100
0000
0010
1000
0000
0001
0000
1000
0000
,
0001
0000
1000
0000
0100
0010
0000
0001
0000
0010
0100
0000
1100
0000
0000
0000
,
0101
0000
0100
0000
0001
1000
0000
0100
0000
1000
0001
0000
0010
0000
0001
0000
,
1000
0000
0001
0000
0100
0010
0000
0100
0000
0001
1000
0000
1001
0000
0000
0000
,
0011
0010
0001
0010
0001
1000
0001
1000
,
0010
0100
0010
0100
0001
1000
0001
1000
,
0100
0010
0001
0100
0010
1000
0100
0010
,
0004
4000
0000
0000
0000
0000
0000
0003
3010
0100
0010
0000
0100
0000
0000
0000
,
1MM1
0000
0001
0001
1000
1000
0010
0010
,
0100
0100
0001
0001
1000
1000
1001
0000
,
0110
0000
0000
0000
1000
0001
0000
1000
0000
0010
0100
0000
0001
0000
0001
0000
,
2000
0000
3000
0000
0001
1000
0000
0001
0000
1000
0100
0000
0010
0000
0000
0000
,
0110
0000
0001
0001
0100
0100
0010
0010
,
1000
1000
0001
0001
0010
0010
0011
0000
,
1100
0000
0000
0000
1000
0001
0000
1000
0000
0001
0100
0000
0010
0000
0010
0000
,
2000
0000
3000
0000
0001
1000
0000
0001
0000
0010
0100
0000
M000
0000
M000
0000
,
0110
0000
0000
0000
0001
0000
0001
0000
1000
0010
1000
0000
0010
0000
0010
0000
,
0100
0001
0100
0000
0001
0000
0001
0000
1000
0100
1000
0000
1001
0000
0000
0000
,
0011
0000
0000
0000
1000
0001
0000
0100
0000
0001
0100
0000
0010
0000
0010
0000
,
1000
0000
0000
0000
0100
0010
0000
0100
0000
1000
0001
0000
0200
0000
0300
0000
,
0110
0000
0000
0000
1000
0000
1000
0000
0001
0010
0001
0000
1000
0000
1000
0000
,
0001
0100
0001
0000
0100
0000
0100
0000
0010
1000
0010
0000
0100
0000
0000
0000
,
1001
0000
0000
0000
0001
1000
0000
0100
0000
1000
0001
0000
0100
0000
0010
0000
,
0000
0000
M00M
M00M
,
1001
0000
1000
0000
0001
0000
0010
0000
0100
0000
0000
1000
0000
0000
0010
0000
,
0000
0020
0000
0000
0130
0000
0001
0000
1000
0000
0000
0001
0000
0000
0020
0000
,
M030
0000
0000
0000
0100
0000
1000
0000
0001
0000
0000
0100
0000
0000
0020
0000
,
0000
1030
0001
0010
1000
0010
1000
0010
,
0001
0000
1000
0000
0001
0000
0100
0000
0010
0000
0000
1000
0000
0000
0100
0000
,
0000
0200
0000
0000
1300
0000
0010
0000
0100
0000
0000
0001
0000
0000
2000
0000
,
30M0
0000
0000
0000
0100
0000
1000
0000
0001
0000
0000
0001
0000
0000
0100
0000
,
0004
4000
0000
0000
0000
0000
0000
0003
3010
0100
0010
0000
0100
0000
0000
0000
,
1MM1
0000
1000
1000
0001
0001
0010
0010
,
0100
0100
1000
1000
0001
0001
1001
0000
,
0110
0000
0000
0000
0001
1000
0000
0001
0000
0010
0100
0000
1000
0000
1000
0000
,
0002
0000
0003
0000
1000
0001
0000
1000
0000
0001
0100
0000
0010
0000
0000
0000
,
0110
0000
1000
1000
0100
0100
0010
0010
,
0001
0001
1000
1000
0010
0010
1010
0000
,
0101
0000
0000
0000
0001
1000
0000
0001
0000
1000
0100
0000
0010
0000
0010
0000
,
0002
0000
0003
0000
1000
0001
0000
1000
0000
0010
0100
0000
000M
0000
000M
0000
,
0110
0000
0000
0000
1000
0000
1000
0000
0001
0010
0001
0000
0010
0000
0010
0000
,
0100
1000
0100
0000
1000
0000
1000
0000
0001
0100
0001
0000
1001
0000
0000
0000
,
1010
0000
0000
0000
0001
1000
0000
0100
0000
1000
0100
0000
0010
0000
0010
0000
,
0001
0000
0000
0000
0100
0010
0000
0100
0000
0001
1000
0000
0200
0000
0300
0000
,
0110
0000
0000
0000
0001
0000
0001
0000
1000
0010
1000
0000
0001
0000
0001
0000
,
1000
0100
1000
0000
0100
0000
0100
0000
0010
0001
0010
0000
0100
0000
0000
0000
,
1001
0000
0000
0000
1000
0001
0000
0100
0000
0001
1000
0000
0100
0000
0010
0000
,
0000
0000
M00M
M00M
,
0220
0330
0000
0000
;
