#VERSION:0.83;
#TITLE:THE DROP;
#SUBTITLE:[Mini-Mix];
#ARTIST:Gammer & Various Artists;
#TITLETRANSLIT:;
#SUBTITLETRANSLIT:;
#ARTISTTRANSLIT:;
#GENRE:;
#ORIGIN:;
#CREDIT:;
#BANNER:thedropminimix-bn.png;
#BACKGROUND:thedropminimix-bg.png;
#PREVIEWVID:;
#JACKET:thedropminimix-jacket.png;
#CDIMAGE:;
#DISCIMAGE:;
#LYRICSPATH:;
#CDTITLE:;
#MUSIC:The Drop [Mini-Mix].ogg;
#OFFSET:0.009000;
#SAMPLESTART:478.543640;
#SAMPLELENGTH:20.000000;
#SELECTABLE:YES;
#BPMS:0.000=128.000,
536.000=150.000,
1048.000=160.000;
#STOPS:;
#DELAYS:;
#WARPS:;
#TIMESIGNATURES:0.000=4=4;
#TICKCOUNTS:0.000=4;
#COMBOS:0.000=1;
#SPEEDS:0.000=1.000=0.000=0;
#SCROLLS:0.000=1.000;
#FAKES:;
#LABELS:0.000=Song Start;
#BGCHANGES:;
#KEYSOUNDS:;
#ATTACKS:
;

//---------------dance-single - ----------------
#NOTEDATA:;
#CHARTNAME:;
#STEPSTYPE:dance-single;
#DESCRIPTION:;
#CHARTSTYLE:;
#DIFFICULTY:Challenge;
#METER:14;
#RADARVALUES:0.811893,0.991412,0.278591,0.468033,0.962996,3060.000000,2908.000000,150.000000,252.000000,47.000000,7.000000,26.000000,0.000000,0.000000,0.811893,0.991412,0.278591,0.468033,0.962996,3060.000000,2908.000000,150.000000,252.000000,47.000000,7.000000,26.000000,0.000000,0.000000;
#CREDIT:Maxx, CopperPuppy & Tony S.;
#NOTES:
// measure 0
0000
0000
0000
0000
,  // measure 1
0000
0000
0000
0000
,  // measure 2
0000
0000
0000
0000
,  // measure 3
0000
0000
0000
0000
,  // measure 4
0001
0000
1000
0001
0010
0000
0100
0000
1000
0000
0001
1000
0010
0000
0100
0000
,  // measure 5
0001
0000
0010
0001
1000
0000
0001
0000
0100
0000
0010
1000
0001
0000
0010
0000
,  // measure 6
0100
0000
1000
0001
0100
0000
0010
0000
1000
0000
0001
1000
0100
0000
0010
0000
,  // measure 7
0001
0000
0100
0010
1000
0000
0001
0000
0010
0000
0100
1000
0001
0000
0100
0000
,  // measure 8
0010
0000
1000
0001
0010
0000
0100
0000
1000
0000
0001
0100
0010
0000
1000
0000
,  // measure 9
0001
0000
0010
0001
1000
0000
0100
0000
0010
0000
0001
1000
0010
0000
0100
0000
,  // measure 10
0001
0000
1000
0001
0010
0000
0100
0000
1000
0000
0001
0100
0010
0000
1000
0000
,  // measure 11
2002
0000
0000
0000
0000
0000
0000
0000
0000
0000
0000
0000
0000
0000
0000
3003
,  // measure 12
0220
0000
0330
0000
0001
0000
1000
0000
0100
0000
0010
0000
0001
0000
0000
0001
,  // measure 13
0000
0000
0001
0000
0000
1000
0000
0000
1000
0000
0000
2000
0000
0000
3010
0000
,  // measure 14
2020
0000
3030
0000
1000
0000
0001
0000
0010
0000
0001
0000
1000
0000
0000
1000
,  // measure 15
0000
0000
1000
0000
0000
0100
0000
0000
0100
0000
0000
0200
0000
0000
0310
0000
,  // measure 16
0022
0033
0001
1000
0010
1000
0002
0000
,  // measure 17
0103
0000
0000
0000
0010
0000
0000
0000
1000
0000
0000
0000
0002
0000
0000
0003
,  // measure 18
2002
3003
1000
0100
0010
0100
2000
0000
,  // measure 19
3001
0000
0000
0000
0000
0000
0100
0000
0000
0000
0000
0000
0010
0000
0000
1000
0000
0000
0100
0000
0000
0010
0001
1000
,  // measure 20
0020
0000
0030
1000
0001
0010
0100
1000
0001
1000
0010
0100
0001
1000
0100
1000
,  // measure 21
0001
0100
0010
1000
0001
0010
0100
1000
0010
0100
0010
1000
0100
0010
0001
1000
,  // measure 22
0001
0100
0010
1000
0001
0010
0001
1000
0100
0010
0100
1000
0010
0100
0001
1000
,  // measure 23
0100
0010
0001
1000
0010
0100
0001
1000
0100
0000
0100
0000
0100
0000
1000
0000
,  // measure 24
0001
0001
1000
1000
0100
0100
0010
0010
,  // measure 25
0001
0000
0000
1000
0000
0000
0001
0000
0000
0100
0000
0000
0010
0000
0000
1000
0000
0000
0001
0000
0000
0010
0000
0000
0001
0000
0000
1000
0000
0000
0010
0000
0000
0100
0000
0000
0001
0000
1000
0000
0100
0000
1000
0000
0001
0000
0100
0000
,  // measure 26
0020
0000
1030
0100
0010
0001
0200
0000
,  // measure 27
0301
0000
0000
1000
0000
0000
0001
0000
0000
0000
0000
0000
0010
0000
0000
0000
0000
0000
0100
0000
0000
0000
0000
0000
1000
0000
0001
0000
0100
0000
0000
0000
0000
0010
0000
0000
1000
0000
0000
0000
0000
0000
0001
0000
0000
0000
0000
0000
,  // measure 28
2001
0000
3000
0010
1000
0001
1000
0100
00M0
0100
0001
0010
0M00
0010
1000
0010
,  // measure 29
0M00
0010
0001
0100
M000
0100
1000
0100
0020
0000
0031
0000
0400
0000
0000
0300
,  // measure 30
0120
0000
0030
0100
0001
1000
0001
0010
0M00
0010
1000
0100
00M0
0100
0001
0100
,  // measure 31
0010
0000
0000
000M
0000
0000
0010
0000
0000
0001
0000
0000
1000
0000
0000
0100
0000
0000
1000
0000
0000
0001
0000
0000
0100
0000
0000
01M0
0000
0000
0100
0000
0000
0000
0000
0000
0001
0000
0000
0000
0000
0000
1000
0000
0001
0000
1000
0000
,  // measure 32
0200
0000
0300
0010
0001
1000
0001
0100
00M0
0100
1000
0010
0M00
0010
0001
0010
,  // measure 33
0M00
0010
1000
0100
00M0
0100
0001
0100
0010
0000
1000
0000
0400
0000
0000
0300
,  // measure 34
0220
0000
0330
0010
0001
0000
1000
0000
0010
0000
0100
0000
0001
0000
1000
0000
,  // measure 35
2100
0000
0000
0000
3001
0000
0100
0000
0010
0000
1000
0001
1000
0000
0001
0000
,  // measure 36
1002
0000
0003
1000
0001
0010
0100
0001
00M0
0001
1000
0010
0000
1000
0010
0001
,  // measure 37
00M0
0001
1000
0100
0000
0010
0001
1000
0010
0000
0100
0000
0002
0000
0000
0003
,  // measure 38
0012
0000
0003
0001
1000
0010
0100
1000
0M00
1000
0001
0100
0000
0001
0010
0100
,  // measure 39
0001
0000
0000
00M0
0000
0000
0001
0000
0000
1000
0000
0000
0000
0000
0000
0010
0000
0000
1000
0000
0000
0001
0000
0000
0100
0000
0000
01M0
0000
0000
0100
0000
0000
0000
0000
0000
0001
0000
0000
0000
0000
0000
1000
0000
0001
0000
1000
0000
,  // measure 40
0200
0000
0300
1000
0001
0010
0100
0001
00M0
0001
1000
0010
0000
1000
0010
0001
,  // measure 41
00M0
0001
1000
0100
0000
0010
0001
1000
0010
0000
0100
0000
0004
0000
0000
0003
,  // measure 42
1002
0003
1000
0100
0010
0001
0200
0000
,  // measure 43
0301
0000
0000
1000
0000
0000
0100
0000
0000
0000
0000
0000
0010
0000
0000
0000
0000
0000
0001
0000
0000
0000
0000
0000
1000
0000
0001
0000
1000
0000
0000
0000
0000
0001
0000
0000
0100
0000
0000
0000
0000
0000
0010
0000
0000
0000
0000
0000
,  // measure 44
1111
0000
0000
1000
0001
0000
0010
0000
0100
0000
0010
0001
1000
0010
0000
0000
,  // measure 45
0100
0000
0000
0001
0000
0000
1000
0100
1000
0000
0001
0100
0010
1000
0001
0000
,  // measure 46
0011
0000
0000
0001
1000
0000
0010
0000
0100
0000
0001
1000
0000
0001
0010
0000
,  // measure 47
0100
0000
0000
0000
1000
0000
0001
0000
0100
0000
0000
0000
0010
0000
1000
0001
1000
0000
0000
0000
0100
0000
0010
0000
0000
0000
0100
0000
1000
0000
0000
0000
,  // measure 48
1001
0000
0000
0001
0100
0000
0010
0000
1000
0000
0001
0010
0000
0001
0000
0000
,  // measure 49
1000
0000
0000
0000
0000
0000
0000
0000
0000
0010
0000
0000
0000
0000
0000
0000
0000
0000
0100
0000
0000
0001
0000
0000
1000
0000
0000
0000
0000
0000
0001
0000
0000
0100
0000
0000
0010
0000
1000
0000
0001
0000
0010
0000
0000
0000
0000
0000
,  // measure 50
0011
0000
0000
0001
1000
0000
0010
0000
0100
0000
0001
1000
0000
0001
0010
0000
,  // measure 51
0100
0000
0000
0000
0000
0000
0010
0000
0000
0001
0000
0000
1000
0000
0000
0000
0000
0000
0001
0000
0100
0000
0001
0000
1000
0000
0000
0000
0000
0000
0100
0000
0000
0010
0000
0000
0000
0000
0000
0100
0000
0000
1000
0000
0000
0000
0000
0000
,  // measure 52
1100
0000
0000
1000
0001
0000
0100
0010
1000
0000
0001
0000
0010
0001
0000
1000
,  // measure 53
0010
0000
0100
0001
1000
0000
0100
0000
1000
0000
0001
0000
0100
0010
0000
1000
,  // measure 54
0001
0010
0100
0000
1000
0000
0001
0000
0100
0000
0010
0000
1000
0001
0000
0000
,  // measure 55
0010
0000
0000
0100
1000
0000
0001
0000
0100
0000
0010
0000
1000
0001
0000
0000
,  // measure 56
0011
0000
0000
0010
0001
0000
1000
0001
0100
0000
0010
0000
1000
0001
0000
0000
,  // measure 57
0010
0000
0000
0100
1000
0000
0010
0000
0100
0000
0001
0000
1000
0100
0010
0001
,  // measure 58
1000
0010
0100
0001
1000
0000
0100
0000
0010
0000
0100
0000
1000
0001
0100
0000
,  // measure 59
0010
0000
0000
1000
0001
0000
0010
0000
0100
0000
1000
0000
0010
1000
0001
0010
,  // measure 60
0101
1000
0001
1000
0010
0100
0010
1000
0001
1000
0100
0010
0001
1000
0010
0100
,  // measure 61
0001
0010
0100
0010
0001
1000
0001
0100
0010
1000
0001
1000
0100
0010
0001
1000
,  // measure 62
0010
0100
0010
1000
0001
0010
0100
1000
0001
0100
0010
1000
0001
1000
0100
0010
,  // measure 63
0001
0100
0010
0100
0001
1000
0100
0010
0001
1000
0010
1000
0001
0010
0100
1000
,  // measure 64
0001
0100
0001
1000
0100
0010
0001
1000
0010
0100
0010
1000
0100
0010
0001
1000
,  // measure 65
0001
0100
0010
1000
0100
0010
0100
1000
0010
0100
0001
1000
0100
0010
0001
1000
,  // measure 66
0020
0000
0130
0100
0001
0001
1000
1000
,  // measure 67
0100
0000
0100
0000
0010
0000
0010
0000
0001
0000
1100
0000
0011
0000
1000
0001
,  // measure 68
2100
0000
0000
0000
3001
0100
0000
0000
0001
1000
0100
0100
0000
0001
0100
0100
,  // measure 69
1000
0100
0100
0000
0011
0100
0100
0100
0001
0100
0100
0100
0012
0000
1003
0000
,  // measure 70
1002
0000
0000
0000
1003
0100
0000
0000
1000
0001
0100
0100
0000
1000
0100
0100
,  // measure 71
0001
0100
0100
0000
1010
0100
0100
0100
1000
0010
0000
0100
0001
0000
1000
0000
,  // measure 72
2001
0000
0000
0000
3001
0100
0000
0000
0001
1000
0100
0100
0000
0001
0100
0100
,  // measure 73
1000
0100
0100
0000
0011
0100
0100
0100
0001
0100
0100
0100
0012
0000
1003
0000
,  // measure 74
2001
0000
3100
0100
0001
1000
0002
0000
0013
0010
1000
0010
0010
0001
1000
0000
,  // measure 75
1002
0000
0103
0100
1000
0001
2000
0000
3020
0000
0130
0000
0011
1100
0011
1100
,  // measure 76
0012
0000
0000
0000
1003
0100
0000
0000
1000
0001
0100
0100
0000
1000
0100
0100
,  // measure 77
0001
0100
0100
0000
1010
0100
0100
0100
1000
0100
0100
0100
2010
0000
3001
0000
,  // measure 78
2001
0000
0000
0000
3001
0100
0000
0000
0001
1000
0100
0100
0000
0001
0010
0010
,  // measure 79
1000
0010
0010
0000
0101
0010
0010
0010
0100
1000
0001
1000
0010
0100
0001
0000
,  // measure 80
1002
0000
0000
0000
0103
0100
0000
0000
1000
0001
0100
0100
0000
1000
0100
0100
,  // measure 81
0001
0100
0100
0000
1010
0100
0100
0100
1000
0100
0100
0100
2010
0000
3001
0000
,  // measure 82
1002
0000
0103
0100
1000
0001
2000
0000
3010
0010
0001
0010
0010
1000
0100
0000
,  // measure 83
1001
0000
0000
0000
0000
0000
0000
0000
1000
0000
0000
0000
0010
0000
0100
0001
0100
0000
0010
0000
0000
0000
1000
0000
0001
0000
0000
0000
0010
0000
0000
0000
,  // measure 84
0120
0000
0000
0130
1000
0000
0001
0000
0001
0000
0100
0010
1000
0000
0001
0010
,  // measure 85
000M
0010
1000
0000
0001
0000
0010
0000
0100
0000
1000
0001
0100
00M0
0100
0000
,  // measure 86
2000
3000
1004
0000
0010
0000
1000
0000
,  // measure 87
0100
0000
0000
0000
2003
0000
0100
0000
3001
0000
0100
0010
0100
0001
0010
0100
,  // measure 88
2010
0000
0000
3001
0100
0000
0010
0000
0010
0000
1000
0000
0001
0000
1000
0100
,  // measure 89
M000
0100
0001
0000
1000
0000
0010
0000
0100
0000
0001
1000
0100
M000
0100
0000
,  // measure 90
0001
0000
1000
0001
0100
0100
1000
0010
0100
0000
0001
1000
0100
0000
0010
0001
,  // measure 91
0000
1000
0010
0000
0100
0010
0000
1000
0101
0000
1000
0000
0011
0100
0010
0100
,  // measure 92
0002
0000
0000
2003
0000
0000
0100
0000
3002
0100
0000
0000
2003
0000
0000
3001
,  // measure 93
0200
0000
0010
0000
0000
0302
0000
0000
2003
0000
0000
0100
0000
0000
3001
0000
,  // measure 94
0201
0000
0000
0010
0000
0000
0301
0000
1000
0200
0000
0000
0010
0000
0000
0000
,  // measure 95
1000
0000
0000
1000
0000
0000
1300
0000
0002
0000
0000
0000
2003
0000
0010
0000
,  // measure 96
3002
0000
0000
1000
0000
0000
1000
0000
0100
0000
0000
0000
0203
0000
0000
0300
,  // measure 97
0002
0000
0000
1000
0000
0000
1000
0000
0100
0000
0000
0000
0203
0000
0000
0300
,  // measure 98
0020
0000
0000
1000
0000
0000
0130
0000
0002
0000
0000
0000
0023
0000
0000
0000
,  // measure 99
0100
0000
0000
0100
0000
0000
0130
0000
2000
0000
0000
0000
3002
0000
0010
0000
,  // measure 100
2003
0000
0000
0001
0000
0000
3001
0000
0200
0000
0000
0000
0320
0000
0000
0000
,  // measure 101
2030
0000
0000
0001
0000
0000
3001
0000
0020
0000
0000
0000
0230
0000
0000
0300
,  // measure 102
2100
0000
0000
0001
0000
0000
3100
0000
0010
0000
0001
0000
2000
0000
0000
3000
,  // measure 103
0020
0000
0000
1000
0000
0000
1030
0000
0002
0000
0000
0000
1003
0000
0100
0000
,  // measure 104
0020
0000
0000
0001
0000
0000
0031
0000
2000
0000
0000
0000
3002
0000
0000
0000
,  // measure 105
0203
0000
0000
0010
0000
0000
0310
0000
2000
0000
0000
0000
3001
0000
1000
0000
,  // measure 106
2100
0000
0000
3002
0000
0000
0203
0000
0000
0320
0000
0000
2030
0000
0000
0000
,  // measure 107
0001
0000
0000
0001
0000
0000
3002
0000
0203
0000
0000
0000
0320
0000
1000
0000
,  // measure 108
1030
0002
0100
0000
1000
0000
0100
0000
,  // measure 109
2003
0100
0001
3200
,  // measure 110
0310
0100
1000
0001
0100
0000
0010
0100
0010
1000
0001
0010
0100
1000
0001
1000
,  // measure 111
0010
0100
0001
1000
0100
0000
1000
0001
0100
0010
1000
0001
1000
0100
0010
0001
,  // measure 112
1000
0010
0100
0010
1000
0000
0001
1000
0100
0010
0100
1000
0001
0100
0010
1000
,  // measure 113
0001
0010
0100
1000
0001
0000
0100
0010
0100
0001
1000
0100
0010
0001
1000
0010
,  // measure 114
0100
0001
0100
0001
1000
0100
1000
0100
,  // measure 115
0010
0001
0010
0001
1000
0010
1000
0010
,  // measure 116
0210
0000
0301
1000
0001
1000
0400
0000
,  // measure 117
0340
0000
0000
0000
0034
0000
0000
0000
1003
0000
0010
0000
1000
0001
0010
0100
,  // measure 118
2010
0000
0000
0000
3001
0100
0000
0000
0001
1000
0100
0100
0000
0001
0100
0100
,  // measure 119
1000
0100
0100
0000
0001
0100
0100
0100
0010
0100
0100
0100
0011
1000
0001
0000
,  // measure 120
1002
0000
0000
0000
1003
0010
0000
0000
1000
0001
0010
0010
0000
1000
0010
0010
,  // measure 121
0001
0010
0010
0000
1000
0010
0010
0010
1000
0100
0000
0010
0001
0000
1000
0000
,  // measure 122
2001
0000
0000
0000
3001
0100
0000
0000
0001
1000
0100
0100
0000
0001
0100
0100
,  // measure 123
1000
0100
0010
0000
0001
0100
0100
0100
0010
0100
0100
0100
0011
1000
0001
0000
,  // measure 124
2001
0000
3100
0100
0001
1000
0002
0000
0013
0010
1000
0010
0010
0001
1000
0000
,  // measure 125
1002
0000
0103
0100
1000
0001
2000
0000
3020
0000
0130
0000
0011
1100
0011
1100
,  // measure 126
0012
0000
0000
0000
1003
0100
0000
0000
1000
0001
0010
0010
0000
1000
0010
0010
,  // measure 127
0001
0100
0100
0000
1000
0010
0010
0010
1000
0100
0100
0100
2010
0000
3001
0000
,  // measure 128
2001
0000
0000
0000
3001
0100
0000
0000
0001
1000
0100
0100
0000
0001
0100
0100
,  // measure 129
1000
0100
0100
0000
0001
0010
0010
0010
0100
1000
0001
1000
0010
0100
0001
0000
,  // measure 130
1002
0000
0000
0000
1003
0100
0000
0000
1000
0001
0010
0010
0000
1000
0010
0010
,  // measure 131
0001
0100
0100
0000
1000
0100
0100
0100
0010
0100
0100
0100
1010
0001
1000
0000
,  // measure 132
1002
0000
0103
0100
1000
0001
2000
0000
3010
0010
0001
0010
0010
1000
0100
0000
,  // measure 133
1200
0000
0000
0000
0000
0000
0000
0000
0310
0000
0000
0000
0001
0000
1000
0001
1000
0000
0010
0000
0000
0000
0100
0000
0001
0000
0000
0000
1000
0000
0000
0000
,  // measure 134
10M1
0001
0100
0010
1000
0001
0010
0100
,  // measure 135
1000
0010
0100
0010
1000
0100
0010
0001
,  // measure 136
0100
0010
1000
0001
0010
0100
1000
0010
,  // measure 137
0100
0000
0010
0000
1000
0000
0100
0000
0010
0000
0000
0001
1000
0000
0001
0000
,  // measure 138
0200
0000
0300
0100
0020
0000
0230
0000
,  // measure 139
0000
0000
0300
0000
0200
0000
0000
0000
0301
0000
1000
0000
0100
0000
0010
0001
,  // measure 140
2000
0000
3000
1000
0002
0000
2003
0000
,  // measure 141
0000
0000
3000
0000
2000
0000
0000
0000
3002
0000
0000
0000
1003
0000
0001
1000
,  // measure 142
0400
0000
0000
0000
,  // measure 143
0000
0000
0000
0000
,  // measure 144
0320
0032
0000
0000
,  // measure 145
0000
0000
0000
0000
,  // measure 146
0403
0000
0000
0000
,  // measure 147
0000
0000
0000
0000
,  // measure 148
0320
2030
0000
0000
,  // measure 149
0000
0000
0000
0000
0000
3001
1000
0100
,  // measure 150
0110
0000
0000
0010
0001
0000
1000
0000
0010
0000
0000
0010
0100
0000
0001
0000
,  // measure 151
0101
0000
0000
0001
1000
0000
0100
0000
0010
0000
0000
0010
0001
0000
1000
0000
,  // measure 152
1010
0000
0000
0010
0100
0000
0001
0000
1000
0000
0000
1000
0100
0000
0010
0000
,  // measure 153
0011
0000
0000
0001
1000
0000
0010
0000
0100
0000
0000
0001
1000
0000
0100
0000
,  // measure 154
0010
0010
0001
0001
1000
1000
0010
0010
,  // measure 155
1000
0001
0100
0010
1000
0001
0010
0100
1000
0010
0100
0001
1000
0100
0010
0001
,  // measure 156
0200
0000
0310
1000
0010
1000
0002
0000
,  // measure 157
1003
0100
1000
0100
0020
0000
0031
0100
,  // measure 158
0220
0000
0000
0330
0001
1000
0100
0100
0001
0100
0100
0100
0100
0100
0100
0100
,  // measure 159
0010
0100
0100
0100
0100
0100
0100
0100
0001
0100
0100
0100
0020
0000
0000
0030
,  // measure 160
0220
0000
0000
0330
1000
0001
0100
0100
1000
0100
0100
0100
0100
0100
0100
0100
,  // measure 161
0020
0000
0031
1000
0100
0100
0100
0100
0010
0000
1000
0000
0001
0000
0010
0000
,  // measure 162
0220
0000
0000
0330
1000
0001
0100
0100
1000
0100
0100
0100
0100
0100
0100
0100
,  // measure 163
0010
0100
0100
0100
0100
0100
0100
0100
1000
0100
0100
0100
0020
0000
0000
0030
,  // measure 164
0220
0000
0000
0330
0001
1000
0100
0100
0001
0100
0001
0100
0100
0100
0100
0100
,  // measure 165
0020
0000
0000
1030
0001
0000
0010
0000
0100
0000
1000
0000
2002
0000
0000
3003
,  // measure 166
0220
0000
0000
0330
1000
0001
0010
0010
1000
0010
0010
0010
0010
0010
0010
0010
,  // measure 167
0100
0010
0010
0010
0010
0010
0010
0010
1000
0010
0010
0010
0200
0000
0000
0300
,  // measure 168
0220
0000
0000
0330
0001
1000
0010
0010
0001
0010
0010
0010
0010
0010
0010
0010
,  // measure 169
0200
0000
1300
0001
0100
0100
0100
0100
1000
0000
0001
0000
0100
0000
0010
0000
,  // measure 170
0220
0000
0000
0330
0001
1000
0010
0010
0001
0010
0010
0010
0010
0010
0010
0010
,  // measure 171
0100
0010
0010
0010
0010
0010
0010
0010
0001
0010
0010
0010
0200
0000
0000
0300
,  // measure 172
0220
0000
0000
0330
0001
0000
1000
0000
0100
0000
0010
0000
0002
0000
0000
0000
,  // measure 173
1003
0000
0010
0000
0100
0000
0001
0000
2000
0000
0000
0000
3200
0000
0000
0300
,  // measure 174
0110
0100
1000
0001
0100
0010
0100
0001
,  // measure 175
0010
0100
0010
0001
1000
0010
0100
0010
,  // measure 176
1000
0001
0010
0100
1000
0001
0100
0010
,  // measure 177
1000
0100
0010
0001
0100
0010
1000
0001
,  // measure 178
0010
0100
0010
0001
1000
0010
0100
0010
,  // measure 179
1000
0100
0010
0100
1000
0010
0100
0010
,  // measure 180
1000
0001
0010
0100
1000
0001
0100
0010
,  // measure 181
1000
0000
0001
0000
1000
0100
0010
0001
2000
0000
0000
0000
3020
0000
0000
0030
,  // measure 182
0110
0000
0000
0010
1000
0000
0001
0000
0010
0000
0000
0010
0001
0000
1000
0000
,  // measure 183
1010
0000
0000
1000
0001
0000
0010
0000
0100
0000
0000
0100
1000
0000
0001
0000
,  // measure 184
0101
0000
0000
0100
0010
0000
1000
0000
0001
0000
0000
0001
0010
0000
0100
0000
,  // measure 185
1100
0000
0000
1000
0001
0000
0100
0000
0010
0000
0000
0010
1000
0000
0001
0000
,  // measure 186
0010
0010
0100
0100
1000
1000
0001
0001
,  // measure 187
1000
0001
0100
0010
1000
0001
0010
0100
1000
0010
0100
0001
1000
0100
0010
0001
,  // measure 188
0200
0000
0310
1000
0010
1000
0002
0000
,  // measure 189
1003
0000
0100
0000
1000
0000
0100
0000
0020
0000
0000
0000
0032
0000
0000
0003
,  // measure 190
2002
0000
0000
3003
0001
0100
0100
1000
0000
0100
0100
0001
0000
0100
0100
1000
,  // measure 191
0000
0100
0100
0001
0000
0100
0100
1000
0000
0100
0100
0001
2000
0000
0000
3000
,  // measure 192
2002
0000
0000
3003
1000
0100
0100
0001
0000
0100
0100
1000
0000
0100
0100
0001
,  // measure 193
0020
0000
0130
0100
0000
0100
0100
1000
0001
0000
0100
0000
0010
0000
1000
0000
,  // measure 194
2002
0000
0000
3003
0001
1000
0100
0100
0001
0100
0100
0100
0010
0100
0100
0100
,  // measure 195
0001
0100
0100
0100
0010
0100
0100
0100
0001
0100
0100
0100
0020
0000
0000
0030
,  // measure 196
0220
0000
0000
0330
1000
0100
0100
0100
0010
0100
0100
0001
1000
0100
0100
0100
,  // measure 197
0020
0000
0000
0031
1000
0000
0001
0000
0100
0000
0010
0000
2000
0000
0000
3000
,  // measure 198
2002
0000
3003
0001
0100
0010
1000
0001
0010
0100
0100
0100
1000
0100
0100
0100
,  // measure 199
0010
0100
0100
0100
1000
0100
0100
0100
0010
0001
1000
0010
0100
0000
0100
0000
,  // measure 200
0220
0000
0330
1000
0100
0010
0001
1000
0010
0100
0100
0100
0001
0100
0100
0100
,  // measure 201
0020
0000
1030
0001
0010
0100
0100
0100
1000
0000
0001
0000
0100
0000
0010
0000
,  // measure 202
0220
0000
0330
0001
1000
0100
0010
0001
1000
0100
0100
0100
0010
0100
0100
0100
,  // measure 203
1000
0100
0100
0100
0010
0100
0100
0100
1000
0100
0100
0100
0010
0100
0100
0100
,  // measure 204
1000
0001
0100
0010
1000
0001
0010
0100
,  // measure 205
1000
0010
0100
0001
1000
0100
0010
0001
,  // measure 206
1000
0010
1000
0001
0010
0100
0010
0001
,  // measure 207
0100
0010
0100
0001
1000
0010
1000
0001
,  // measure 208
1000
0100
1000
0001
0100
0010
0100
0001
,  // measure 209
0010
0100
0010
0001
1000
0010
0100
0001
,  // measure 210
1000
0100
1000
0001
0100
0010
0100
0001
,  // measure 211
0010
0100
0010
0001
1000
0010
1000
0001
,  // measure 212
1000
0100
1000
0001
0100
0010
0100
0001
,  // measure 213
0010
0100
0010
0001
0100
0010
1100
0011
,  // measure 214
1002
1000
0100
2003
,  // measure 215
3200
0010
1000
0320
,  // measure 216
0032
1000
0100
2003
,  // measure 217
3020
1000
0100
2030
,  // measure 218
3002
1000
0010
2003
,  // measure 219
3200
0010
1000
0320
,  // measure 220
0032
1000
0100
2003
,  // measure 221
3020
0000
1000
0000
0100
0000
1030
0001
,  // measure 222
1001
0000
0001
1000
0100
0010
0100
00M0
0100
0001
0100
0010
0100
0000
0001
1000
,  // measure 223
0100
0000
1000
0001
0010
0100
0010
0M00
0010
1000
0010
0100
0010
0000
1000
0001
,  // measure 224
0010
0000
0001
1000
0100
0010
0100
00M0
0100
0001
0100
0010
0100
0000
0001
1000
,  // measure 225
0100
0000
1000
0001
0010
0100
0010
0M00
0010
1000
0010
0100
0010
0000
1000
0001
,  // measure 226
0010
0100
0010
0100
1000
0001
1000
0001
,  // measure 227
0100
0000
0000
0010
0000
0000
0100
0000
0000
0001
0000
0000
1000
0000
0000
0100
0000
0000
0010
0000
0000
0001
0000
0000
1000
0000
0000
0010
0000
0000
0100
0000
0000
0010
0000
0000
1000
0000
0001
0000
1000
0000
0100
0000
0010
0000
0001
0000
,  // measure 228
0200
0000
0310
1000
0010
1000
0002
0000
,  // measure 229
1013
0001
1100
0001
1010
0000
0101
0000
,  // measure 230
2002
0000
0000
0000
0000
0000
0000
0000
0000
3003
0000
0000
1000
0000
0000
0000
0001
0000
0000
0000
0000
1000
0000
0000
0401
0000
0000
0000
0000
0000
0000
0000
0000
0000
0000
0000
0310
0000
0000
0000
0000
0000
0000
0000
0001
0000
0000
0000
,  // measure 231
1400
0000
0000
0310
0000
1000
0401
0000
0000
0310
0000
0001
,  // measure 232
1040
0000
0000
0130
0000
1000
0041
0000
0000
0130
0000
0001
,  // measure 233
1040
0000
0000
0000
0000
0000
0130
0000
0000
0000
1000
0000
0001
1000
0001
0100
0010
1000
0100
0010
0001
1000
0010
0100
,  // measure 234
0002
0000
0000
0000
0000
0000
0000
0000
0000
0000
0000
0000
1003
0000
0000
0000
0001
0000
0000
0000
0000
1000
0000
0000
0401
0000
0000
0000
0000
0000
0000
0000
0000
0000
0000
0000
0310
0000
0000
0000
0000
0000
0000
0000
0001
0000
0000
0000
,  // measure 235
1400
0000
0000
0310
0000
1000
0401
0000
0000
0310
0000
0001
,  // measure 236
1040
0000
0000
0130
0000
1000
0041
0000
0000
0130
0000
0001
,  // measure 237
1002
0000
0000
0000
1003
0000
0100
0000
1000
0000
0100
0000
0020
0000
0000
0030
,  // measure 238
2001
0000
0000
0000
0000
0000
3001
0000
1000
0000
0000
0001
1000
0001
0010
0100
1000
0001
1000
0010
0100
0001
1000
0001
,  // measure 239
0020
0000
0130
0000
0000
0000
1000
0000
0000
0001
0000
0000
1000
0001
1000
0010
0100
0001
1000
0100
0010
0001
1000
0010
,  // measure 240
0200
0301
0000
1000
0000
0001
1400
0000
0000
0310
0000
1000
,  // measure 241
0401
0000
0000
0000
0000
0000
0000
0000
0000
0000
0000
0000
0310
0000
0000
0000
0000
0000
0000
0000
0001
0000
0000
0000
1100
0000
0000
0000
0000
0000
0000
0000
0000
0011
0000
0000
0000
0000
0000
0000
1100
0000
0000
0000
0011
0000
0000
0000
,  // measure 242
2100
0000
0000
0000
0000
0000
3001
0000
1000
0000
0000
0001
0100
00M0
0100
0000
1000
0000
0100
00M0
0100
0000
0001
0000
,  // measure 243
0010
0M00
0010
0000
1000
0000
0010
0M00
0010
0000
0001
0000
1000
0100
0010
0001
1000
0001
0100
0010
1000
0001
0010
0100
,  // measure 244
2000
0000
0000
0000
3001
0000
0000
0000
0000
0000
0000
0000
0100
0000
0000
0000
0000
0000
0000
0000
0010
0000
0000
0000
0000
0000
1000
0000
0000
0000
0001
0000
0000
0000
0000
0000
0010
0000
0000
0000
0000
0000
0000
0100
0000
0000
0000
0000
,  // measure 245
1000
0000
0001
0000
1000
0000
0001
0000
0000
1000
0000
0000
0010
0000
0000
0100
0000
0000
0010
0000
0000
1000
0000
0000
0001
0000
0000
0000
0000
0000
1000
0000
0000
0100
0000
0000
0100
0000
0000
0001
0000
0000
0000
0000
0000
0001
0000
0000
,  // measure 246
1010
0000
0001
1000
0100
0010
0100
00M0
0100
0001
0100
0010
0100
0000
0001
1000
,  // measure 247
0100
0000
1000
0001
0010
0100
0010
0M00
0010
1000
0010
0100
0010
0000
1000
0001
,  // measure 248
0010
0000
0001
1000
0100
0010
0100
00M0
0100
0001
0100
0010
0100
0000
0001
1000
,  // measure 249
0100
0000
1000
0001
0010
0100
0010
0M00
0010
1000
0010
0100
0010
0000
1000
0001
,  // measure 250
0100
0010
0100
0010
1000
0001
1000
0001
,  // measure 251
0010
0000
0000
0100
0000
0000
0010
0000
0000
0001
0000
0000
1000
0000
0000
0010
0000
0000
0100
0000
0000
0001
0000
0000
1000
0000
0000
0100
0000
0000
0010
0000
0000
0100
0000
0000
1000
0000
0001
0000
1000
0000
0010
0000
0100
0000
0001
0000
,  // measure 252
0020
0000
0130
1000
0100
1000
0002
0000
,  // measure 253
1003
0000
0010
0000
1000
0000
0010
0000
0200
0000
0000
0000
0301
1000
0100
0010
,  // measure 254
0102
0000
0000
0000
0000
0000
0000
0000
0000
0000
0000
0000
0000
0000
0000
0000
0000
0000
0003
0000
0000
0000
0000
0000
1000
0000
0000
0000
0001
0000
0000
0000
0000
0001
0000
0000
0400
0000
0000
0000
0000
0000
0000
0000
0000
0000
0000
0000
,  // measure 255
0010
0000
0001
0000
0010
0000
0001
0300
,  // measure 256
0140
0000
0000
0000
0000
0000
0000
0000
0000
0000
0000
0000
1000
0000
0000
0000
0000
0000
0000
0000
0000
0000
0000
0000
0100
0000
0000
0000
0000
0000
0000
0000
0000
0000
0000
0000
1030
0000
0000
0000
0001
0000
0000
0000
0000
0001
0000
0000
,  // measure 257
0040
0000
0000
0000
0101
0000
0000
0000
1100
0000
0000
0000
0230
0000
0000
0300
,  // measure 258
1002
0000
0000
0000
0000
0000
0000
0000
0000
0003
0000
0000
0001
0000
0000
0000
1000
0000
0000
0000
0100
0000
0000
0000
0010
0000
0000
0000
0000
0000
0000
0000
10M0
0000
0000
0000
0000
0000
0000
0000
0010
0000
0000
0000
0000
0000
0000
0000
,  // measure 259
0001
0000
001M
0000
1000
0000
0100
0000
0M01
0000
0100
0010
,  // measure 260
2000
0000
0000
0000
,  // measure 261
0000
0000
0000
0000
0000
0000
0000
0000
3002
0000
0000
0000
0000
0000
0000
0003
,  // measure 262
1001
0000
0000
0001
0100
0000
0010
0000
1000
0000
0000
0001
0010
0000
0100
0000
,  // measure 263
1000
0000
0000
0001
1000
0000
0010
0000
0100
0000
0000
0001
1000
0000
0100
0000
,  // measure 264
0010
0000
0000
0100
1000
0000
0001
0000
0100
0000
0000
0010
1000
0000
0001
0000
,  // measure 265
0010
0000
0000
0100
1000
0000
0001
0000
0100
0000
0000
0010
0100
0000
0001
0000
,  // measure 266
1000
0100
0010
0001
1000
0010
0100
0010
,  // measure 267
1000
0001
0010
0100
1000
0001
0100
0010
1000
0100
0010
0001
1000
0010
0100
0001
,  // measure 268
2000
0000
3010
0100
0001
1000
0200
0000
,  // measure 269
0310
0001
0010
0001
2000
0000
3010
0100
,  // measure 270
0102
0000
0000
0000
0013
0001
1000
0010
0000
0100
0001
0100
0000
0001
1000
0100
,  // measure 271
0000
0010
0001
0010
0000
0100
1000
0001
0000
0100
0010
1000
0000
0001
0010
0100
,  // measure 272
2010
0000
0000
0000
3001
1000
0010
0100
0000
0001
1000
0100
0000
0010
0001
1000
,  // measure 273
0000
0010
0100
0001
0000
1000
0100
0010
0002
0000
0100
0000
1000
0000
0013
0000
,  // measure 274
0102
0000
0000
0000
1003
0010
0100
0001
0000
1000
0100
1000
0000
0001
0100
0001
,  // measure 275
0000
1000
0100
0010
0000
0001
0100
0010
0000
1000
0001
0010
0000
0001
1000
0010
,  // measure 276
2100
0000
0000
0000
3001
0010
0001
1000
0000
0010
0100
0001
0000
0010
0100
1000
,  // measure 277
0001
0000
0000
0000
0000
0000
0000
0000
0000
0000
0000
0000
0000
0000
0000
0000
0000
0000
0000
0000
0000
0000
0000
0000
0100
0000
0000
0000
0000
0000
0000
0000
0000
0000
0000
0000
0000
0000
0000
0000
0000
0000
0000
0000
0000
0000
0000
0000
0001
0000
0000
0000
0000
0000
0000
0000
0000
0000
0000
0000
0000
0000
0000
0000
0000
0000
0000
0000
0000
0000
0000
0000
0100
0000
0000
0000
0000
0000
0000
0000
0000
0000
0000
0000
0000
0000
0000
0000
0000
0000
0000
0000
0000
0000
0000
0000
0010
0000
0000
0000
0000
0000
0000
0000
0000
0000
1000
0000
0000
0000
0000
0000
0000
0000
0000
0001
0000
0000
0000
0000
0000
0000
0000
0000
0000
0010
0000
0000
0000
0000
0000
0000
0000
0000
0001
0000
0000
0000
0000
0000
0000
0000
0000
0000
1000
0000
0000
0000
0000
0000
0000
0000
0000
0000
0010
0000
0000
0000
0000
0000
0000
0000
0000
0100
0000
0000
0000
0000
0000
0000
0000
0000
0000
0001
0000
0000
0000
0000
0000
0000
0000
0000
1000
0000
0000
0000
0000
0000
0000
0000
0000
0000
,  // measure 278
0200
0000
0000
0000
0310
0001
1000
0010
0100
0010
1000
0001
0010
0100
1000
0001
,  // measure 279
0100
0010
0100
0001
1000
0100
1000
0001
0010
0100
1000
0001
0100
0010
1000
0001
,  // measure 280
2010
0000
0000
0000
3001
0100
0001
1000
0100
0010
0001
1000
0010
0100
0010
1000
,  // measure 281
0001
0010
0001
1000
0010
0100
0001
1000
0002
0000
0100
0000
1000
0000
0013
0000
,  // measure 282
0102
0000
0000
0000
1003
0001
0010
0100
1000
0001
0100
0010
0100
0001
1000
0100
,  // measure 283
1000
0001
0100
0010
1000
0001
0010
0100
1000
0001
0010
0001
1000
0010
0100
0010
,  // measure 284
4000
0000
3001
0010
0001
0100
0020
0000
,  // measure 285
1030
0001
1000
0100
0020
0000
0032
0000
,  // measure 286
2103
0000
0000
0000
3001
1000
0001
0100
00M0
0100
1000
0100
00M0
0100
0001
0010
,  // measure 287
0M00
0010
1000
0010
0M00
0010
0001
0100
M000
0100
1000
0100
0020
0000
0000
0000
,  // measure 288
0132
0000
0000
0000
1003
0010
0100
0001
1000
0100
01M0
0100
1000
0001
0100
0010
,  // measure 289
000M
0010
0001
0010
0M00
0010
1000
0100
0010
0000
0001
0000
1000
0000
0010
0000
,  // measure 290
2100
0000
0000
0000
3001
0010
0001
1000
0100
0100
0001
1000
0010
0010
0001
1000
,  // measure 291
0100
0100
0001
1000
0010
0010
0001
1000
0100
0100
0001
1000
0002
0000
0000
0000
,  // measure 292
2013
0000
0000
0000
3001
0100
0001
1000
0010
0010
0010
1000
0100
0100
0001
1000
,  // measure 293
0010
0000
0000
0000
0000
0000
0000
0000
0000
0000
0000
0000
0000
0000
0000
0000
0000
0000
0000
0000
0000
0000
0000
0000
1000
0000
0000
0000
0000
0000
0000
0000
0000
0000
0000
0000
0000
0000
0000
0000
0000
0000
0000
0000
0000
0000
0000
0000
0100
0000
0000
0000
0000
0000
0000
0000
0000
0000
0000
0000
0000
0000
0000
0000
0000
0000
0000
0000
0000
0000
0000
0000
0010
0000
0000
0000
0000
0000
0000
0000
0000
0000
0000
0000
0000
0000
0000
0000
0000
0000
0000
0000
0000
0000
0000
0000
0100
0000
0000
0000
0000
0000
0000
0000
0000
0000
1000
0000
0000
0000
0000
0000
0000
0000
0000
0001
0000
0000
0000
0000
0000
0000
0000
0000
0000
0010
0000
0000
0000
0000
0000
0000
0000
0000
0001
0000
0000
0000
0000
0000
0000
0000
0000
0000
1000
0000
0000
0000
0000
0000
0000
0000
0000
0000
0010
0000
0000
0000
0000
0000
0000
0000
0000
0100
0000
0000
0000
0000
0000
0000
0000
0000
0000
0001
0000
0000
0000
0000
0000
0000
0000
0000
1000
0000
0000
0000
0000
0000
0000
0000
0000
0000
,  // measure 294
0200
0000
0000
0000
1300
0001
0100
0010
1000
0100
0100
0100
0010
0100
0100
0100
,  // measure 295
1000
0100
0100
0100
0010
0100
0100
0100
1000
0001
0010
0100
1000
0000
0001
0000
,  // measure 296
2001
0000
0000
0000
3001
0100
0010
1000
0001
0010
0010
0010
0001
1000
0100
0100
,  // measure 297
0002
0000
0103
0010
1000
0100
0100
0100
0010
0000
0001
0000
1000
0000
0010
0000
,  // measure 298
0220
0000
0000
0330
0001
1000
0100
0010
0001
0100
0100
0100
0010
0100
0100
0100
,  // measure 299
0001
0100
0100
0100
0010
0100
0100
0100
0001
0100
0100
0100
0010
0100
0100
0100
,  // measure 300
0002
0000
1003
0100
1000
0100
0020
0000
,  // measure 301
0031
0000
1000
0000
0001
0000
1000
0000
0020
0000
0000
0000
0230
0000
0000
0300
,  // measure 302
0102
0000
0000
1003
0001
0000
1000
0000
0010
0000
0000
1000
0001
0000
1000
0000
,  // measure 303
0100
0000
0000
0010
0001
0000
1000
0000
0010
0000
0000
0100
0001
0000
1000
0000
,  // measure 304
0100
0000
0000
0010
0100
0000
1000
0000
0001
0000
0000
0100
0010
0000
1000
0000
,  // measure 305
0001
0000
0000
0010
0001
0000
1000
0000
0010
0000
0000
0100
0001
0000
1000
0000
,  // measure 306
0100
0000
0000
0010
0100
0000
1000
0000
0001
0000
0000
0100
0010
0000
1000
0000
,  // measure 307
0001
0000
0000
0010
0001
0000
1000
0000
0010
0000
0000
0100
0001
0000
1000
0000
,  // measure 308
0100
0000
0000
1000
0001
0000
1000
0000
0010
0000
0000
1000
0001
0000
1000
0000
,  // measure 309
0101
1000
0101
1000
0011
0100
0001
2000
,  // measure 310
0000
0000
0000
0000
,  // measure 311
0000
0000
0000
0000
,  // measure 312
0000
0000
0000
0000
,  // measure 313
0000
0000
0000
0000
,  // measure 314
3000
0000
0000
0000
;
